
//----- song ID: givm -----//
#TITLE:Give Me;
#ARTIST:Relect;
#BANNER:Give Me.png;
#BACKGROUND:Give Me-bg.png;
#CDTITLE:./CDTitles/DDR A20.png;
#MUSIC:Give Me.ogg;
#SAMPLESTART:37.24;
#SAMPLELENGTH:15;
#BPMS:0=174;
#NOTES:
     dance-single:
     :
     Beginner:
     3:
     :
0000
0000
0000
0000
,
0000
0000
0000
0000
,
0000
0000
0000
0000
,
0000
0000
0000
0000
,
0000
0000
0000
0000
,
0001
0000
0001
0000
,
1000
0000
1000
0000
,
0001
0000
0001
0000
,
1001
0000
0000
0000
,
1000
0000
0100
0000
,
1000
0000
0100
0000
,
1000
0000
0010
0000
,
1000
0000
0000
0000
,
0001
0000
0100
0000
,
0001
0000
0100
0000
,
0001
0000
0010
0000
,
0001
0000
0000
0000
,
1000
0000
1000
0000
,
0100
0000
1000
0000
,
0010
0000
1000
0000
,
0100
0000
0000
0000
,
0001
0000
0001
0000
,
0100
0000
0001
0000
,
0010
0000
0001
0000
,
0100
0000
0001
0000
,
0002
0000
0000
0000
,
0003
0000
0000
0000
,
1000
1000
1000
0000
,
1000
0000
0010
0000
,
0010
0010
0010
0000
,
0010
0000
0000
0000
,
0001
0001
0001
0000
,
0001
0000
0100
0000
,
0100
0100
0100
0000
,
0100
0000
0000
0000
,
1000
0000
1000
0000
,
0010
0010
0010
0000
,
1000
0000
0100
0000
,
1000
0000
0000
0000
,
0001
0001
0001
0000
,
0010
0010
0010
0000
,
0001
0000
0100
0000
,
0002
0000
0000
0000
,
0003
0000
0000
0000
,
0000
0000
0000
0000
,
1000
1000
1000
0000
,
0100
0000
1000
0000
,
0010
0010
0010
0000
,
1000
0000
1000
0000
,
0100
0100
0100
0000
,
1000
0000
0000
0000
,
0001
0001
0001
0000
,
0010
0000
0001
0000
,
0100
0100
0100
0000
,
0001
0000
0001
0000
,
0010
0010
0010
0000
,
0001
0001
0001
0000
,
0100
0100
0100
0000
,
0001
0000
0000
0000
,
1001
0000
0000
0000
,
1001
0000
0000
0000
,
1001
0000
0000
0000
,
0000
0000
0000
0000
,
1001
0000
0000
0000
,
1001
0000
0000
0000
,
1001
0000
0000
0000
,
0000
0000
0000
0000
,
2000
0000
0000
0000
,
3000
0000
0000
0000
,
1000
1000
1000
0000
,
0100
0000
0000
0000
,
0001
0000
0010
0000
,
0001
0000
0100
0000
,
0001
0000
0001
0000
,
0001
0000
0000
0000
,
1001
0000
0000
0000
,
0000
0000
0000
0000
;
#NOTES:
     dance-single:
     :
     Easy:
     7:
     :
0000
0000
0000
0000
,
0000
0000
0000
0000
,
0000
0000
0000
0000
,
0000
0000
0000
0000
,
0000
0000
0000
0000
,
0001
0100
0001
0100
,
0010
1000
0010
1000
,
0100
0010
0100
0010
,
2002
0000
0000
3003
,
0001
1000
0001
1000
,
0001
1000
0001
1000
,
0001
0100
0001
0100
,
0001
0100
0001
0000
,
1000
0001
1000
0001
,
1000
0001
1000
0001
,
1000
0100
1000
0100
,
2002
0000
0000
3003
,
0020
0000
1030
0010
,
1000
0100
1000
0010
,
1000
0100
1000
0010
,
1000
0100
1000
0000
,
0001
0010
0001
0100
,
0001
0010
0001
0100
,
0001
0010
0001
0100
,
0001
0010
0001
0100
,
2002
0000
0000
0000
,
0000
0000
0000
3003
,
0001
0001
0001
0000
,
0001
0100
1000
0000
,
1000
1000
1000
0000
,
1000
0010
0001
0000
,
0001
0001
0001
0000
,
0001
0010
1000
0000
,
1000
1000
1000
0000
,
1000
0100
0001
0000
,
0001
0010
0001
0010
,
1000
0100
1000
0100
,
0001
0100
0001
0100
,
1000
0010
1000
0010
,
1000
1000
0001
0001
,
1000
1000
0001
0001
,
1000
0001
1000
0001
,
2002
0000
0000
0000
,
3003
0000
0000
0000
,
0000
0000
0000
0000
,
0001
0010
0100
1001
,
0001
0010
0100
1001
,
0010
1000
0001
0110
,
0010
1000
0001
0110
,
0001
1000
0010
0110
,
2002
0000
0000
3003
,
1000
0010
0001
0110
,
0001
0010
1000
0110
,
1000
0010
0001
0110
,
0001
0010
1000
0110
,
0001
0100
1000
1001
,
1000
0100
0001
1001
,
0001
0100
1000
1001
,
0220
0000
0000
0330
,
0001
1000
0001
0001
,
0010
0100
0010
0010
,
0001
1000
0001
0001
,
0100
0010
0110
0000
,
0010
0100
0010
0010
,
0100
0010
0100
0100
,
0001
1000
0001
0001
,
1000
0001
1001
0000
,
2002
0000
0000
0000
,
0000
0000
0000
3003
,
1001
1001
1001
0000
,
0110
0110
0110
0000
,
0001
0010
0100
1100
,
1000
0010
0100
0101
,
0001
0100
1000
0100
,
0010
0010
0010
0000
,
0220
0000
0000
0000
,
0000
0000
0000
0000
,
0330
0000
0000
0000
,
0000
0000
0000
0000
;
#NOTES:
     dance-single:
     :
     Medium:
     12:
     :
0000
0000
0000
0000
,
0000
0000
0000
0000
,
0000
0000
0000
0000
,
0000
0000
0000
0000
,
0000
0000
0000
0000
,
0001
1000
0001
0000
1000
0001
1000
0000
,
0010
0100
0010
0000
0100
0010
0100
0000
,
0001
0010
0100
1000
0001
0010
0100
1000
,
0001
0000
0000
0001
0000
0000
0001
0000
0001
0000
0001
0000
0001
0000
0000
0000
,
1000
0100
0001
0100
,
1000
0100
0001
0100
,
1000
0010
0001
0010
,
1000
0010
0001
0020
,
1030
0100
0010
0100
,
1000
0100
0010
0100
,
0001
0001
0010
0010
,
2002
0000
0000
3003
,
0100
0000
0100
0000
0001
0010
0001
0000
,
1000
0010
1000
0000
0001
0010
0001
0000
,
1000
0100
1000
0000
0001
0100
0001
0000
,
1000
0100
1000
0000
0001
0100
0001
0000
,
0010
1000
0100
0000
0010
0001
0100
0000
,
0010
1000
0100
0000
0010
0001
0100
0000
,
0100
0001
0010
0000
0100
1000
0010
0000
,
0100
0001
0010
0000
0100
1000
0010
0000
,
0220
0000
0000
0000
,
0000
0000
0000
0330
,
1000
0000
0001
0000
0100
0010
1000
0000
,
0001
0000
0010
0100
0000
0100
1000
0000
,
0001
0000
1000
0000
0010
0100
0001
0000
,
1000
0000
0100
0010
0000
0010
0001
0000
,
0100
0000
0001
0000
0010
0100
0010
0000
,
0100
0000
1000
0001
0000
0001
0100
0000
,
0010
0000
1000
0000
0100
0010
0100
0000
,
0010
0000
0001
1000
0000
1000
0010
0000
,
1010
1010
1001
1001
,
0101
0101
0110
0110
,
1001
1001
0110
0110
,
1001
1001
0110
0110
,
0001
0010
0100
0010
0100
1000
0001
0000
,
1000
0010
0100
0010
0100
0001
1000
0000
,
0001
1000
0001
1000
0100
0010
0100
0000
,
1000
0000
0000
1000
0000
0000
1000
0000
1000
0000
1000
0000
1000
0000
0000
0000
,
2000
0000
0000
0000
,
0000
0000
3000
0001
0010
0100
1000
0000
,
0001
1000
0100
1000
0100
0001
0100
0010
,
0001
0100
0010
1000
0010
1000
0010
0001
,
0010
1000
0100
0010
0100
0010
0100
0010
,
1000
0010
0001
1000
0010
1000
0100
1000
,
0010
1000
0001
0100
0010
1000
0010
0000
,
2002
0000
0000
3003
,
0010
0100
0010
0100
1000
0010
0100
0010
,
1000
0001
0010
0100
0010
0001
1000
0100
,
0010
0001
1000
0001
1000
0010
0100
0010
,
0100
0001
0100
0001
1000
0100
0010
0001
,
1000
0010
1000
0100
0001
0100
1000
0100
,
1000
0010
0100
0010
0100
0001
0010
0100
,
0001
0100
1000
0010
1000
0100
0010
0001
,
0010
0000
0000
0010
0000
0000
0010
0000
0010
0000
0010
0000
0010
0000
0000
0000
,
0011
0011
1001
1001
,
1010
0000
1010
0000
0110
0000
0010
0100
,
0001
0011
0110
0110
,
0100
0010
0100
0010
0000
1000
0001
0010
,
0100
0100
0100
0000
0110
0000
1001
0000
,
0101
0101
0110
0110
,
1100
1100
0110
0110
,
1001
0000
1000
0100
0000
0001
0100
0000
,
0020
0000
0000
0000
,
0000
0000
0000
0030
,
0100
0100
0100
0100
0100
0000
1100
0000
,
1001
1001
0101
0010
,
1010
1010
1001
1001
,
0101
0000
0101
0000
0110
0000
0100
0100
,
0001
1001
0110
1001
,
1000
0100
0001
0100
0000
1000
0001
0000
,
2002
0000
0000
0000
,
0000
0000
0000
0000
,
3003
0000
0000
0000
,
0000
0000
0000
0000
;
#NOTES:
     dance-single:
     :
     Hard:
     15:
     :
0000
0000
0000
0000
,
0000
0000
0000
0000
,
0000
0000
0000
0000
,
0000
0000
0000
0000
,
0000
0000
0000
0000
,
0001
0010
0001
0010
0100
1000
0100
1000
,
0010
1000
0010
1000
0001
0100
0001
0100
,
0001
0010
0001
0010
0100
1000
0100
1000
0001
0010
0100
1000
0001
0010
0100
1000
,
0001
0000
0000
0001
0000
0000
0001
0000
0001
0000
0001
0000
0001
0000
0000
0000
,
1001
0000
0001
0000
0100
0001
0000
0000
1001
0000
0000
0001
0010
0000
0001
0000
,
1000
0001
0000
0000
0101
0000
0000
0001
1000
0000
0001
0000
0010
0001
0000
0000
,
1001
0000
0001
0000
0100
0001
0000
0000
1001
0000
0000
0001
0010
0000
0001
0000
,
1000
0001
0000
0000
0101
0000
0000
0001
1000
0000
0001
0000
0010
0000
0000
0000
,
1001
0000
1000
0000
0100
1000
0000
0000
1001
0000
0000
1000
0010
0000
1000
0000
,
0001
1000
0000
0000
1100
0000
0000
1000
0001
0000
1000
0000
0010
1000
0000
0000
,
1001
0000
1000
0000
0001
1000
0000
0000
1100
0000
0000
1000
0100
0000
1000
0000
,
0010
1000
0100
0020
0000
0031
0011
0000
,
0010
0000
0010
0000
0000
0010
0000
0000
1010
0000
0000
0010
0100
0000
0010
0000
,
0001
0010
0000
0000
0110
0000
0000
0010
1000
0000
0010
0000
0100
0010
0000
0000
,
0011
0000
0010
0000
0100
0010
0000
0000
1010
0000
0000
0010
0100
0000
0010
0000
,
0001
0010
0000
0000
0110
0000
0000
0010
1000
0000
0010
0000
0100
0010
0000
0000
,
1100
0000
0100
0000
0010
0100
0000
0000
0101
0000
0000
0100
0010
0000
0100
0000
,
1000
0100
0000
0000
0110
0000
0000
0100
0001
0000
0100
0000
0010
0100
0000
0000
,
0101
0000
0100
0000
0001
0100
0000
0000
0110
0000
0000
0100
1000
0000
0100
0000
,
0000
1000
0000
0000
1000
0000
0000
0001
0000
0000
0001
0000
0000
0100
0000
0000
,
0220
0000
0000
0000
,
0000
0000
0000
0330
,
0001
0000
1000
0000
0010
0000
0100
0001
0100
0001
0100
0000
0001
0000
0010
0000
,
0100
0000
1000
0000
0001
0000
1000
0010
1000
0010
1000
0000
0001
0000
0010
0000
,
0100
0000
1000
0000
0100
0000
0010
0001
0010
0001
0010
0000
0001
0000
0100
0000
,
0001
0000
0100
0000
0010
0000
1000
0100
1000
0100
1000
0000
0001
0000
0000
0000
,
1000
0000
0001
0000
0100
0000
0010
1000
0010
1000
0010
0000
1000
0000
0100
0000
,
0010
0000
0001
0000
1000
0000
0001
0100
0001
0100
0001
0000
1000
0000
0100
0000
,
0010
0000
0001
0000
0010
0000
0100
1000
0100
1000
0100
0000
1000
0000
0010
0000
,
1000
0000
0010
0000
0100
0000
0001
0010
0001
0010
0001
0000
1000
0000
0000
0000
,
1000
0100
1000
0000
0100
0001
0100
0000
,
1000
0010
1000
0000
0010
0001
0010
0000
,
0100
0001
0100
0000
0001
0010
0001
0000
,
0010
1000
0010
0000
0001
0010
0001
0000
,
0001
0010
0100
0010
0001
0010
0100
1000
,
0010
0100
0010
1000
0010
0100
0010
1000
,
0001
1000
0001
1000
0100
0010
0100
0010
0001
1000
0100
0010
0001
1000
0100
0010
,
0100
0000
0000
0100
0000
0000
0100
0000
0100
0000
0100
0000
0100
0000
0000
0000
,
0010
0000
0010
0000
0000
0010
0000
0000
0001
0000
0000
0001
0000
0000
0001
0000
,
0000
1000
0000
0000
1000
0000
0001
0000
0100
0000
0010
0000
0100
0000
0000
0000
,
0001
0000
0100
0000
0001
0010
0001
0010
0001
0000
1000
0100
1000
0100
1000
0000
,
0010
0100
0010
0000
1000
0100
1000
0100
1000
0000
0001
0000
0100
0010
0100
0000
,
0010
0000
1000
0000
0100
0010
0100
0010
0100
0000
1000
0010
1000
0010
1000
0000
,
0001
0010
0001
0000
1000
0010
1000
0010
1000
0000
0100
0000
0010
0001
0010
0000
,
0001
0000
0100
0000
0001
1000
0001
1000
0001
0000
1000
0001
1000
0001
1000
0000
,
0001
0100
0010
0100
0000
0100
0010
0000
,
1000
0000
0010
0000
1000
0100
1000
0100
1000
0000
0001
0010
0001
0010
0001
0000
,
0100
0010
0100
0000
0001
0010
0001
0010
0001
0000
1000
0000
0010
0100
0010
0000
,
0100
0000
0001
0000
0010
0100
0010
0100
0010
0000
0001
0100
0001
0100
0001
0000
,
1000
0100
1000
0000
0001
0100
0001
0100
0001
0000
0010
0000
0100
1000
0100
0000
,
1000
0000
0010
0000
1000
0001
1000
0001
1000
0000
0001
1000
0001
1000
0001
0000
,
1000
0000
0010
0000
0100
0001
0100
0001
0100
0000
0010
1000
0010
0000
1000
0000
,
0001
0010
0100
1000
0001
0010
0100
1000
,
0001
0000
0000
0001
0000
0000
0001
0000
0001
0000
0001
0000
0001
0000
0000
0000
,
1001
0001
0010
0100
1000
0010
1001
0000
,
1001
1000
0100
0010
0001
0100
0110
0010
,
1000
0001
0100
1000
0100
0001
1001
0000
,
1001
1000
0100
0001
0000
0001
0100
1000
,
1001
0001
0010
0100
0010
0001
0101
0000
,
1001
0000
1000
0000
0010
0000
0100
0000
0010
0000
1000
0000
1010
0000
0000
0010
,
1000
0001
0010
1000
0010
0001
1001
0000
,
1001
1000
0010
0001
0000
0001
0010
1000
,
2002
0000
0000
0000
,
0000
0000
0000
3003
,
1001
1001
1100
0101
1100
0000
1001
0000
,
0110
0001
0010
0100
1000
0010
0110
0000
,
0110
1000
0001
0100
0010
1000
0101
0000
,
1100
0001
0100
0010
1000
0001
0110
1000
,
1100
0010
0001
0100
0010
1000
1100
0000
,
1010
0010
0011
0010
0000
0001
0100
1000
,
2002
0000
0000
0000
,
0000
0000
0000
0000
,
3003
0000
0000
0000
,
0000
0000
0000
0000
;
#NOTES:
     dance-single:
     :
     Challenge:
     16:
     :
0000
0000
0000
0000
,
0000
0000
0000
0000
,
0000
0000
0000
0000
,
0000
0000
0000
0000
,
0000
0000
0000
0000
,
0001
0010
0100
0000
1000
0000
0010
0000
1000
0100
0010
0000
0001
0000
1000
0000
,
0010
0100
0001
0000
1000
0000
0100
0000
1000
0001
0100
0000
0010
0000
1000
0000
,
0100
1000
0001
0000
0100
0001
1000
0000
0010
1000
0001
0000
0010
0001
1000
0000
,
2002
0000
0000
3003
,
1001
0010
0100
0001
0010
0100
1000
0010
,
0110
0001
1000
0010
0100
0001
0010
0100
,
1100
0010
0001
0100
0010
1000
0001
0100
,
0110
0001
0010
0100
1000
0001
1001
0000
,
0110
0100
0001
0010
0100
1000
0010
0100
,
0101
0010
1000
0001
0010
0100
1000
0001
,
0011
1000
0100
0001
0100
0010
0001
0100
,
0110
0001
1000
0020
0000
0130
0110
0000
,
1010
0100
0001
1000
0011
0100
1000
0010
,
1001
0100
0010
0001
1010
0100
0010
0001
,
1100
0010
0100
1000
0101
1000
0100
0001
,
0110
0001
1000
0010
1100
0010
0100
1000
,
0101
0010
0001
1000
0110
0001
1000
0010
,
1100
0001
0010
1000
0110
1000
0100
0010
,
0101
1000
0001
0010
1100
0001
0100
0010
,
0100
0010
0100
0010
1000
0001
1000
0000
,
2002
0000
0000
0000
,
0000
0000
0000
3003
,
1000
0000
0010
0000
0100
0000
0001
0010
0000
0001
0010
0000
0100
0000
1000
0000
,
0010
0000
0100
0000
1000
0000
0001
0010
0000
0001
0010
0000
1000
0000
0100
0000
,
0010
0000
0001
0000
0100
0000
0010
1000
0000
0010
1000
0000
0100
0000
0001
0000
,
0100
0000
0010
0000
0001
0000
0100
0010
0000
0100
0010
0000
1001
0000
0000
0000
,
1000
0000
0001
0000
0100
0000
0010
1000
0000
1000
0010
0000
0100
0000
0001
0000
,
0010
0000
0100
0000
0001
0000
0100
0010
0000
0010
0100
0000
0001
0000
0100
0000
,
1000
0000
0010
0000
0100
0000
1000
0100
0000
0100
1000
0000
0100
0000
0001
0000
,
0010
0000
0100
0000
1000
0000
0001
1000
0000
1000
0001
0000
0110
0000
0000
0000
,
0001
0000
0100
0000
0010
0000
1000
0100
0000
0010
0001
0000
0010
0100
1000
0000
,
0001
0000
0100
0000
0001
0000
0010
0100
0000
1000
0100
0000
0010
0001
1000
0000
,
0010
0000
0100
0000
0001
0000
0010
0100
0000
1000
0010
0000
0100
0001
0010
0000
,
0001
0000
0100
0000
0001
0000
1000
0100
0000
0010
0100
0000
1000
0010
0100
0000
,
0010
1000
0001
0000
1001
0000
0001
0000
0100
0010
1000
0000
1010
0000
1000
0000
,
0001
0010
0100
0000
0110
0000
0100
0000
1000
0001
0100
0000
0101
0000
0100
0000
,
0001
0010
0100
0000
0001
0100
0010
0000
0001
1000
0010
0000
0100
1000
0100
0000
,
0220
0000
0000
0330
,
2002
0000
0000
0000
,
0000
0000
0000
3003
,
0100
0010
1000
0000
1010
0000
0100
0010
0001
0000
0101
0000
0001
0010
0100
0000
,
1000
0001
0100
0000
0101
0000
0001
1000
0100
0000
1100
0000
0010
0100
0010
0000
,
0001
1000
0010
0000
0110
0000
0001
1000
0100
0000
0110
0000
0001
0010
0100
0000
,
1000
0010
0100
0000
0110
0000
0001
1000
0100
0000
0110
0000
1000
0001
1000
0000
,
0010
0100
1000
0000
1100
0000
1000
0100
0010
0000
1000
0100
0010
0001
0010
0000
,
2002
0000
0000
3003
,
0001
0100
0010
0000
1000
0100
0010
0100
1000
0000
0001
1000
0010
0000
0110
0000
,
0100
0001
1000
0000
0001
0010
0100
0010
0001
0000
1000
0100
0010
0000
0110
0000
,
0100
1000
0001
0000
0100
0010
1000
0010
0100
0000
0001
0010
0100
0000
0110
0000
,
0010
0001
1000
0000
0100
1000
0001
1000
0100
0000
1000
0010
0100
0000
0110
0000
,
0001
1000
0100
0000
0010
0001
1000
0010
0100
0000
0001
1000
0100
0000
1100
0000
,
1000
0010
0100
0000
0001
0100
0010
1000
0001
0000
0100
0001
0010
0000
0011
0000
,
0100
1000
0010
0000
0110
0000
0110
0000
0100
0001
0010
0000
0110
0000
0110
0000
,
2002
0000
0000
3003
,
0001
0000
0100
0010
0100
0000
0001
0000
1000
0100
0010
0000
0001
0000
0100
0000
,
0001
0000
0010
0100
0010
0000
0001
0000
1000
0010
0100
0000
0010
0000
1000
0000
,
0100
0000
1000
0010
0100
0000
0010
0000
1000
0001
1000
0000
0001
0000
0100
0000
,
0010
0000
1000
0100
0010
0000
0001
0000
0100
0000
0010
0000
1001
0000
0000
0000
,
1000
0000
0001
0100
0001
0000
1000
0000
0010
0100
0001
0000
1000
0000
0100
0000
,
0010
0000
0001
1000
0010
0000
0100
0000
0010
1000
0100
0000
0010
0000
0001
0000
,
0100
0000
0010
1000
0001
0000
0100
0000
0010
0100
0001
0000
1000
0000
0100
0000
,
0010
0000
0001
0100
0010
0000
1000
0000
0100
1000
0010
0000
1001
0000
0000
0000
,
2002
0000
0000
0000
,
0000
0000
0000
3003
,
1000
0100
0010
0001
1000
0000
0001
0000
1000
0000
0000
0000
0110
0000
0000
0000
,
0010
1000
0001
0000
0100
0000
0001
0000
0010
0100
1000
0000
0002
0000
0000
0000
,
1003
0000
0001
0100
0010
0000
0100
0000
0001
0010
0100
0000
1000
0000
0001
0100
,
0001
0000
1000
0100
0010
0000
0001
0000
0100
0010
1000
0000
0010
0000
0100
0001
,
1000
0100
1000
0000
0010
0000
0100
0000
0001
0010
0100
0000
1000
0000
0001
0000
,
0100
0010
0100
0000
0001
0000
1000
0000
0000
0000
1000
0000
0100
0000
0000
0000
,
2002
0000
0000
0000
,
0000
0000
0000
0000
,
3003
0000
0000
0000
,
0000
0000
0000
0000
;
#NOTES:
     dance-double:
     :
     Easy:
     7:
     :
00000000
00000000
00000000
00000000
,
00000000
00000000
00000000
00000000
,
00000000
00000000
00000000
00000000
,
00000000
00000000
00000000
00000000
,
00000000
00000000
00000000
00000000
,
10000000
01000000
10000000
01000000
,
00100000
00010000
00100000
00001000
,
00010000
00001000
00010000
00001000
,
00022000
00000000
00033000
00000000
,
00000010
00000001
00000100
00000001
,
00000010
00000100
00001000
00000010
,
00000100
00001000
00010000
00001000
,
00000100
00001000
00010000
00011000
,
00100000
10000000
01000000
10000000
,
00100000
01000000
00010000
01000000
,
00100000
00100000
00010000
00010000
,
00022000
00000000
00000000
00033000
,
00000200
00000000
00000301
00000010
,
00001000
00000010
00000001
00000100
,
00001000
00000100
00000001
00000010
,
00001000
00010000
01000000
10000000
,
00100000
00010000
00100000
10000000
,
01000000
00010000
01000000
10000000
,
00100000
00010000
00100000
00010000
,
00001000
00010000
00001000
00000000
,
00022000
00000000
00000000
00000000
,
00000000
00000000
00000000
00033000
,
00001000
00000010
00001000
00000010
,
00000001
00000001
00000001
00000000
,
00000100
00001000
00000100
00001000
,
00010000
00010000
00010000
00000000
,
01000000
10000000
01000000
10000000
,
00100000
00100000
00100000
00000000
,
00010000
00001000
00010000
00001000
,
00010000
00010000
00010000
00000000
,
00000100
00000010
00001001
00000000
,
00000010
00000100
00001001
00000000
,
00000100
00001000
00011000
00000000
,
01000000
00010000
00011000
00000000
,
00010000
00100000
00010000
00100000
,
10000000
01000000
00010000
00001000
,
00000010
00000001
00000010
00000001
,
00002002
00000000
00000000
00000000
,
00003003
00000000
00000000
00000000
,
00000000
00000000
00000000
00000000
,
00100000
01000000
00010000
01100000
,
10000000
01000000
00100000
10010000
,
00100000
01000000
00100000
00011000
,
00000100
00001000
00000010
00001001
,
00000100
00000001
00001000
00000110
,
00002002
00000000
00000000
00003003
,
00000001
00000100
00001000
00000110
,
00010000
00001000
00100000
00011000
,
01000000
10000000
01000000
10010000
,
00100000
00001000
00010000
00011000
,
00100000
00100000
01000000
01000000
,
00010000
00010000
00001000
00001000
,
00000010
00000010
00000100
00000100
,
00002002
00000000
00000000
00003003
,
00000001
00000100
00000001
00001001
,
00000010
00001000
00010000
00011000
,
00001000
01000000
00100000
01100000
,
01000000
00010000
10010000
10010000
,
10000000
00100000
10000000
10010000
,
01000000
00010000
00001000
00011000
,
00010000
00000010
00000100
00000110
,
00000010
00001000
00001001
00001001
,
00000220
00000000
00000000
00000000
,
00000000
00000000
00000000
00000330
,
00011000
00011000
00011000
00000100
,
00000010
00000010
00001000
00010000
,
00100000
01000000
00010000
01100000
,
10000000
01000000
00010000
01100000
,
00010000
00001000
00010000
00001000
,
00000010
00000001
00001000
00000000
,
00002002
00000000
00000000
00000000
,
00000000
00000000
00000000
00000000
,
00003003
00000000
00000000
00000000
,
00000000
00000000
00000000
00000000
;
#NOTES:
     dance-double:
     :
     Medium:
     12:
     :
00000000
00000000
00000000
00000000
,
00000000
00000000
00000000
00000000
,
00000000
00000000
00000000
00000000
,
00000000
00000000
00000000
00000000
,
00000000
00000000
00000000
00000000
,
10000000
00100000
10000000
00000000
01000000
00010000
01000000
00000000
,
00010000
00001000
00010000
00000000
00001000
00000010
00001000
00000000
,
00000010
00000001
00000010
00000001
00000100
00000010
00001000
00000100
,
00010000
00000000
00000000
00010000
00000000
00000000
00010000
00000000
00010000
00000000
00010000
00000000
00010000
00000000
00000000
00000000
,
00100000
10000000
01000000
00010000
,
00001000
00000010
00000001
00000100
,
00001000
00010000
00100000
10000000
,
01000000
00010000
00001000
00011000
,
00001000
00000100
00000001
00000010
,
00001000
00010000
01000000
10000000
,
00100000
10000000
01000000
00010000
,
00022000
00000000
00000000
00033000
,
00010000
00000000
00010000
00000000
00000100
00000010
00000100
00000000
,
00000010
00001000
00000010
00000000
00001000
00010000
00001000
00000000
,
00001000
00000000
00001000
00000000
01000000
00100000
01000000
00000000
,
00100000
00010000
00100000
00000000
00010000
00001000
00010000
00000000
,
00010000
00000000
00010000
00000000
00000010
00000100
00000010
00000000
,
00000100
00001000
00000100
00000000
00001000
00010000
00001000
00000000
,
00010000
00100000
00010000
00000000
00100000
01000000
00100000
00000000
,
10000000
00100000
10000000
00000000
01000000
00010000
01000000
00000000
,
00022000
00000000
00000000
00000000
,
00033000
00000000
00000000
00000000
,
00001000
00000000
00000001
00000000
00000010
00000001
00000100
00000000
,
00000010
00000000
00001000
00000010
00000000
00001000
00000010
00000000
,
00000100
00000000
00000001
00000000
00000010
00000100
00010000
00000000
,
00001000
00000000
01000000
00001000
00000000
01000000
00001000
00000000
,
01000000
00000000
00100000
00000000
10000000
01000000
00100000
00000000
,
00010000
00000000
10000000
00100000
00000000
10000000
00100000
00000000
,
10000000
00000000
00010000
00000000
01000000
00001000
00010000
00000000
,
00000100
00000000
00001000
00000100
00000000
00001000
00000100
00000000
,
00000010
00000010
00001001
00001001
,
00000100
00000100
00011000
00011000
,
00100000
00100000
10010000
10010000
,
01000000
01000000
01100000
01100000
,
10000000
00100000
00010000
00000000
00001000
00010000
01000000
00000000
,
00010000
00001000
00000010
00000000
00001000
00000010
00000001
00000000
,
00000001
00000100
00000010
00010000
00001000
00100000
00010000
01000000
,
00100000
00000000
00000000
00100000
00000000
00000000
00100000
00000000
00100000
00000000
00100000
00000000
00100000
00000000
00000000
00000000
,
20020000
00000000
00000000
00000000
,
30030000
00000000
00000000
00100000
01000000
00100000
01000000
00000000
,
00100000
10000000
00100000
01000000
00010000
00100000
01000000
00010000
,
00001000
00100000
00001000
00010000
00001000
00000100
00000010
00001000
,
00000001
00000100
00000010
00001000
00000001
00000010
00000100
00001000
,
00000001
00000010
00000100
00000010
00001000
00010000
00000100
00010000
,
00001000
00100000
00010000
01000000
00100000
00010000
00001000
00010000
,
02000000
00000000
00000000
03000000
,
10000000
00100000
01000000
00100000
10000000
01000000
00100000
01000000
,
00010000
00001000
00010000
00000100
00001000
00000010
00000100
00001000
,
00010000
00001000
00000100
00000010
00001000
00000100
00000010
00000001
,
00000100
00000010
00001000
00000100
00000010
00000100
00010000
00001000
,
00010000
01000000
00100000
00010000
01000000
00100000
10000000
00100000
,
01000000
00010000
10000000
01000000
00100000
00001000
00010000
00001000
,
00000100
00000010
00000100
00000010
00001000
00000001
00001000
00000001
,
00000010
00000000
00000000
00000010
00000000
00000000
00000010
00000000
00000010
00000000
00000010
00000000
00000010
00000000
00000000
00000000
,
00000110
00000110
00001001
00001001
,
00001100
00000000
00001100
00000000
00011000
00000000
00010000
00001000
,
00010000
00110000
01100000
01100000
,
00100000
00010000
00100000
00010000
00000000
10000000
01000000
00100000
,
00010000
00010000
00010000
00000000
10010000
00000000
01100000
00000000
,
00011000
00011000
00001010
00001010
,
00000110
00000110
00001001
00001001
,
00000011
00000000
00000001
00000100
00000000
00000100
00001000
00000000
,
00022000
00000000
00000000
00000000
,
00000000
00000000
00000000
00033000
,
00100000
00100000
00100000
00100000
00100000
00000000
10100000
00000000
,
10010000
10010000
01010000
00100000
,
00101000
00101000
00011000
00011000
,
00001100
00001100
00000110
00000110
,
00001001
00001001
00000110
00000110
,
00001000
00010000
00001000
00010000
00000000
00010000
00100000
00000000
,
02200000
00000000
00000000
00000000
,
00000000
00000000
00000000
00000000
,
03300000
00000000
00000000
00000000
,
00000000
00000000
00000000
00000000
;
#NOTES:
     dance-double:
     :
     Hard:
     16:
     :
00000000
00000000
00000000
00000000
,
00000000
00000000
00000000
00000000
,
00000000
00000000
00000000
00000000
,
00000000
00000000
00000000
00000000
,
00000000
00000000
00000000
00000000
,
10000000
00100000
10000000
00100000
01000000
00010000
00100000
00010000
,
01000000
00001000
01000000
00001000
00010000
00000010
00001000
00000010
,
00000100
00000001
00000100
00000001
00000100
00000001
00000100
00000001
00001000
00000010
00001000
00000010
00001000
00000010
00001000
00000010
,
00000100
00000000
00000000
00000100
00000000
00000000
00000100
00000000
00000100
00000000
00000100
00000000
00000100
00000000
00000000
00000000
,
00000011
00000000
00000001
00000000
00000100
00000010
00000000
00000000
00001010
00000000
00000000
00000100
00010000
00000000
00001000
00000000
,
00100000
00010000
00000000
00000000
01100000
00000000
00000000
00010000
10000000
00000000
01000000
00000000
00100000
01000000
00000000
00000000
,
11000000
00000000
10000000
00000000
00100000
01000000
00000000
00000000
01010000
00000000
00000000
00100000
00001000
00000000
00010000
00000000
,
00000100
00001000
00000000
00000000
00000110
00000000
00000000
00001000
00000001
00000000
00000010
00000000
00000110
00000000
00000000
00000000
,
00000101
00000000
00000001
00000000
00000010
00000100
00000000
00000000
00001100
00000000
00000000
00000010
00010000
00000000
00001000
00000000
,
01000000
00010000
00000000
00000000
01100000
00000000
00000000
00010000
10000000
00000000
00100000
00000000
01000000
00100000
00000000
00000000
,
01100000
00000000
00100000
00000000
10000000
00010000
00000000
00000000
01100000
00000000
00000000
00010000
01000000
00000000
00001000
00000000
,
00010000
00000010
00001000
00000100
00000000
00000100
00000010
00000000
,
00000001
00000000
00000001
00000000
00000000
00000001
00000000
00000000
00000101
00000000
00000000
00000100
00000010
00000000
00000100
00000000
,
00000010
00001000
00000000
00000000
00011000
00000000
00000000
00010000
01000000
00000000
00100000
00000000
01000000
00100000
00000000
00000000
,
11000000
00000000
01000000
00000000
00100000
01000000
00000000
00000000
01010000
00000000
00000000
01000000
00010000
00000000
00001000
00000000
,
00000010
00001000
00000000
00000000
00000110
00000000
00000000
00000100
00000010
00000000
00000001
00000000
00000010
00000001
00000000
00000000
,
00000101
00000000
00000001
00000000
00000100
00000001
00000000
00000000
00001100
00000000
00000000
00001000
00000100
00000000
00001000
00000000
,
00010000
00100000
00000000
00000000
01100000
00000000
00000000
00100000
10000000
00000000
00100000
00000000
10000000
00100000
00000000
00000000
,
10100000
00000000
00100000
00000000
10000000
00100000
00000000
00000000
01100000
00000000
00000000
00100000
00010000
00000000
00001000
00000000
,
00000000
00000100
00000000
00000000
00000100
00000000
00000000
00000001
00000000
00000000
00000001
00000000
00000000
00001000
00000000
00000000
,
00002002
00000000
00000000
00000000
,
00003003
00000000
00000000
00000000
,
00000001
00000000
00001000
00000000
00000010
00000000
00000100
00000001
00000100
00000001
00000100
00000000
00000001
00000000
00000100
00000000
,
00000010
00000000
00001000
00000000
00000100
00000000
00010000
00001000
00010000
00001000
00010000
00000000
00001000
00000000
01000000
00000000
,
00010000
00000000
01000000
00000000
00100000
00000000
10000000
00010000
10000000
00010000
10000000
00000000
01000000
00000000
00100000
00000000
,
00001000
00000000
00010000
00000000
00000100
00000000
00001000
00000100
00001000
00000100
00001000
00000000
00000010
00000000
00000000
00000000
,
00000100
00000000
00000001
00000000
00001000
00000000
00000100
00000010
00000100
00000010
00000100
00000000
00001000
00000000
00000010
00000000
,
00000100
00000000
00001000
00000000
00010000
00000000
00100000
01000000
00100000
01000000
00100000
00000000
10000000
00000000
00010000
00000000
,
01000000
00000000
00010000
00000000
10000000
00000000
01000000
00010000
01000000
00010000
01000000
00000000
00010000
00000000
00001000
00000000
,
00000010
00000000
00000001
00000000
00001000
00000000
00000001
00000100
00000001
00000100
00000001
00000000
00001000
00000000
00000000
00000000
,
00000001
00000100
00000001
00000000
00000001
00000100
00001000
00000000
,
00010000
00001000
00000010
00000000
00000010
00001000
00010000
00000000
,
00001000
00010000
00100000
00000000
00100000
00010000
00001000
00000000
,
00010000
01000000
10000000
00000000
10000000
01000000
10000000
00000000
,
10000000
01000000
10000000
01000000
00100000
00010000
01000000
00010000
,
00100000
00001000
00100000
00001000
00010000
00000100
00001000
00000100
,
00000010
00000001
00000010
00000001
00000010
00000001
00000010
00000001
00001000
00000100
00001000
00000100
00001000
00000100
00001000
00000100
,
00000010
00000000
00000000
00000010
00000000
00000000
00000010
00000000
00000010
00000000
00000010
00000000
00000010
00000000
00000000
00000000
,
00000001
00000000
00000001
00000000
00000000
00000001
00000000
00000000
00000100
00000000
00000000
00000100
00000000
00000000
00001000
00000000
,
00000000
00001000
00000000
00000000
01000000
00000000
00100000
00000000
10000000
00000000
00010000
00000000
10010000
00000000
00000000
00000000
,
10000000
00000000
00100000
00000000
01000000
00100000
01000000
00100000
01000000
00000000
00010000
00100000
00010000
00100000
00010000
00000000
,
00100000
01000000
00100000
00000000
00001000
00010000
00001000
00010000
00001000
00000000
00010000
00000000
00000100
00001000
00000100
00000000
,
00000010
00000000
00000001
00000000
00000100
00000010
00000100
00000010
00000100
00000000
00000010
00001000
00000010
00001000
00000010
00000000
,
00000100
00001000
00000100
00000000
00001000
00010000
00001000
00010000
00001000
00000000
00010000
00000000
00100000
10000000
00100000
00000000
,
10000000
00000000
01000000
00000000
10000000
00010000
10000000
00010000
10000000
00000000
01000000
00100000
01000000
00100000
01000000
00000000
,
00100000
00001000
00010000
00002000
00000000
00010000
00013000
00000000
,
00000100
00000000
00001000
00000000
00000001
00000100
00000001
00000100
00000001
00000000
00000010
00000001
00000010
00000001
00000010
00000000
,
00001000
00000010
00001000
00000000
00010000
00001000
00010000
00001000
00010000
00000000
00001000
00000000
00100000
00010000
00100000
00000000
,
00010000
00000000
01000000
00000000
00100000
10000000
00100000
10000000
00100000
00000000
10000000
01000000
10000000
01000000
10000000
00000000
,
00100000
00010000
00100000
00000000
00010000
00001000
00010000
00001000
00010000
00000000
00000100
00000000
00001000
00000100
00001000
00000000
,
00000001
00000010
00000100
00001000
00000010
00000100
00001000
00010000
,
00100000
01000000
00010000
00100000
01000000
10000000
00100000
00100000
,
10000000
01000000
00010000
00010000
00001000
00000010
00000001
00000002
,
00001000
00000000
00000000
00001000
00000000
00000000
00001000
00000000
00001000
00000000
00001000
00000000
00001003
00000000
00000000
00000000
,
00001001
00000100
00000010
00001000
00000100
00010000
00011000
00000000
,
00011000
00001000
01000000
00100000
10000000
01000000
01100000
00100000
,
01100000
10000000
00100000
00010000
00001000
01000000
01001000
00000000
,
00011000
00010000
00000100
00000010
00000000
00000010
00000001
00000001
,
00001001
00000010
00000100
00001000
00000010
00000100
00000110
00000000
,
00001100
00000000
00001000
00000000
00010000
00000000
00100000
00000000
01000000
00000000
00010000
00000000
10010000
00000000
00000000
10000000
,
00100000
00010000
10000000
01000000
00100000
10000000
01100000
00000000
,
01100000
00010000
00001000
00000010
00000000
00000010
00000001
00000100
,
00002002
00000000
00000000
00000000
,
00000000
00000000
00000000
00003003
,
00001001
00001001
00000011
00001010
00011000
00000000
01010000
00000000
,
11000000
00100000
00010000
00100000
01000000
00100000
10010000
00000000
,
10100000
01000000
10000000
00010000
01000000
00001000
00011000
00000000
,
00010010
00001000
00000100
00000010
00000001
00000100
00001010
00001000
,
00001001
00000100
00000010
00000001
00000010
00001000
00011000
00000000
,
00011000
00001000
01000000
01000000
00000000
01000000
00100000
00100000
,
20020000
00000000
00000000
00000000
,
00000000
00000000
00000000
00000000
,
30030000
00000000
00000000
00000000
,
00000000
00000000
00000000
00000000
;
#NOTES:
     dance-double:
     :
     Challenge:
     16:
     :
00000000
00000000
00000000
00000000
,
00000000
00000000
00000000
00000000
,
00000000
00000000
00000000
00000000
,
00000000
00000000
00000000
00000000
,
00000000
00000000
00000000
00000000
,
00100000
10000000
00100000
00000000
01000000
00000000
00010000
00000000
00100000
00001000
00010000
00000000
00001000
00000000
00010000
00000000
,
00000100
00001000
00000100
00000000
00000010
00000000
00000001
00000000
00001000
00000001
00000100
00000000
00000010
00000000
00001000
00000000
,
00000001
00000010
00000100
00000000
00000010
00000100
00001000
00000000
00000100
00010000
00001000
00000000
00100000
00010000
00100000
00000000
,
20020000
00000000
00000000
30030000
,
10100000
00100000
01000000
00010000
00100000
01000000
00010000
00001000
,
00011000
00010000
00000100
00001000
00000010
00000100
00000001
00000010
,
00000110
00000100
00001000
00000010
00000100
00000001
00001000
00000100
,
00000110
00000010
00001000
00010000
00001000
00010000
01000000
00000000
,
11000000
10000000
00100000
01000000
00010000
00100000
00001000
00010000
,
00011000
00010000
00000010
00001000
00000100
00000010
00000001
00000100
,
00001100
00001000
00000100
00000010
00010000
00001000
00010000
00100000
,
01100000
01000000
10000000
02000000
00000000
00010000
03010000
00000000
,
10100000
01000000
00010000
10000000
01100000
00010000
00100000
00001000
,
00011000
00000100
00001000
00000010
00000101
00001000
00000001
00000010
,
00001100
00010000
00001000
00100000
00011000
00000100
00010000
00001000
,
01010000
00100000
10000000
00010000
01100000
10000000
01000000
00100000
,
11000000
00010000
00100000
01000000
00110000
00001000
00010000
00000100
,
00011000
00100000
00001000
00010000
00001100
00000010
00001000
00000001
,
00000110
00001000
00000010
00000100
00000011
00001000
00000100
00000010
,
00001001
00000100
00010000
00001000
01010000
00100000
10000000
00000000
,
20020000
00000000
00000000
00000000
,
00000000
00000000
00000000
30030000
,
00100000
00000000
10000000
00000000
01000000
00000000
00100000
00001000
00000000
00100000
00001000
00000000
00010000
00000000
00000100
00000000
,
00001000
00000000
00000010
00000000
00000001
00000000
00000010
00000100
00000000
00000010
00000100
00000000
00000001
00000000
00000010
00000000
,
00001000
00000000
00010000
00000000
00001000
00000000
00010000
00000100
00000000
00010000
00000100
00000000
00010000
00000000
00001000
00000000
,
00010000
00000000
01000000
00000000
00100000
00000000
00010000
10000000
00000000
00010000
10000000
00000000
01100000
00000000
00000000
00000000
,
00010000
00000000
10000000
00000000
00100000
00000000
01000000
00010000
00000000
00010000
00100000
00000000
00001000
00000000
00010000
00000000
,
00000010
00000000
00001000
00000000
00000100
00000000
00000010
00000001
00000000
00000001
00000010
00000000
00000100
00000000
00001000
00000000
,
00000010
00000000
00000001
00000000
00000010
00000000
00001000
00010000
00000000
00010000
01000000
00000000
00100000
00000000
10000000
00000000
,
01000000
00000000
00010000
00000000
00001000
00000000
00000010
00000001
00000000
00000001
00000010
00000000
00001001
00000000
00000000
00000000
,
00000001
00000000
00000100
00000000
00000010
00000000
00001000
00000100
00000000
00000010
00000100
00000000
00001000
00000100
00010000
00000000
,
00001000
00000000
00100000
00000000
00010000
00000000
01000000
00100000
00000000
10000000
00100000
00000000
01000000
00010000
10000000
00000000
,
01000000
00000000
00100000
00000000
00001000
00000000
00010000
00000010
00000000
00000010
00001000
00000000
00000100
00000010
00000001
00000000
,
00000100
00000000
00000010
00000000
00010000
00000000
00001000
01000000
00000000
01000000
00010000
00000000
00100000
00010000
10000000
00000000
,
00100000
10000000
00100000
00000000
01000000
00000000
01010000
00000000
00100000
00001000
00100000
00000000
00001000
00000000
00011000
00000000
,
00000100
00001000
00000100
00000000
00000010
00000000
00000011
00000000
00000001
00001000
00000001
00000000
00000100
00000000
00000110
00000000
,
00000001
00000010
00001000
00000000
00000010
00000100
00010000
00000000
00001000
01000000
00100000
00000000
00010000
00100000
10000000
00000000
,
20020000
00000000
00000000
30030000
,
02200000
00000000
00000000
00000000
,
00000000
00000000
00000000
03300000
,
10000000
00100000
01000000
00000000
00010000
00000000
00100000
01000000
10000000
00000000
11000000
00000000
01000000
00100000
00010000
00000000
,
01000000
00001000
00010000
00000000
00001000
00000000
00010000
00000100
00001000
00000000
00001010
00000000
00000100
00000001
00000010
00000000
,
00000100
00001000
00000001
00000000
00000100
00000000
00001000
00010000
00100000
00000000
01100000
00000000
00010000
10000000
00100000
00000000
,
10000000
01000000
00100000
00000000
01000000
00000000
00010000
00001000
00000010
00000000
00000110
00000000
00001000
00000001
00000010
00000000
,
00000001
00000010
00000100
00000000
00001000
00000000
00000010
00000100
00000001
00000000
00000101
00000000
00000010
00010000
00001000
00000000
,
00022000
00000000
00000000
00033000
,
00001000
01000000
00100000
00000000
10000000
01000000
00100000
01000000
10000000
00000000
00100000
01000000
00010000
00000000
00110000
00000000
,
00100000
00001000
00010000
00000000
00000100
00001000
00000001
00001000
00000100
00000000
00000010
00000001
00001000
00000000
00001001
00000000
,
00000010
00000100
00000001
00000000
00001000
00000100
00000010
00000100
00001000
00000000
00000010
00010000
00001000
00000000
00011000
00000000
,
00100000
00001000
00010000
00000000
00001000
01000000
00010000
01000000
00100000
00000000
01000000
00010000
00100000
00000000
01100000
00000000
,
10000000
00010000
00100000
00000000
01000000
10000000
00010000
10000000
01000000
00000000
00100000
00010000
01000000
00000000
00011000
00000000
,
00001000
00010000
00000010
00000000
00001000
00000010
00001000
00000001
00001000
00000000
00000100
00000010
00000001
00000000
00000011
00000000
,
00000001
00001000
00000100
00000000
00001100
00000000
00001100
00000000
00001000
00000100
00010000
00000000
00011000
00000000
00011000
00000000
,
00022000
00000000
00000000
00033000
,
00001000
00100000
00010000
00000000
10000000
00100000
01000000
00000000
00100000
10000000
00100000
00000000
10010000
00000000
00000000
00000000
,
10000000
01000000
00100000
00000000
00010000
01000000
00001000
00000000
00100000
00001000
00010000
00000000
00011000
00000000
00000000
00000000
,
00010000
00000100
00001000
00000000
00000100
00000010
00000001
00000000
00001000
00000100
00000010
00000000
00001001
00000000
00000000
00000000
,
00000010
00000100
00000001
00000000
00001000
00000100
00000010
00000000
00001000
00000010
00000001
00000000
00001001
00000000
00001000
00000000
,
00000010
00000100
00000001
00000000
00001000
00000100
00010000
00000000
00001000
00100000
00010000
00000000
01100000
00000000
00000000
00000000
,
00100000
01000000
00010000
00000000
01000000
10000000
00010000
00000000
01000000
00100000
10000000
00000000
10010000
00000000
00000000
00000000
,
01000000
00100000
00010000
00000000
01000000
00001000
00010000
00000000
00001000
00010000
00000010
00000000
00001010
00000000
00000000
00000000
,
00000100
00000001
00001000
00000000
00000100
00000010
00000100
00000000
00000010
00000001
00000100
00000000
00000110
00000000
00000000
00000000
,
00002002
00000000
00000000
00000000
,
00000000
00000000
00000000
00003003
,
00000010
00010000
00001000
00010000
00001000
00000000
00001000
00000000
00001000
00000000
00000000
00000000
00011000
00000000
00000000
00000000
,
01000000
00010000
00100000
00000000
01000000
10000000
00100000
00000000
01000000
00000000
01000000
00000000
10010000
00000000
00000000
00000000
,
10000000
00100000
01000000
00000000
00010000
01000000
00100000
00000000
10000000
01000000
00100000
00000000
00001000
00000000
00010000
00000000
,
00000100
00001000
00000001
00000000
00000010
00000001
00001000
00000000
00000010
00001000
00000001
00000000
00000100
00000000
00001000
00000000
,
00010000
00100000
01000000
00000000
01010000
00000000
00010000
00000000
00100000
01000000
10000000
00000000
11000000
00000000
01000000
00000000
,
00100000
00001000
00010000
00000000
00011000
00000000
00001000
00000000
00000010
00000001
00000100
00000010
00000100
00000000
00000000
00000000
,
00002002
00000000
00000000
00000000
,
00000000
00000000
00000000
00000000
,
00003003
00000000
00000000
00000000
,
00000000
00000000
00000000
00000000
;
