
//----- song ID: godf -----//
#TITLE:Get On Da Floor;
#ARTIST:DJ Shimamura;
#BANNER:Get On Da Floor.png;
#BACKGROUND:Get On Da Floor-bg.png;
#CDTITLE:./CDTitles/DDR A20.png;
#MUSIC:Get On Da Floor.ogg;
#SAMPLESTART:49.692;
#SAMPLELENGTH:15;
#BPMS:0=140;
#NOTES:
     dance-single:
     :
     Beginner:
     2:
     :
0000
0000
0000
0000
,
0000
0000
0000
0000
,
0000
0000
0000
0000
,
0000
0000
0000
0000
,
0000
0000
0000
0000
,
0000
0000
0000
0000
,
0000
0000
0000
0000
,
1000
0000
1000
0000
,
1000
0000
0000
0000
,
1000
0000
0010
0000
,
2000
0000
0000
0000
,
3000
0000
0000
0000
,
0001
0000
0001
0000
,
0001
0000
0000
0000
,
0001
0000
0001
0000
,
0001
0000
0000
0000
,
0001
0000
0001
0000
,
0001
0000
0000
0000
,
0002
0000
0000
0000
,
0003
0000
0000
0000
,
0000
0000
0000
0000
,
1000
0000
0100
0000
,
1000
0000
0000
0000
,
1000
0000
0010
0000
,
1000
0000
0000
0000
,
0001
0000
0100
0000
,
0001
0000
0000
0000
,
0001
0000
0010
0000
,
0001
0000
0000
0000
,
0001
0000
0001
0000
,
0001
0000
0001
0000
,
0010
0000
0010
0000
,
0001
0000
0000
0000
,
1000
0000
1000
0000
,
1000
0000
1000
0000
,
0010
0000
0010
0000
,
1000
0000
0000
0000
,
1001
0000
0000
0000
,
0000
0000
0000
0000
,
1001
0000
0000
0000
,
0000
0000
0000
0000
,
0001
0000
0100
0000
,
0001
0000
0100
0000
,
0001
0000
0001
0000
,
0002
0000
0000
0000
,
0003
0000
0000
0000
,
1000
0000
1000
0000
,
1000
0000
0000
0000
,
2000
0000
0000
0000
,
3000
0000
0000
0000
,
0001
0000
0001
0000
,
0001
0000
0000
0000
,
0002
0000
0000
0000
,
0003
0000
0000
0000
,
1000
0000
0100
0000
,
1000
0000
1000
0000
,
1000
0000
0000
0000
,
0001
0000
0010
0000
,
0001
0000
0001
0000
,
0001
0000
0100
0000
,
0001
0000
0000
0000
,
1001
0000
0000
0000
,
0000
0000
0000
0000
;
#NOTES:
     dance-single:
     :
     Easy:
     5:
     :
0000
0000
0000
0000
,
0000
0000
0000
0000
,
0000
0000
0000
0000
,
0000
0000
0000
0000
,
0000
0000
0000
0000
,
0000
0000
0000
0000
,
0000
0000
0000
0000
,
0010
0010
1000
0000
,
0010
0010
0001
0000
,
0010
0010
1000
0000
,
0010
0001
0100
0000
,
0001
0001
1000
1000
,
0001
1000
0001
0000
,
0010
0010
0100
0100
,
0010
0100
0010
0000
,
1000
1000
0100
0100
,
0010
0001
0010
0000
,
0001
0001
0100
0100
,
0010
1000
0010
0000
,
0220
0000
0000
0000
,
0000
0000
0330
0000
,
1000
0100
1000
0000
,
1000
0100
0010
0000
,
0001
0100
0001
0000
,
0001
0100
0010
0000
,
1000
0010
1000
0000
,
1000
0010
0100
0000
,
0001
0010
0001
0000
,
0002
0000
2003
0000
,
3001
0010
0001
0100
,
0010
1000
0010
0000
,
1000
0010
1000
0100
,
0010
0001
0010
0000
,
0001
0100
0001
0010
,
0100
1000
0100
0000
,
1000
0010
1000
0010
,
0200
0000
0000
0000
,
0310
0000
0010
0000
,
0010
0010
0010
0000
,
0100
0000
0100
0000
,
0100
0100
0100
0000
,
1000
0001
1000
0000
,
0001
1000
0001
0000
,
0100
0010
0100
0000
,
0010
0100
0020
0000
,
0130
0001
0100
0001
,
1000
0100
1000
1000
,
0010
1000
0010
1000
,
0001
0010
0002
0003
,
0100
1000
0100
1000
,
0001
0100
0001
0001
,
0010
0001
0010
0001
,
1000
0010
2000
3000
,
2002
0000
0000
3003
,
0100
0010
0100
0100
,
0001
1000
0001
1000
,
0010
0010
0010
0000
,
0001
1000
0001
1000
,
0010
0100
0010
0010
,
1000
0001
1000
0001
,
0010
0010
0010
0000
,
2002
0000
0000
0000
,
0000
0000
0000
0000
,
3003
0000
0000
0000
,
0000
0000
0000
0000
;
#NOTES:
     dance-single:
     :
     Medium:
     8:
     :
0000
0000
0000
0000
,
0000
0000
0000
0000
,
0000
0000
0000
0000
,
0000
0000
0000
0000
,
0000
0000
0000
0000
,
0000
0000
0000
0000
,
0000
0000
0000
0000
,
0010
0000
0100
0000
0001
1000
0001
0000
,
0010
0000
0100
0000
1000
0001
1000
0000
,
0010
0000
0100
0000
0001
1000
0001
0000
,
2000
3200
0320
0032
,
1003
0000
0000
0000
1001
0000
0000
0000
0010
0000
0000
0010
0000
0000
0010
0000
,
0001
0000
0000
0000
0110
0000
0000
0000
1000
0000
0000
1000
0000
0000
1000
0000
,
0010
0000
0000
0000
1001
0000
0000
0000
0100
0000
0000
0100
0000
0000
0100
0000
,
0001
0000
0000
0000
0110
0000
0000
0000
0001
0000
0000
0001
0000
0000
0001
0000
,
1000
0100
1000
0001
0020
0000
0030
0000
,
0100
0001
0100
0010
2000
0000
3000
0000
,
1000
0100
0010
0000
0001
0100
0010
0000
,
1010
0011
2002
3003
,
0020
0000
0000
0000
,
0100
0100
0100
0000
,
0130
0000
0010
0000
1000
0100
1000
0000
,
0001
0010
0001
1000
0200
0000
0300
0000
,
0010
0000
0100
0000
0001
0010
0001
0000
,
1000
0100
1000
0001
0020
0000
0030
0000
,
1000
0000
0001
0000
0100
0010
1000
0000
,
0100
0010
0001
0100
0020
0000
0030
0000
,
0001
0000
1000
0000
0100
0010
0100
1000
,
0200
0320
0032
0003
,
1000
0010
0100
1000
,
0100
0001
0100
0000
2002
0000
3003
0000
,
0001
0010
0100
0001
,
0100
1000
0100
0000
2002
0000
3003
0000
,
0001
0100
0010
0000
1000
0000
1100
0000
,
0010
0001
0010
0000
0220
0000
0330
0000
,
1000
0010
0100
0000
0001
0000
0101
0000
,
0020
2030
3200
0302
,
0103
0100
0110
0000
,
0001
0101
1000
1100
,
0010
0010
0110
0000
,
0001
0011
1000
1010
,
0001
0000
0100
0000
0001
0100
0001
0000
,
1000
0000
0100
0000
1000
0100
1000
0000
,
0001
0010
0001
0000
1000
0010
1000
0000
,
0001
0010
0100
0000
2002
0000
3003
0000
,
0001
0110
0010
1000
,
0001
0000
0101
0000
1000
0100
1000
0000
,
0010
1001
0001
0100
,
0010
1100
0100
1001
,
1000
0110
0010
0001
,
1000
0000
1001
0000
0001
0100
0001
0000
,
0010
1001
1000
0100
,
0010
0001
0100
1001
,
0000
0010
1000
0000
0100
0000
0110
0000
,
0000
0010
0001
0000
0100
0000
0110
0000
,
0001
0010
1000
0010
0001
0000
1001
0000
,
2000
3020
0230
0000
,
0300
0001
0100
0000
0010
0000
1010
0000
,
0000
1000
0100
0000
0010
0000
0011
0000
,
0100
0010
0100
0000
0110
0000
1001
0000
,
0001
0100
1000
0100
0002
0000
0000
0000
,
2000
0000
0000
0000
,
0000
0000
0000
0000
,
3003
0000
0000
0000
,
0000
0000
0000
0000
;
#NOTES:
     dance-single:
     :
     Hard:
     11:
     :
0000
0000
0000
0000
,
0000
0000
0000
0000
,
0000
0000
0000
0000
,
0000
0000
0000
0000
,
0000
0000
0000
0000
,
0000
0000
0000
0000
,
0000
0000
0000
0000
,
0010
1000
0100
1000
0000
0010
0100
0000
,
0001
0010
0100
0010
0000
0001
0100
0000
,
0010
0010
1000
0100
0000
1000
0010
0000
,
0200
0302
0023
0230
,
1300
0000
0001
0000
1000
0000
0000
0000
0100
0000
0000
0100
0010
0000
0001
0000
,
1000
0000
0001
0000
1000
0000
0000
0000
0001
0000
0000
0001
0100
0000
0010
0000
,
1000
0000
0100
0000
1000
0000
0000
0000
0100
0000
0000
0100
0010
0000
0001
0000
,
0100
0000
0001
0000
0100
0000
0000
0000
0010
0000
0100
0010
0000
0000
0100
0000
,
0001
0010
1000
0000
1000
0010
0001
0000
,
1000
0100
0001
0000
0001
0100
1000
0000
,
0001
1000
0100
0010
0001
0010
0100
1000
,
0010
0100
0010
0100
2002
0000
3003
0000
,
0020
0000
0000
0000
,
0100
0000
0100
0100
0000
0100
0130
0000
,
0010
0000
1000
0000
0100
0000
0000
0000
0101
0000
0000
0101
0000
0000
0101
0000
,
0100
0000
0000
1000
0000
0000
0001
0000
0200
0000
0000
0000
0310
0000
0000
0000
,
0010
0000
0001
0000
0100
0000
0000
0000
1100
0000
0000
1100
0000
0000
1100
0000
,
0100
0000
0000
0001
0000
0000
0010
0000
0200
0000
0000
0000
0310
0000
0000
0000
,
0010
0000
0001
0000
0100
0000
0000
0000
0110
0000
0000
0110
0000
0000
0110
0000
,
1000
0000
0000
0100
0000
0000
0010
0000
0002
0000
0000
0000
0103
0000
0000
0000
,
0010
0000
1000
0000
0100
0000
0000
0000
0110
0000
0000
0110
0000
0000
0110
0000
,
0002
0000
0103
1001
,
0000
0100
0010
0100
0020
0000
0000
1030
,
0000
0100
0010
0100
0020
0000
0031
0000
,
0001
0001
1000
0010
0200
0000
0000
1000
,
0310
1000
0100
0000
0010
0001
0100
0000
,
0000
1000
0001
1000
0002
0000
0000
0013
,
0000
0001
1000
0001
2000
0000
3010
0000
,
0100
0100
0010
1000
0200
0000
0000
1000
,
1300
0000
0000
0010
0000
0000
0100
0000
0020
0000
2000
0000
3030
0000
0000
0000
,
0001
0000
0000
0001
0000
0000
0001
0000
1000
0000
0100
0000
0010
0000
0110
0000
,
0000
0000
1000
0000
0000
1000
0000
0000
0001
0000
0100
0000
0010
0000
0100
0000
,
0010
0000
0000
0010
0000
0000
0010
0100
0010
0000
1000
0000
0001
0000
1001
0000
,
0000
0000
0010
0000
0000
1000
0000
0000
0010
0000
0001
0000
0011
0000
0000
0000
,
1000
0000
0000
0100
0000
0000
0010
0000
0001
0000
0100
0000
1001
0000
0000
0000
,
0001
0000
0000
0100
0000
0000
0010
0000
1000
0000
0100
0000
1001
0000
0000
0000
,
1000
0100
0001
0100
1000
0100
0001
0100
,
0010
0000
0000
0010
0000
0000
0020
0000
0100
0000
0200
0000
0330
0000
0000
0000
,
0001
0010
0100
1000
0010
0100
1000
0100
,
0010
1000
0100
0010
0001
1000
0100
0001
,
0100
1000
0010
0001
0010
0100
0001
0010
,
0100
1000
0010
0100
0001
0010
1001
0000
,
1000
0100
0010
0001
0100
0010
0001
0010
,
0100
0001
0010
0100
1000
0001
0010
1000
,
0010
0001
0100
1000
0100
0010
1000
0100
,
0010
0001
0100
0010
1000
0100
1001
0000
,
0010
0000
0000
0010
0000
0000
0010
0000
0100
0000
0001
0000
0010
0000
1100
0000
,
0000
0000
1100
0000
0001
0010
0000
0000
0001
0000
0100
0000
0010
0000
1000
0000
,
0100
0000
0001
0000
0100
0000
1000
0001
1000
0000
0010
0000
0100
0000
0001
0000
,
0000
0000
0011
0000
0000
0110
0000
0000
0010
0000
0100
0000
1001
0000
0000
0000
,
0100
0000
0000
0100
0000
0000
0100
0000
0010
0000
1000
0000
0100
0000
0011
0000
,
0000
0000
0011
0000
1000
0100
0000
0000
1000
0000
0010
0000
0100
0000
0001
0000
,
0010
0000
1000
0000
0010
0000
0001
1000
0001
0000
0100
0000
0010
0000
1000
0000
,
0000
0000
1100
0000
0000
0110
0000
0000
0100
0000
0010
0000
1001
0000
0000
0000
,
0200
0000
0000
0000
,
0000
0000
0000
0000
,
0300
0000
0000
0000
,
0000
0000
0000
0000
;
#NOTES:
     dance-double:
     :
     Easy:
     4:
     :
00000000
00000000
00000000
00000000
,
00000000
00000000
00000000
00000000
,
00000000
00000000
00000000
00000000
,
00000000
00000000
00000000
00000000
,
00000000
00000000
00000000
00000000
,
00000000
00000000
00000000
00000000
,
00000000
00000000
00000000
00000000
,
10000000
00100000
10000000
00000000
,
00100000
00010000
00100000
00000000
,
00010000
00001000
00010000
00000000
,
00001000
00000100
00000001
00000000
,
00000001
00000001
00000010
00000000
,
00001000
00010000
00001000
00000000
,
00010000
00010000
01000000
00000000
,
10000000
00100000
10000000
00000000
,
10000000
10000000
01000000
00000000
,
00010000
00001000
00010000
00000000
,
00001000
00001000
00000010
00000000
,
00000001
00000010
00000001
00000000
,
00001001
00000000
00000000
00000000
,
00000000
00000000
00000000
00000000
,
10000000
01000000
10000000
00000000
,
10000000
01000000
00100000
00000000
,
00001000
00010000
00001000
00000000
,
00001000
00000010
00000001
00000000
,
00000001
00001000
00000001
00000000
,
00000001
00000100
00000010
00000000
,
00000100
00001000
00010000
00000000
,
00022000
00000000
00033000
00000000
,
00010000
01000000
00010000
01000000
,
10000000
00100000
10000000
00000000
,
01000000
00010000
01000000
00010000
,
00001000
00010000
00001000
00000000
,
00001000
00000100
00001000
00000100
,
00000001
00000010
00000001
00000000
,
00000100
00001000
00000100
00001000
,
00020000
00000000
00000000
00000000
,
00130000
00000000
00100000
00000000
,
00100000
00100000
00100000
00000000
,
01000000
00000000
01000000
00000000
,
01000000
01000000
01000000
00000000
,
00001000
00010000
00001000
00000000
,
00010000
00001000
00010000
00000000
,
00000100
00000010
00000100
00000000
,
00000010
00000100
00000020
00000000
,
00000031
00000100
00001000
00000000
,
00001000
00010000
00001000
00000000
,
00001000
00010000
00100000
00000000
,
10000000
00010000
10000000
00000000
,
10000000
00100000
00010000
00000000
,
00010000
00001000
00010000
00000000
,
00010000
00001000
00000100
00000000
,
00000001
00001000
00000001
00000000
,
00002002
00000000
00000000
00003003
,
00000001
00000010
00001000
00000000
,
00010000
01000000
10000000
00000000
,
00010000
00010000
00010000
00000000
,
10000000
00100000
00010000
00000000
,
00001000
00000100
00000001
00000000
,
00000001
00000010
00001000
00000000
,
00010000
00010000
00010000
00000000
,
00022000
00000000
00000000
00000000
,
00000000
00000000
00000000
00000000
,
00033000
00000000
00000000
00000000
,
00000000
00000000
00000000
00000000
;
#NOTES:
     dance-double:
     :
     Medium:
     8:
     :
00000000
00000000
00000000
00000000
,
00000000
00000000
00000000
00000000
,
00000000
00000000
00000000
00000000
,
00000000
00000000
00000000
00000000
,
00000000
00000000
00000000
00000000
,
00000000
00000000
00000000
00000000
,
00000000
00000000
00000000
00000000
,
00000001
00000000
00000100
00000000
00000010
00001000
00000010
00000000
,
00001000
00000000
00000100
00000000
00010000
00001000
00010000
00000000
,
01000000
00000000
00100000
00000000
00010000
10000000
00010000
00000000
,
20000000
32000000
00200000
03300000
,
00001000
00000000
00000000
00000000
00011000
00000000
00000000
00000000
00000100
00000000
00000000
00000100
00000000
00000000
00000100
00000000
,
00000010
00000000
00000000
00000000
00000011
00000000
00000000
00000000
00001000
00000000
00000000
00001000
00000000
00000000
00001000
00000000
,
00000100
00000000
00000000
00000000
00001100
00000000
00000000
00000000
00010000
00000000
00000000
00010000
00000000
00000000
00010000
00000000
,
00001000
00000000
00000000
00000000
00011000
00000000
00000000
00000000
01000000
00000000
00000000
01000000
00000000
00000000
01000000
00000000
,
00100000
10000000
00100000
10000000
02000000
00000000
03010000
00000000
,
00001000
00010000
00001000
00010000
00002000
00000000
00003100
00000000
,
00000100
00001000
00000100
00000000
00000010
00000001
00000010
00000000
,
00001010
00001100
00022000
00033000
,
00002000
00000000
00000000
00000000
,
00000000
00000000
00000000
00000000
,
00013000
00000000
01000000
00000000
10000000
00100000
01000000
00000000
,
00010000
00100000
01000000
00100000
00020000
00000000
00030000
00000000
,
00001000
00000000
00010000
00000000
00000100
00001000
00000010
00000000
,
00000100
00000001
00000010
00000001
00000200
00000000
00000300
00000000
,
00000001
00000000
00000100
00000000
00000010
00010000
00001000
00000000
,
00010000
00001000
01000000
00100000
02000000
00000000
03000000
00000000
,
10000000
00000000
00010000
00000000
01000000
00100000
01000000
00000000
,
00200000
00320000
00032000
00003010
,
00001000
00000000
00000010
00000000
00000001
00001000
00000100
00001000
,
00000010
00001000
00000010
00000000
00000200
00000000
00000300
00000000
,
00000100
00000000
00001000
00000000
00010000
01000000
00100000
00010000
,
10000000
01000000
10000000
00000000
00020000
00000000
00030000
00000000
,
10000000
00100000
01000000
00000000
00100000
01000000
00001000
00010000
,
00001000
00010000
00001000
00000000
00020000
00000000
00030000
00000000
,
00001000
00000100
00000001
00000000
00001000
00000100
00000001
00000000
,
00000200
00000000
00000000
00000000
00000000
00000000
00000000
00000000
00000000
00000000
00000000
00000000
00000000
00000000
00000000
00000000
00000000
00000000
00000000
00000000
00000000
00000000
00000000
00000000
00000000
00000000
00000000
00000000
00000000
00000000
00000000
00000000
00000000
00000000
00000000
00000000
00000000
00000000
00000000
00000000
00000000
00000000
00000000
00000000
00000000
00000000
00000000
00000000
00002300
00000000
00000000
00000000
00000000
00000000
00000000
00000000
00000000
00000000
00000000
00000000
00000000
00000000
00000000
00000000
00000000
00000000
00000000
00000000
00000000
00000000
00000000
00000000
00000000
00000000
00000000
00000000
00000000
00000000
00000000
00000000
00000000
00000000
00000000
00000000
00000000
00000000
00000000
00000000
00000000
00000000
00000000
00000000
00000000
00000000
00000000
00000000
00023000
00000000
00000000
00000000
00000000
00000000
00000000
00000000
00000000
00000000
00000000
00000000
00000000
00000000
00000000
00000000
00000000
00000000
00000000
00000000
00000000
00000000
00000000
00000000
00000000
00000000
00000000
00000000
00000000
00000000
00000000
00000000
00000000
00000000
00000000
00000000
00000000
00000000
00000000
00000000
00000000
00000000
00000000
00000000
00000000
00000000
00000000
00000000
00230000
00000000
00000000
00000000
00000000
00000000
00000000
00000000
00000000
00000000
00000000
00000000
00000000
00000000
00000000
00000000
00000000
00000000
00000000
00000000
00000000
00000000
00000000
00000000
00000000
00000000
00000000
00000000
00000000
00000000
00000000
00000000
00000000
00000000
00000000
00000000
00000000
00000000
00000000
00000000
00000000
00000000
00000000
00000000
00000000
00000000
00000000
00300000
,
02000000
00000000
00010000
00000000
,
10000000
00000000
00010000
00000000
,
03020000
00000000
00000100
00000000
,
00000010
00000000
00000010
00000000
,
00030010
00000000
00000100
00000000
00000001
00000010
00000100
00000000
,
00010000
00000000
00100000
00000000
10000000
01000000
00100000
00000000
,
01000000
10000000
01000000
00000000
00100000
00001000
00100000
00000000
,
00001000
00010000
00022000
00033000
,
00010000
00000100
00001000
00000100
,
00000010
00000001
00000010
00000000
00000100
00001000
00000100
00000000
,
00010000
00001000
01000000
00100000
,
10000000
00100000
10000000
00000000
00010000
01000000
00010000
00000000
,
00100000
00010000
00001000
00000100
,
00000010
00000001
00000100
00000000
00000010
00001000
00000100
00000000
,
00000010
00001000
00010000
01000000
,
00100000
00010000
01000000
00000000
00100000
10000000
01000000
00000000
,
20020000
00000000
00000000
00000000
30030000
00000000
00010000
00001000
,
00000000
00001000
00000010
00000000
00000001
00000000
00000100
00000000
,
00000010
00001000
00000010
00010000
00001000
00010000
00001000
00010000
,
00200000
20300000
32000000
00000000
,
03000000
00010000
01000000
00000000
00100000
00000000
00001000
00010000
,
00000000
00010000
00001000
00000000
00000100
00000001
00000100
00000000
,
00000001
00000100
00001000
00000000
00010000
00100000
10000000
00000000
,
02000000
03020000
00032000
00000000
,
00020000
00000000
00000000
00000000
,
00000000
00000000
00000000
00000000
,
00033000
00000000
00000000
00000000
,
00000000
00000000
00000000
00000000
;
#NOTES:
     dance-double:
     :
     Hard:
     11:
     :
00000000
00000000
00000000
00000000
,
00000000
00000000
00000000
00000000
,
00000000
00000000
00000000
00000000
,
00000000
00000000
00000000
00000000
,
00000000
00000000
00000000
00000000
,
00000000
00000000
00000000
00000000
,
00000000
00000000
00000000
00000000
,
00010000
10000000
00010000
10000000
00000000
01000000
01000000
00000000
,
00100000
00001000
00010000
00001000
00000000
00010000
00010000
00000000
,
00001000
00001000
00000100
00000001
00000000
00000001
00001000
00000000
,
00000002
00000023
00000230
00002300
,
00013000
00000000
00100000
00000000
00010000
00000000
00000000
00000000
10000000
00000000
00000000
01000000
00000000
00000000
00100000
00000000
,
00010000
00000000
01000000
00000000
00010000
00000000
00000000
00000000
00100000
00000000
00000000
00001000
00000000
00000000
00010000
00000000
,
00000100
00000000
00001000
00000000
00000100
00000000
00000000
00000000
00000010
00000000
00000000
00000001
00000000
00000000
00000010
00000000
,
00001000
00000000
00000010
00000000
00001000
00000000
00000000
00000000
00010000
00000000
00000000
01000000
00000000
00000000
00100000
00000000
,
00010000
00100000
10000000
00000000
10000000
00100000
00010000
00000000
,
00001000
00000100
00000001
00000000
00000001
00000100
00001000
00000000
,
00010000
10000000
00100000
01000000
00010000
00001000
00000010
00000100
,
00000001
00000010
00001000
00020000
00002000
00000000
00033000
00000000
,
00011000
00000000
00000000
00000000
,
10000000
00010000
00001000
00000001
,
00000001
00000000
00000000
00000000
00000100
00000000
00000000
00000000
00001000
00000000
00000000
00010000
00000000
00000000
00001000
00000000
,
00000010
00000000
00000000
00001000
00000000
00000000
00010000
00000000
01000000
00000000
00000000
00010000
00000000
00000000
00001000
00000000
,
00010000
00000000
00000000
00000000
00100000
00000000
00000000
00000000
10000000
00000000
00000000
01000000
00000000
00000000
00100000
00000000
,
00001000
00000000
00000000
00010000
00000000
00000000
00001000
00000000
02000000
00000000
00000000
00000000
03100000
00000000
00000000
00000000
,
10000000
00000000
00000000
00000000
00100000
00000000
00000000
00000000
00010000
00000000
00000000
00001000
00000000
00000000
00010000
00000000
,
01000000
00000000
00000000
00010000
00000000
00000000
00001000
00000000
00000010
00000000
00000000
00001000
00000000
00000000
00010000
00000000
,
00001000
00000000
00000000
00000000
00000100
00000000
00000000
00000000
00000001
00000000
00000000
00000010
00000000
00000000
00000100
00000000
,
00010000
00000000
00000000
00001000
00000000
00000000
00010000
00000000
00000020
00000000
00000200
00000000
00000000
00000000
00000330
00000000
,
00000000
00000001
00000010
00000001
00000020
00000000
00000000
00000130
,
00000000
00010000
00001000
00010000
00002000
00000000
00003000
00000000
,
00010000
00010000
00100000
10000000
02000000
00000000
00000000
03100000
,
00010000
10000000
01000000
00000000
00100000
00001000
00010000
00000000
,
00000000
00001000
00000010
00001000
00000020
00000000
00000000
00000031
,
00000000
00000001
00000100
00001000
00020000
00000000
00030000
00000000
,
01000000
01000000
00100000
00010000
02000000
00000000
00000000
00000000
,
03100000
00000000
00000000
00100000
00000000
00000000
00100000
00000000
00020000
00000000
00002000
00000000
00033000
00000000
00000000
00000000
,
00001000
00000000
00000000
00001000
00000000
00000000
00001000
00000000
00000100
00000000
00000001
00000000
00000010
00000000
00000110
00000000
,
00000000
00000000
00000001
00000000
00000000
00000001
00000000
00000000
00000010
00000000
00001000
00000000
00010000
00000000
00001000
00000000
,
00010000
00000000
00000000
01000000
00000000
00000000
01000000
00100000
01000000
00000000
10000000
00000000
00100000
00000000
01000000
00000000
,
00000000
00000000
00100000
00000000
00000000
00010000
00000000
00000000
00001000
00000000
00000000
00000000
00011000
00000000
00000000
00000000
,
00010000
00000000
00000000
00010000
00000000
00000000
00010000
00000000
00100000
00000000
10000000
00000000
01000000
00000000
00010000
00000000
,
00001000
00000000
00000000
00001000
00000000
00000000
00001000
00000000
00000010
00000000
00000001
00000000
00000100
00000000
00001000
00000000
,
00000100
00000010
00010000
00000000
00001000
00100000
01000000
00000000
,
10000000
00000000
00000000
00100000
00000000
00000000
00010000
00000000
00001000
00000000
00000000
00000000
00011000
00000000
00000000
00000000
,
00001000
00000000
00000000
00000010
00000000
00000000
00000001
00000000
00000100
00000000
00000010
00000000
00000010
00000000
00000010
00000000
,
00000000
00000000
00001010
00000000
00000000
00000011
00000000
00000000
00001000
00000000
00000010
00000000
00000100
00000000
00001000
00000000
,
00010000
00000000
00000000
00010000
00000000
00000000
00010000
00100000
00010000
00000000
00100000
00000000
00100000
00000000
00100000
00000000
,
00000000
00000000
10100000
00000000
00000000
11000000
00000000
00000000
00100000
00000000
01000000
00000000
10010000
00000000
00000000
00000000
,
00010000
00000000
00000000
00100000
00000000
00000000
01000000
00000000
10000000
00000000
00100000
00000000
00100000
00000000
00100000
00000000
,
00000000
00000000
00110000
00000000
00000000
00011000
00000000
00000000
00001000
00000000
00000100
00000000
00000010
00000000
00000100
00000000
,
00000001
00000000
00000011
00000000
00001010
00010000
00010000
00010000
,
01000000
00000000
00100000
00000000
00000000
01000000
00000000
00000000
00100000
00000000
00000000
00000000
10010000
00000000
00000000
00000000
,
00100000
00000000
00000000
00100000
00000000
00000000
00100000
00000000
01000000
00000000
00001000
00000000
00010000
00000000
00100000
00000000
,
00000000
00000000
00100000
00000000
00010000
00001000
00000000
00000000
00100000
00000000
00010000
00000000
00001000
00000000
00000100
00000000
,
00000010
00000000
00000001
00000000
00000100
00000000
00000010
00001000
00000010
00000000
00000100
00000000
00001000
00000000
00010000
00000000
,
00000000
00000000
00110000
00000000
00000000
01100000
00000000
00000000
00100000
00000000
01000000
00000000
10010000
00000000
00000000
00000000
,
10000000
00000000
00000000
10000000
00000000
00000000
10000000
00000000
01000000
00000000
00010000
00000000
00001000
00000000
00000010
00000000
,
00000000
00000000
00000010
00000000
00001000
00010000
00000000
00000000
00001000
00000000
00000100
00000000
00000010
00000000
00000001
00000000
,
00000011
00000000
00001010
00000000
00011000
01000000
00100000
10000000
,
00000000
00000000
01000000
00000000
00000000
00010000
00000000
00000000
00001000
00000000
00000000
00000000
00000000
00000000
00000000
00000000
,
00000002
00000000
00000000
00000000
,
00000000
00000000
00000000
00000000
,
00000003
00000000
00000000
00000000
,
00000000
00000000
00000000
00000000
;
