
//----- song ID: f4sh -----//
#TITLE:F4SH10N;
#ARTIST:aran;
#TITLETRANSLIT:FASHION;
#BANNER:F4SH10N.png;
#BACKGROUND:F4SH10N-bg.png;
#CDTITLE:./CDTitles/DDR A20.png;
#MUSIC:F4SH10N.ogg;
#SAMPLESTART:77.149;
#SAMPLELENGTH:15;
#BPMS:0=140;
#BGSTAGE:2;
#NOTES:
     dance-single:
     :
     Beginner:
     2:
     :
0000
0000
0000
0000
,
0000
0000
0000
0000
,
0000
0000
0000
0000
,
0000
0000
0000
0000
,
0000
0000
0000
0000
,
0001
0000
0001
0000
,
0001
0000
0000
0000
,
0001
0000
0100
0000
,
0001
0000
0000
0000
,
1000
1000
1000
0000
,
1000
1000
1000
0000
,
1000
1000
1000
0000
,
1001
0000
0000
0000
,
0001
0000
0010
0000
,
0001
0000
0010
0000
,
0001
0000
0010
0000
,
0001
0000
0000
0000
,
1000
0000
0010
0000
,
1000
0000
0010
0000
,
1000
0000
0010
0000
,
1000
0000
0000
0000
,
0001
0001
0001
0000
,
0001
0000
0100
0000
,
0001
0000
0100
0000
,
0001
0000
0000
0000
,
1001
0000
0000
0000
,
1001
0000
0000
0000
,
2002
0000
0000
0000
,
3003
0000
0000
0000
,
2000
0000
0000
0000
,
3000
0000
0000
0000
,
2000
0000
0000
0000
,
3000
0000
0000
0000
,
0002
0000
0000
0000
,
0003
0000
0000
0000
,
0002
0000
0000
0000
,
0003
0000
0000
0000
,
1000
0000
1000
0000
,
0001
0000
0001
0000
,
1000
0000
1000
0000
,
2000
0000
3000
0000
,
0001
0000
0001
0000
,
1000
0000
1000
0000
,
0002
0000
0000
0000
,
0003
0000
0000
0000
,
0001
0000
0010
0000
,
0001
0000
0100
0000
,
0001
0000
0000
0000
,
0001
0000
0000
0000
,
1000
0000
0010
0000
,
1000
0000
0100
0000
,
1000
0000
0000
0000
,
1000
0000
0000
0000
,
1001
0000
0000
0000
,
1001
0000
0000
0000
,
1001
0000
0000
0000
,
0000
0000
0000
0000
,
0001
0001
0001
0000
,
0001
0000
0000
0000
,
1000
1000
1000
0000
,
1000
0000
0000
0000
,
1001
0000
0000
0000
,
0000
0000
0000
0000
;
#NOTES:
     dance-single:
     :
     Easy:
     6:
     :
0000
0000
0000
0000
,
0000
0000
0000
0000
,
0000
0000
0000
0000
,
0000
0000
0000
0000
,
0000
0000
0000
0000
,
0001
0100
0001
0001
,
1000
0010
1000
1000
,
0100
1000
0100
0100
,
0010
0001
0010
0010
,
0001
0100
0001
0100
,
0010
1000
0010
1000
,
0100
0010
0100
0010
,
0100
0100
0100
0000
,
1000
0001
1000
0001
,
0100
0010
0100
0000
,
0001
1000
0001
1000
,
0100
0010
0100
0000
,
1000
0010
1000
0010
,
0100
0010
0100
0000
,
0001
0010
0001
0010
,
0100
0010
0100
0000
,
2000
3001
0100
0001
,
0010
0100
1000
0000
,
0001
1000
0100
1000
,
0010
0100
0001
0000
,
2000
3000
0020
0030
,
0100
0001
0100
0000
,
0020
0000
0000
0000
,
0200
0000
0330
0000
,
0010
0000
1000
0000
,
0200
0000
0300
0000
,
0010
0000
0001
0000
,
0200
0000
0300
0000
,
0001
0100
1000
0000
,
0001
0100
1000
0000
,
0001
0100
1000
0000
,
1000
0000
0100
0000
0001
0100
0001
0000
,
1000
0100
0001
0000
,
1000
0100
0001
0000
,
1000
0100
0001
0000
,
0001
0000
0100
0000
1000
0100
1000
0000
,
1000
0100
0010
0001
,
0100
0010
1000
0100
,
0010
0001
0100
0010
,
1000
0100
0220
0330
,
0001
0100
0010
0100
,
0001
0100
0110
0000
,
1000
0100
0010
0100
,
1000
0100
0110
0000
,
0001
0010
0100
0010
,
0001
0010
0110
0000
,
1000
0010
0100
0010
,
0110
1001
0110
1001
,
0001
1000
0001
0010
,
0001
0000
0100
0000
0001
0100
0001
0000
,
1000
0001
1000
0010
,
1000
0000
0100
0000
1000
0100
1000
0000
,
1010
0000
0011
0000
,
1100
0000
0101
0000
,
1001
0000
0110
0000
,
2002
0000
0000
0000
,
3003
0000
0000
0000
,
0000
0000
0000
0000
;
#NOTES:
     dance-single:
     :
     Medium:
     10:
     :
0000
0000
0000
0000
,
0000
0000
0000
0000
,
0000
0000
0000
0000
,
0000
0000
0000
0000
,
0000
0000
0000
0000
,
1000
0001
1000
0001
,
1000
0001
1000
0001
,
0100
0010
0100
0010
,
0100
0010
0100
0010
,
1000
0100
1000
0000
0001
0100
0001
0000
,
1000
0100
1000
0000
0001
0100
0001
0000
,
1000
0100
0010
0001
1000
0100
0010
0001
,
0010
0010
0010
1001
,
0001
0100
1000
0000
0100
0001
1000
0000
,
0001
1000
0001
1000
0100
0010
0100
0000
,
1000
0100
0001
0000
0100
1000
0001
0000
,
1000
0001
1000
0001
0100
0010
0100
0000
,
0010
1000
0100
0000
0010
0001
0100
0000
,
0010
1000
0010
1000
0100
0001
0100
0000
,
0010
0001
0100
0000
0010
1000
0100
0000
,
0010
0001
0010
0001
1000
0100
1000
0000
,
0002
0000
0103
0000
0001
0010
0100
0000
,
1000
0010
1000
0010
0001
0010
1000
0000
,
0001
0010
0100
0000
1000
0010
0100
0000
,
0001
0010
0001
0010
1000
0010
0001
0000
,
1000
1100
0001
0101
,
0010
0000
0000
0100
0000
0000
0010
0000
1000
0000
0000
0001
0000
0000
1000
0000
,
0010
1000
0010
1000
0100
0010
0100
0010
,
0001
0100
1000
0100
0001
1000
0001
0000
,
1000
0000
0000
0000
0001
0000
0000
0200
,
0000
0000
0000
0300
,
0001
0000
0000
0000
1000
0000
0000
0200
,
0000
0000
0000
0020
0000
0000
0330
0000
,
0001
0100
0001
0100
0000
0001
0100
0000
,
0010
0010
1000
0010
0000
0010
1000
0000
,
0001
0010
0001
0010
0000
0010
0001
0000
,
1000
0100
1000
0000
0100
0010
0100
0000
,
0001
0000
0101
0000
1000
0100
1000
0000
,
1000
0000
1010
0000
0001
0010
0001
0000
,
0100
0000
0101
0000
0001
0010
0001
0000
,
1000
0000
1010
0000
0100
1000
0100
0000
,
1000
0100
1000
0000
0001
0010
0001
0000
,
0100
0010
0100
0000
0001
1000
0001
0000
,
1000
0100
0010
0001
0100
0010
1000
0001
,
0010
0100
0010
1001
,
0001
0010
0100
0010
0001
1000
0010
0000
,
0100
1000
0100
0010
0100
0001
1000
0000
,
0100
0010
1000
0001
0100
0010
0001
0000
,
0100
0010
0001
0010
0100
0010
1000
0000
,
0001
1000
0100
0010
0001
0010
1000
0000
,
0010
0001
0010
1000
0010
0001
1000
0000
,
0001
0100
0010
1000
0100
0010
0100
0000
,
0110
0011
0101
1010
,
1000
0100
0010
0001
0100
0010
0100
1000
,
0100
0010
1000
0100
0010
0001
0100
0000
,
0001
0010
0100
0001
0100
0010
0001
1000
,
0010
0001
1000
0100
0010
0100
0001
0000
,
0010
0000
0001
1000
0000
0010
0100
0010
,
0000
1000
0000
1100
0000
0001
0100
0001
,
0200
0000
0000
0320
0000
0000
0000
2030
,
0000
0000
0000
0000
,
3001
0000
0000
0000
,
0000
0000
0000
0000
;
#NOTES:
     dance-single:
     :
     Hard:
     14:
     :
0000
0000
0000
0000
,
0000
0000
0000
0000
,
0000
0000
0000
0000
,
0000
0000
0000
0000
,
0000
0000
0000
0000
,
1001
0000
0000
0000
0001
0000
0000
0100
0000
0000
0110
0000
0000
0000
0010
0000
,
1000
0000
1000
0000
0100
0000
0000
0010
0000
0000
0110
0000
0000
0000
0001
0000
,
1000
0000
0000
0000
0010
0000
0000
0100
0000
0000
0110
0000
0000
0000
0100
0000
,
0001
0000
0001
0000
0010
0000
0000
0100
0000
0000
0010
0000
1001
0000
0000
0000
,
0001
0000
0010
0001
0000
0000
0010
0000
0000
0001
0000
0000
1000
0000
0010
1000
0000
0000
0010
0000
0000
1000
0000
0000
,
0001
0000
0100
0001
0000
0000
0100
0000
0000
0001
0000
0000
1000
0000
0100
1000
0000
0000
0100
0000
0000
1000
0000
0000
,
0001
0000
0010
0100
0000
0000
1000
0000
0010
0100
0000
0000
0001
0000
0010
0100
0000
0000
1000
0000
0010
0100
0000
0000
,
0020
0000
0100
0000
0100
0000
0000
0100
0000
0000
0130
0000
1001
0000
0000
0000
,
1000
0000
0100
0000
0010
0000
0001
0100
0000
0000
0110
0000
0000
0000
1000
0000
,
0100
0000
0001
0000
0100
0000
1000
0100
0000
0000
1100
0000
0000
0000
1010
0000
,
0001
0000
0100
0000
0010
0000
1000
0100
0000
0000
0110
0000
0000
0000
0001
0000
,
0100
0000
1000
0000
0100
0000
0001
0100
0000
0000
1020
0000
0000
0000
0130
0000
,
0010
0000
1000
0000
0100
0000
0010
0001
0000
0000
0011
0000
0000
0000
0001
0000
,
0010
0000
1000
0000
0010
0000
0001
1000
0000
0000
0001
0000
0100
0000
0010
0000
,
0110
0101
1100
0110
,
0001
0000
1000
0000
0010
0100
0000
0100
0000
0000
0010
0000
1001
0000
0000
0000
,
0100
0000
0000
0000
0010
0000
0000
0000
0100
0000
0000
0000
0010
0000
0000
0000
0000
0000
1000
0000
0000
0100
0000
0000
0000
0000
0000
0000
0000
0000
0110
0000
0000
0000
0000
0000
0000
0000
0000
0000
0000
0000
0001
0000
0000
0000
0000
0000
,
0100
0000
0010
0000
1000
0000
0100
0010
0000
0000
0110
0000
0000
0000
1000
0000
,
0010
0000
0100
0000
0001
0000
0010
0100
0000
0000
1100
0000
0000
0000
1000
0000
,
0100
0000
1000
0000
0010
0000
0100
0001
0000
0000
0001
0000
0100
0000
0010
0000
,
2000
0000
3100
0000
0002
0000
0103
0020
,
1000
0000
0000
1000
0000
0000
2030
0000
0001
0000
0000
0001
0000
0000
3001
0000
,
0020
0230
2300
3200
,
1300
0000
0001
1000
0000
0100
1000
0000
0001
1000
0000
0100
1000
0000
0001
1000
0000
0100
1000
0000
0000
0000
0000
0000
,
0002
0000
0103
0000
0020
0000
0130
0002
,
0000
0003
0020
0130
,
2000
0000
3010
0000
0200
0000
0310
2000
,
0000
0000
3010
0200
0000
0000
0301
0000
,
0001
0010
0001
0010
0000
0100
0010
1000
,
0100
0100
1000
0100
0000
1000
0010
0100
,
0001
1000
0001
1000
0000
0100
0010
1000
,
0100
0000
0010
0000
0100
0000
0000
0001
0100
0000
0001
0000
0100
0000
0000
0000
,
1000
1100
0001
0101
,
1000
1010
0001
0011
,
1000
1001
0010
0110
,
0001
0000
1000
0000
0010
0000
0000
0100
0001
0000
1000
0000
0001
0000
0000
0000
,
0100
1000
0100
0000
0010
0001
0010
0000
,
0100
1000
0100
0000
0010
0001
0010
0000
,
0001
0000
0100
0001
0000
0000
0100
0000
0001
0100
0000
0000
0010
0000
1000
0010
0000
0000
1000
0000
0010
1000
0000
0000
,
0001
1000
0001
1000
0001
1000
0002
0000
0000
1003
0000
0000
,
1000
0000
0000
0010
0000
0000
0100
0000
0000
0001
0000
0000
0100
0000
0000
1000
0000
0000
0100
0000
0010
0100
0000
0010
,
1000
0000
0000
0001
0000
0000
0010
0000
0000
1000
0000
0000
0001
0000
0000
0100
0000
0000
0010
0000
0001
0010
0000
0000
,
0100
0000
0000
1000
0000
0000
0010
0000
0000
0100
0000
0000
0001
0000
0000
1000
0000
0000
0001
0000
0010
0100
0000
1000
,
0100
0000
0000
1000
0000
0000
0001
0000
0000
0010
0000
0000
1000
0000
0000
0001
0000
0000
0100
0000
1000
0100
0000
0000
,
0010
0000
0000
0100
0000
0000
0010
0000
0000
1000
0000
0000
0010
0000
0000
0001
0000
0000
0010
0000
0100
1000
0000
0100
,
0010
0000
0000
0001
0000
0000
1000
0000
0000
0100
0000
0000
0010
0000
0000
0001
0000
0000
1000
0000
0100
1000
0000
0000
,
0100
0000
0000
1000
0000
0000
0010
0000
0000
0100
0000
0000
1000
0000
0000
0001
0000
0000
0010
0000
0100
0001
0000
0000
,
0101
0011
1010
1100
,
0001
0000
0100
0010
0000
0000
1000
0000
0010
0100
0000
0000
0010
0000
0000
0001
0000
0000
0010
0000
0100
0010
0000
0000
,
1000
0000
0001
0010
0000
0000
1000
0000
0010
0001
0000
0000
1000
0000
0000
0100
0000
0000
0010
0000
0001
0010
0000
0000
,
0100
0000
1000
0010
0000
0000
0100
0000
0001
1000
0000
0000
0001
0000
0000
0100
0000
0000
0001
0000
0010
0001
0000
0000
,
0010
0001
1000
0100
0110
0110
1001
1001
,
2001
0000
3100
0210
0000
0010
0310
0011
,
0000
0101
0000
1020
0000
0100
0100
0130
,
0020
0000
1030
1001
0000
0100
0001
0101
,
0000
0000
0000
0100
0000
0010
0100
0000
0001
0100
0000
0001
0010
0000
0100
0010
0000
0100
1000
0000
0010
1000
0000
0000
,
0110
0000
0000
0000
,
0000
0000
0000
0000
;
#NOTES:
     dance-single:
     :
     Challenge:
     16:
     :
0000
0000
0000
0000
,
0000
0000
0000
0000
,
0000
0000
0000
0000
,
0000
0000
0000
0000
,
0000
0000
0000
0000
,
0001
0000
0100
0000
1000
0000
0100
0001
0000
0001
1000
0000
0100
0000
0100
0010
,
0100
0000
0000
0000
0000
0000
0001
0000
0000
0000
0000
0000
0100
0000
0000
0000
0000
0000
1000
0000
0000
0001
0000
0000
0000
0000
0000
0001
0000
0000
0100
0000
0000
0000
0000
0000
0110
0000
0000
0000
0000
0000
0001
0000
0100
0000
0010
0000
,
1000
0000
0100
0000
0001
0000
0100
1000
0000
1000
0001
0000
0100
0000
0100
0010
,
0100
0000
1000
0000
0100
0001
0000
1000
0000
1000
0100
0000
0110
0000
MMMM
0000
,
0001
0000
0010
0100
0000
0000
1000
0000
0000
MMMM
0000
0000
1000
0000
0010
0100
0000
0000
0001
0000
0000
MMMM
0000
0000
,
0001
0000
0100
0010
0000
0000
1000
0000
0000
MMMM
0000
0000
1000
0000
0100
0010
0000
0000
0001
0000
0000
MMMM
0000
0000
,
0001
0000
0010
0001
0000
0010
0100
0000
1000
0100
0000
1000
0010
0000
0100
0010
0000
0100
0001
0000
1000
0001
0000
1000
,
0002
0000
1000
0000
1000
0000
0000
1003
0000
0000
0110
0000
1001
0000
MMMM
0000
,
1001
0000
1000
0000
0100
0000
0001
1000
0010
0000
0001
0000
MMMM
0000
0001
0010
,
0100
0000
1000
0000
0010
0000
0100
1000
0000
1000
0100
0000
0001
0000
MMMM
0000
,
0001
0000
1000
0000
0010
0000
0001
1000
0100
0000
0001
0000
MMMM
0000
0001
0100
,
0010
0000
1000
0000
0100
0000
0010
1000
0000
1000
0020
0000
0030
0000
MMMM
0000
,
1000
0000
0001
0000
0010
0000
1000
0001
0100
0000
1000
0000
MMMM
0000
1000
0100
,
0010
0000
0001
0000
0100
0000
1000
0100
0000
0100
0001
0000
0010
0000
0001
0000
,
0011
MMMM
1100
MMMM
0011
MMMM
1100
MMMM
,
0001
0000
0010
0000
0100
1000
0001
1000
0000
1000
0010
0000
1001
0000
0000
0000
,
0001
0000
0000
0000
0100
0000
0000
0000
0100
0000
0000
0000
0010
0000
0000
0000
0000
0000
1000
0000
0000
0100
0000
0000
0000
0000
0000
0001
0000
0000
0100
0000
0000
0000
0000
0000
0110
0000
0000
0000
0000
0000
MMMM
0000
0000
0000
0000
0000
,
1000
0100
0010
0000
0001
1000
0001
1000
0000
0010
0100
0000
0001
0000
MMMM
0000
,
0001
0000
0010
0000
0100
1000
0100
1000
0000
0010
1000
0000
0100
0000
MMMM
0000
,
0001
0100
0010
0000
1000
0010
1000
0010
0000
0100
0001
1000
0100
0000
0010
0000
,
0002
0000
0103
MMMM
0020
0000
1030
MMMM
,
0001
0000
0000
0101
0000
0000
1001
0000
1000
0000
0000
1010
0000
0000
1001
0000
,
0001
0000
0000
0001
0000
0000
0100
0000
0000
0100
0000
0000
0010
0000
0000
0010
0000
1000
0010
0000
0000
1010
0000
0000
,
1000
0000
0100
0010
0000
0001
1000
0000
0100
0010
0000
0001
0100
0000
0010
0100
0000
0010
0100
0000
0000
0000
0000
0000
,
0220
0000
0330
MMMM
0202
0000
0303
2020
,
0000
0000
3030
MMMM
,
2002
0000
3003
MMMM
2200
0000
3300
0022
,
0000
0000
0033
0220
0000
0000
0330
MMMM
,
1000
0000
0100
0010
0000
0000
0100
0000
0000
1000
0000
0000
0020
0000
0000
1030
0000
0010
1000
0000
0100
1000
0000
0010
,
1000
0000
0100
0010
0000
0000
0001
0000
0000
0100
0000
0000
0002
0000
0000
0013
0000
0001
0100
0000
0010
1000
0000
0100
,
0010
0000
0001
1000
0000
0000
0010
0000
0000
0100
0000
0000
0020
0000
0000
1030
0000
0100
0010
0000
0001
0010
0000
0100
,
0010
0000
0001
1000
0000
0000
0010
0000
0100
0010
0000
0100
0000
0000
0001
0000
0000
1001
0000
0000
1000
0010
0000
0100
,
0001
0000
0010
0001
0000
0000
0011
0000
0000
MMMM
0000
0000
2000
0000
0000
3100
0000
0010
0001
0000
1000
0010
0000
0100
,
0001
0000
0100
0010
0000
0000
1010
0000
0000
MMMM
0000
0000
2000
0000
0000
3100
0000
0001
0100
0000
1000
0100
0000
0010
,
0001
0000
0100
0010
0000
0000
0110
0000
0000
MMMM
0000
0000
0002
0000
0000
0103
0000
0010
1000
0000
0100
1000
0000
0010
,
0100
0000
0001
1000
0000
0000
1100
0000
0000
MMMM
0000
0000
0200
0000
0000
1300
0000
0010
0100
0000
0001
1000
0000
0100
,
0010
0000
0001
0010
0000
0000
0001
0000
0010
0001
0000
0000
1000
0000
0010
1000
0000
0000
0010
0000
1000
0010
0000
0000
,
0100
0000
0001
0100
0000
0000
0001
0000
0100
0001
0000
0000
1000
0000
0100
1000
0000
0000
0100
0000
1000
0100
0000
0000
,
1000
0000
0100
0010
0000
0100
1000
0000
0010
0100
0000
0010
1000
0000
0100
0010
0000
0100
1000
0000
0010
0100
0000
0010
,
1000
0001
1000
0001
1000
0001
1000
0001
1000
0001
1000
0001
2000
0000
0000
3001
0000
0000
1001
0000
0000
MMMM
0000
0000
,
1000
0000
0100
0001
0000
0000
0100
0000
0000
1000
0000
0000
1010
0000
0000
MMMM
0000
1010
0000
0000
0001
1000
0000
0100
,
1000
0000
0100
0010
0000
0000
0001
0000
0000
0100
0000
0000
0110
0000
0000
MMMM
0000
0110
0000
0000
0010
1000
0000
0001
,
0100
0000
1000
0100
0000
0000
0001
0000
0000
1000
0000
0000
1100
0000
0000
MMMM
0000
1100
0000
0000
1000
0010
0000
0100
,
0001
0000
0010
0001
0000
0000
1000
0000
0000
0100
0000
0000
0110
0000
0000
MMMM
0000
0110
0000
0000
1000
0100
0000
0010
,
0001
0000
0010
1000
0000
0000
0010
0000
0000
0001
0000
0000
0101
0000
0000
MMMM
0000
0101
0000
0000
1000
0001
0000
0010
,
0001
0000
0010
0100
0000
0000
1000
0000
0000
0010
0000
0000
0110
0000
0000
MMMM
0000
0110
0000
0000
0100
0001
0000
1000
,
0010
0000
0001
0010
0000
0000
1000
0000
0000
0001
0000
0000
0011
0000
0000
MMMM
0000
0011
0000
0000
0001
0100
0000
0010
,
1000
0000
0100
1000
0000
0000
0001
0000
0010
0001
0000
0010
0001
0000
0100
0010
0000
1000
0100
0000
0010
0001
0000
1000
,
0100
0000
0001
1000
0000
0000
0010
0000
0001
1000
0000
0100
0010
0000
0000
MMMM
0000
0010
0001
0000
0010
0100
0000
1000
,
0001
0000
0100
1000
0000
0000
0001
0000
0010
1000
0000
0010
0100
0000
0000
MMMM
0000
0100
0001
0000
1000
0100
0000
1000
,
0001
0000
0100
0010
0000
0000
1000
0000
0010
0100
0000
0001
0010
0000
0000
MMMM
0000
0010
0001
0000
1000
0010
0000
0100
,
0001
0000
0010
0001
0000
0100
0010
0000
1000
0100
0000
1000
0010
0000
0000
1010
0000
0000
1001
0000
0000
0101
0000
0000
,
0110
MMMM
1010
1100
MMMM
0011
1001
0011
,
MMMM
0110
MMMM
2001
0000
0001
0001
3001
,
0220
0000
0330
2002
0000
0000
3003
0110
,
MMMM
0000
0000
0001
0000
0100
1000
0000
0001
0010
0000
1000
0100
0000
0001
1000
0000
0010
0001
0000
1000
0100
0000
0000
,
0110
0000
0000
0000
,
0000
0000
0000
0000
;
#NOTES:
     dance-double:
     :
     Easy:
     6:
     :
00000000
00000000
00000000
00000000
,
00000000
00000000
00000000
00000000
,
00000000
00000000
00000000
00000000
,
00000000
00000000
00000000
00000000
,
00000000
00000000
00000000
00000000
,
00000001
00000100
00000001
00000010
,
00000100
00001000
00000100
00001000
,
00000100
00010000
00001000
00010000
,
00001000
00100000
00001000
00010000
,
00001000
01000000
00010000
01000000
,
00001000
00100000
01000000
10000000
,
00100000
01000000
00100000
10000000
,
01000000
01000000
01000000
00000000
,
00010000
00001000
00010000
01000000
,
00010000
00001000
00010000
00000000
,
00001000
00000010
00001000
00000010
,
00000001
00001000
00000001
00000000
,
00000100
00001000
00000100
00001000
,
00010000
00001000
00010000
00000000
,
00010000
00100000
00010000
00100000
,
01000000
00100000
01000000
00000000
,
20000000
30100000
10000000
01000000
,
00010000
00001000
00000010
00000000
,
00000001
00000010
00000001
00000100
,
00001000
00010000
00100000
00000000
,
20000000
30000000
00200000
00300000
,
00010000
00001000
00010000
00000000
,
00002000
00000000
00000000
00000000
,
00020000
00000000
00033000
00000000
,
00000010
00000000
00000001
00000000
,
00000100
00000000
00000000
00000000
,
00100000
00000000
10000000
00000000
,
01000000
00000000
00000000
00000000
,
00010000
01000000
10000000
00000000
,
00100000
00010000
00001000
00000000
,
00000100
00000001
00000010
00000000
,
00000100
00001000
00001001
00000000
,
00001000
00000010
00000001
00000000
,
00000100
00001000
00010000
00000000
,
00100000
10000000
01000000
00000000
,
00100000
00010000
10010000
00000000
,
10000000
01000000
10000000
01000000
,
00100000
00001000
00100000
00001000
,
00010000
00000010
00010000
00000010
,
00000100
00000100
00000110
00000000
,
00000001
00000010
00000100
00000010
,
00000001
00000100
00000010
00000100
,
00000010
00010000
00001000
00010000
,
00001000
00100000
00001000
00010000
,
00001000
01000000
00010000
01000000
,
00100000
10000000
00100000
01000000
,
00010000
00100000
01000000
00100000
,
01100000
10010000
01100000
00000000
,
00010000
00001000
00010000
00100000
,
00010000
00000000
00001000
00000000
00010000
00001000
00010000
00000000
,
00001000
00000010
00001000
00010000
,
00001000
00000000
00000010
00000000
00001000
00010000
00001000
00000000
,
00011000
00000000
00001010
00000000
,
00000110
00000000
00001100
00000000
,
00011000
00000000
00110000
00000000
,
02200000
00000000
00000000
00000000
,
03300000
00000000
00000000
00000000
,
00000000
00000000
00000000
00000000
;
#NOTES:
     dance-double:
     :
     Medium:
     11:
     :
00000000
00000000
00000000
00000000
,
00000000
00000000
00000000
00000000
,
00000000
00000000
00000000
00000000
,
00000000
00000000
00000000
00000000
,
00000000
00000000
00000000
00000000
,
00000001
00000100
00001000
00000100
,
00000010
00001000
00000100
00001000
,
00000100
00010000
00001000
00010000
,
00100000
10000000
01000000
00100000
,
01000000
10000000
01000000
00000000
00010000
01000000
00010000
00000000
,
00001000
00010000
00001000
00000000
00000010
00001000
00000010
00000000
,
00000001
00000010
00000100
00001000
00000001
00000010
00000100
00001000
,
00000010
00000000
00000010
00000000
00000100
00001000
00010000
00000000
,
00010000
00100000
10000000
00000000
01000000
10000000
01000000
00000000
,
11000000
01100000
00110000
00011000
,
00001000
00000010
00000001
00000000
00000100
00000001
00000100
00000000
,
00000101
00000110
00001010
00011000
,
00010000
01000000
10000000
00000000
00100000
10000000
00100000
00000000
,
10100000
01100000
01010000
00011000
,
00001000
00000100
00000001
00000000
00000010
00000001
00000010
00000000
,
00000011
00000110
00001100
00011000
,
00020000
00000000
01030000
00000000
10000000
00100000
01000000
00000000
,
10000000
01000000
10000000
01000000
00010000
00100000
01000000
00000000
,
00010000
00001000
00000010
00000000
00000001
00001000
00000100
00000000
,
00000010
00000001
00000010
00000001
00000100
00001000
00000100
00000000
,
00001000
00011000
00100000
10100000
,
00100000
00000000
00000000
01000000
00000000
00000000
00100000
00000000
10000000
00000000
00000000
01000000
00000000
00000000
10000000
00000000
,
00100000
00010000
00100000
00000000
00010000
00001000
00010000
00000000
,
00001000
00000100
00000001
00000100
00001000
00000100
00000010
00000000
,
00000001
00000000
00000000
00000000
00000100
00000000
00000000
00020000
,
00000000
00000000
00030000
00000000
,
10000000
00000000
00000000
00000000
01000000
00000000
00000000
00002000
,
00000000
00000000
00000000
00003001
00000000
00000000
00000000
00000000
,
00000001
00000000
00000100
00000001
00000000
00000100
00000001
00000000
,
00000100
00000000
00001000
00010000
00000000
00001000
00010000
00000000
,
00100000
00000000
10000000
00010000
00000000
10000000
00010000
00000000
,
10000000
01000000
00100000
00000000
00001000
00010000
00001000
00000000
,
00010000
00010100
00001000
00001100
,
00000001
00000000
00000101
00000000
00000010
00000100
00000010
00000000
,
00001000
00001010
00010000
00011000
,
00001000
00000000
01001000
00000000
00100000
10000000
00100000
00000000
,
10100000
11000000
01100000
00101000
,
00011000
00010100
00001100
00001010
,
00000011
00000101
00000110
00010010
,
00011000
01001000
01100000
10010000
,
00100000
10000000
01000000
00100000
00010000
01000000
00100000
00010000
,
00001000
00000100
00000010
00001000
00000100
00000001
00001000
00000010
,
00000001
00000100
00000010
00001000
00000001
00000100
00000010
00010000
,
00001000
00010000
00100000
01000000
10000000
01000000
00100000
10000000
,
01000000
00100000
00001000
00010000
00000100
00000010
00000100
00000001
,
00000100
00000010
00000001
00000100
00000010
00010000
00001000
00000010
,
00001000
00010000
00100000
10000000
01000000
00100000
00001000
00010000
,
00000100
00001100
00011000
00001100
,
00000010
00000001
00000100
00000010
00001000
00000100
00000010
00001000
,
00010000
01000000
00100000
00010000
01000000
10000000
00010000
00100000
,
10000000
01000000
00100000
00010000
10000000
01000000
00100000
00001000
,
00010000
00001000
00000010
00000100
00000001
00000100
00000010
00000001
,
00000100
00000000
00000001
00000100
00000000
00001000
00010000
00001000
,
00000000
00010000
00000000
00110000
00000000
00100000
10000000
00100000
,
20000000
00000000
00000000
32000000
00000000
00000000
00000000
03020000
,
00000000
00000000
00000000
00000000
,
00031000
00000000
00000000
00000000
,
00000000
00000000
00000000
00000000
;
#NOTES:
     dance-double:
     :
     Hard:
     14:
     :
00000000
00000000
00000000
00000000
,
00000000
00000000
00000000
00000000
,
00000000
00000000
00000000
00000000
,
00000000
00000000
00000000
00000000
,
00000000
00000000
00000000
00000000
,
00000001
00000000
00000000
00000000
00000010
00000000
00000000
00000100
00000000
00000000
00000110
00000000
00000000
00000000
00000100
00000000
,
00010000
00000000
00001000
00000000
00010000
00000000
00000000
00011000
00000000
00000000
00011000
00000000
00000000
00000000
00010000
00000000
,
00100000
00000000
00000000
00000000
10000000
00000000
00000000
01000000
00000000
00000000
01100000
00000000
00000000
00000000
01000000
00000000
,
00010000
00000000
00001000
00000000
00010000
00000000
00000000
00001000
00000000
00000000
00000010
00000000
00000011
00000000
00000000
00000000
,
00000001
00000100
00010000
00001000
00000010
00010000
00001000
00100000
,
01000000
10000000
01000000
00001000
00010000
00100000
00001000
00000010
,
00000001
00000000
00000010
00000001
00000000
00000000
00001000
00000000
00000100
00001000
00000000
00000000
00000100
00000000
00010000
00000100
00000000
00000000
00010000
00000000
00001000
00010000
00000000
00000000
,
00001000
00000000
00100000
00000000
01000000
00000000
00000000
01000000
00000000
00000000
01000000
00000000
10010000
00000000
00000000
00000000
,
10000000
00000000
01000000
00000000
00100000
00000000
00010000
01000000
00000000
00000000
01100000
00000000
00000000
00000000
00100000
00000000
,
00010000
00000000
00001000
00000000
00000100
00000000
00000001
00000100
00000000
00000000
00000110
00000000
00000000
00000000
00000001
00000000
,
00000010
00000000
00001000
00000000
00010000
00000000
00001000
00000100
00000000
00000000
00000110
00000000
00000000
00000000
00000100
00000000
,
00010000
00000000
01000000
00000000
00100000
00000000
10000000
00100000
00000000
00000000
02000000
00000000
00000000
00000000
00010000
00000000
,
03010000
00000000
00000000
00000000
00100000
00000000
00001000
00010000
00000000
00000000
00011000
00000000
00000000
00000000
00001000
00000000
,
00000010
00000000
00000001
00000000
00001000
00000000
00000100
00001000
00000000
00000000
00000100
00000000
00010000
00000000
01000000
00000000
,
01100000
10000000
11000000
00100000
,
00010000
00000000
01000000
00000000
00100000
00010000
00000000
00011000
00000000
00000000
00001000
00000000
00000100
00000000
00000000
00000000
,
00000001
00000000
00000000
00000000
00000100
00000000
00000000
00000000
00000001
00000000
00000000
00000000
00000100
00000000
00000000
00000000
00000000
00000000
00000001
00000000
00000000
00000010
00000000
00000000
00000000
00000000
00000000
00000000
00000000
00000000
00000011
00000000
00000000
00000000
00000000
00000000
00000000
00000000
00000000
00000000
00000000
00000000
00000001
00000000
00000000
00000000
00000000
00000000
,
00000100
00000000
00010000
00000000
00000100
00000000
00001000
00000100
00000000
00000000
00000110
00000000
00000000
00000000
00000001
00000000
,
00000010
00000000
00000100
00000000
00010000
00000000
00001000
01000000
00000000
00000000
01100000
00000000
00000000
00000000
10000000
00000000
,
01000000
00000000
00001000
00000000
01000000
00000000
00010000
01000000
00000000
00000000
01000000
00000000
00100000
00000000
00001000
00000000
,
00020000
00031000
00002000
00003100
,
00000001
00000000
00000000
00000010
00000000
00000000
00000001
00000000
00001000
00000000
00000000
00000010
00000000
00000000
00001000
00000000
,
00000200
00000320
00002030
00203000
,
00310000
00000000
01000000
00010000
00000000
01000000
00010000
00000000
01000000
00010000
00000000
01000000
00100000
00000000
10000000
00100000
00000000
10000000
00100000
00000000
00000000
00000000
00000000
00000000
,
20000000
00000000
31000000
00000000
00020000
00000000
00031000
00020000
,
00000000
00000000
00001000
00031000
,
00000020
00000000
00000031
00000000
00000200
00000000
00000310
00002000
,
00000000
00000000
00003100
00020000
00000000
00000000
00030000
00000000
,
00001000
00100000
00001000
00100000
00000000
01000000
10000000
00100000
,
01000000
01000000
00100000
10000000
00000000
00100000
01000000
00010000
,
00100000
00001000
00010000
00001000
00000000
00001000
00010000
00000100
,
00000010
00000000
00000001
00000000
00000010
00000000
00000000
00000010
00000100
00000000
00001000
00000000
00000100
00000000
00000000
00000000
,
00001000
00000010
00010000
00000000
00001000
00010000
00100000
00000000
,
10000000
01000000
00100000
00000000
00010000
01000000
00100000
00000000
,
10000000
01000000
00010000
00000000
00001000
00000010
00000001
00000000
,
00000001
00000000
00000100
00000000
00001000
00000000
00000000
00010000
00001000
00000000
00010000
00000000
00001000
00000000
00000000
00000000
,
00010000
00100000
10000000
00000000
01000000
00100000
00010000
00000000
,
01000000
00100000
01000000
00000000
00100000
00010000
00001000
00000000
,
00000100
00000000
00000001
00000100
00000000
00000000
00000001
00000000
00000100
00000001
00000000
00000000
00001000
00000000
00000010
00001000
00000000
00000000
00000010
00000000
00001000
00000010
00000000
00000000
,
00010000
00001000
00010000
00001000
00010000
00001000
00020000
00000000
00000000
00031000
00000000
00000000
,
00010000
00000000
00000000
01000000
00000000
00000000
10000000
00000000
00000000
00100000
00000000
00000000
01000000
00000000
00000000
00010000
00000000
00000000
10000000
00000000
01000000
00100000
00000000
01000000
,
00100000
00000000
00000000
00010000
00000000
00000000
00100000
00000000
00000000
00001000
00000000
00000000
00010000
00000000
00000000
00001000
00000000
00000000
00010000
00000000
00001000
00010000
00000000
00000000
,
00001000
00000000
00000000
00000100
00000000
00000000
00000010
00000000
00000000
00001000
00000000
00000000
00000001
00000000
00000000
00000010
00000000
00000000
00000100
00000000
00001000
00000100
00000000
00001000
,
00000100
00000000
00000000
00000010
00000000
00000000
00000001
00000000
00000000
00000100
00000000
00000000
00010000
00000000
00000000
00001000
00000000
00000000
00000100
00000000
00001000
00000100
00000000
00000000
,
00010000
00000000
00000000
00001000
00000000
00000000
00010000
00000000
00000000
01000000
00000000
00000000
00100000
00000000
00000000
00010000
00000000
00000000
10000000
00000000
00100000
10000000
00000000
00100000
,
10000000
00000000
00000000
01000000
00000000
00000000
00010000
00000000
00000000
00000100
00000000
00000000
00001000
00000000
00000000
00000001
00000000
00000000
00000100
00000000
00000010
00000100
00000000
00000000
,
00000001
00000000
00000000
00001000
00000000
00000000
00000100
00000000
00000000
00000010
00000000
00000000
00001000
00000000
00000000
00100000
00000000
00000000
01000000
00000000
00100000
01000000
00000000
00000000
,
11000000
00110000
01010000
10100000
,
10000000
00000000
01000000
00100000
00000000
00000000
00010000
00000000
01000000
00100000
00000000
00000000
00010000
00000000
00000000
00001000
00000000
00000000
00000100
00000000
00000010
00000100
00000000
00000000
,
00000001
00000000
00000010
00000100
00000000
00000000
00001000
00000000
00000010
00000100
00000000
00000000
00001000
00000000
00000000
00010000
00000000
00000000
00100000
00000000
01000000
00100000
00000000
00000000
,
10000000
00000000
01000000
00100000
00000000
00000000
00001000
00000000
00010000
00000010
00000000
00000000
00000100
00000000
00000000
00000010
00000000
00000000
00010000
00000000
00001000
00010000
00000000
00000000
,
00001000
00100000
01000000
10000000
01000000
01000000
00100000
00100000
,
20010000
00000000
31000000
01200000
00000000
00301000
00010000
00011000
,
00000000
00001100
00000000
00000120
00000000
00000031
00000001
00000100
,
00000020
00000000
00010030
00011000
00000000
01000000
00100000
01100000
,
00000000
00000000
00000000
10000000
00000000
00100000
01000000
00000000
00010000
01000000
00000000
00001000
00010000
00000000
00000100
00001000
00000000
00000100
00000010
00000000
00000001
00000010
00000000
00000001
,
00001000
00000000
00000000
00000000
,
00000000
00000000
00000000
00000000
;
#NOTES:
     dance-double:
     :
     Challenge:
     16:
     :
00000000
00000000
00000000
00000000
,
00000000
00000000
00000000
00000000
,
00000000
00000000
00000000
00000000
,
00000000
00000000
00000000
00000000
,
00000000
00000000
00000000
00000000
,
00001000
00000000
00010000
00000000
00001000
00000000
00100000
01000000
00000000
01000000
00100000
00000000
00010000
00000000
10000000
01000000
,
00100000
00000000
00000000
00000000
00000000
00000000
01000000
00000000
00000000
00000000
00000000
00000000
00010000
00000000
00000000
00000000
00000000
00000000
00001000
00000000
00000000
00010000
00000000
00000000
00000000
00000000
00000000
00010000
00000000
00000000
00001000
00000000
00000000
00000000
00000000
00000000
00011000
00000000
00000000
00000000
00000000
00000000
00010000
00000000
00000100
00000000
00001000
00000000
,
00000100
00000000
00001000
00000000
00000010
00000000
00000100
00000010
00000000
00000010
00000100
00000000
00000001
00000000
00000010
00000100
,
00000010
00000000
00001000
00000000
00010000
00001000
00000000
00001000
00000000
00010000
00001000
00000000
00011000
00000000
MMMMMMMM
00000000
,
00010000
00000000
00001000
00100000
00000000
00000000
00110000
00000000
00000000
MMMMMMMM
00000000
00000000
00010000
00000000
10000000
01000000
00000000
00000000
01100000
00000000
00000000
MMMMMMMM
00000000
00000000
,
00100000
00000000
00001000
00010000
00000000
00000000
00011000
00000000
00000000
MMMMMMMM
00000000
00000000
00010000
00000000
00000100
00001000
00000000
00000000
00001010
00000000
00000000
MMMMMMMM
00000000
00000000
,
00000010
00000000
00001000
00000010
00000000
00001000
00000001
00000000
00000100
00000001
00000000
00000100
00001000
00000000
00010000
00001000
00000000
00010000
00100000
00000000
10000000
00100000
00000000
10000000
,
00020000
00000000
10000000
00000000
10000000
00000000
00000000
10030000
00000000
00000000
00100000
00000000
10010000
00000000
MMMMMMMM
00000000
,
10010000
00000000
10000000
00000000
00100000
00000000
00010000
00001000
00000000
00001000
00010000
00000000
00011000
00000000
MMMMMMMM
00000000
,
00010000
00000000
00001000
00000000
00000010
00000000
00000001
00000100
00000000
00000001
00000010
00000000
00000110
00000000
MMMMMMMM
00000000
,
00000100
00000000
00000010
00000000
00000001
00000000
00000100
00000010
00000000
00000010
00010000
00000000
00011000
00000000
MMMMMMMM
00000000
,
00001000
00000000
00010000
00000000
01000000
00000000
00100000
00010000
00000000
00010000
0010MMMM
00000000
MMMM1000
00000000
0001MMMM
00000000
,
MMMM0100
00000000
00000010
00000000
00001000
00000000
00000001
00000100
00000000
00000100
00001000
00000000
00001100
00000000
MMMMMMMM
00000000
,
00000100
00000000
00010000
00000000
00001000
00000000
01000000
00010000
00000000
00010000
00100000
00000000
01100000
00000000
MMMMMMMM
00000000
,
11000000
MMMMMMMM
00110000
MMMMMMMM
00001100
MMMMMMMM
00000011
MMMMMMMM
,
00000001
00000000
00000100
00000000
00001000
00010000
00000000
00010000
00001000
00000000
00011000
00000000
00011000
00000000
MMMMMMMM
00000000
,
00010000
00000000
00000000
00000000
00001000
00000000
00000000
00000000
00001000
00000000
00000000
00000000
00010000
00000000
00000000
00000000
00000000
00000000
00001000
00000000
00000000
00100000
00000000
00000000
00000000
00000000
00000000
00010000
00000000
00000000
01000000
00000000
00000000
00000000
00000000
00000000
01100000
00000000
00000000
00000000
00000000
00000000
MMMMMMMM
00000000
00000000
00000000
00000000
00000000
,
00100000
10000000
01000000
00000000
00100000
00010000
00100000
00010000
00000000
00100000
00001000
00000000
00011000
00000000
MMMMMMMM
00000000
,
00010000
00001000
00010000
00000000
00000010
00001000
00000010
00001000
00000000
00000100
00001000
00000000
00001100
00000000
MMMMMMMM
00000000
,
00001000
00000100
00000010
00000000
00000001
00000100
00000001
00000100
00000000
00001000
00000100
00000000
00000010
00000000
00001000
00000010
,
00020000
0000MMMM
00032000
MMMM0000
00203000
0000MMMM
00302000
MMMM0000
,
00023000
0000MMMM
00032000
MMMM0000
00023000
0000MMMM
00030200
MMMM0000
,
00010300
00001000
01000000
00100000
01000000
00010000
00100000
01000000
,
10000000
00000000
01000000
00100000
00000000
00010000
01000000
00000000
00010000
00100000
00000000
00001000
00010000
00000000
00000010
00001000
00000000
00000010
00000100
00000000
00000000
00000000
00000000
00000000
,
00000002
00000000
00000000
00000000
00000203
00000000
00000000
00002300
,
00000000
00000000
00003000
MMMMMMMM
,
00020000
00000000
00000000
00000000
00230000
00000000
00000000
20300000
,
00000000
00000000
00000000
00020000
00000000
00000000
30030000
00000000
,
10000000
00000000
01000000
00100000
00000000
00000000
00010000
00000000
00000000
01000000
00000000
00000000
20000000
00000000
00000000
31000000
00000000
00100000
10000000
00000000
01000000
00100000
00000000
00001000
,
00010000
00000000
00000100
00010000
00000000
00000000
00001000
00000000
00000000
00000010
00000000
00000000
00000002
00000000
00000000
00000103
00000000
00001000
00000100
00000000
00000010
00000100
00000000
00000001
,
00000010
00000000
00000100
00001000
00000000
00000000
00000100
00000000
00000000
00000010
00000000
00000000
00002000
00000000
00000000
00013000
00000000
01000000
00100000
00000000
00010000
00100000
00000000
00001000
,
00100000
00000000
00010000
01000000
00000000
00000000
10000000
00000000
01000000
00010000
00000000
01000000
00000000
00000000
00100000
00000000
00000000
10100000
00000000
00000000
10000000
00100000
00000000
01000000
,
00010000
00000000
00100000
01000000
00000000
00000000
01100000
00000000
00000000
MMMMMMMM
00000000
00000000
20000000
00000000
00000000
31000000
00000000
00100000
00010000
00000000
00100000
00001000
00000000
00010000
,
00001000
00000000
00000010
00000001
00000000
00000000
00001001
00000000
00000000
MMMMMMMM
00000000
00000000
00000002
00000000
00000000
00000103
00000000
00000010
00001000
00000000
00000010
00010000
00000000
00001000
,
00010000
00000000
00100000
10000000
00000000
00000000
10010000
00000000
00000000
MMMMMMMM
00000000
00000000
20000000
00000000
00000000
30100000
00000000
10000000
01000000
00000000
00100000
00010000
00000000
00100000
,
00001000
00000000
00010000
00001000
00000000
00000000
00011000
00000000
00000000
MMMMMMMM
00000000
00000000
00002000
00000000
00000000
00013000
00000000
00000010
00001000
00000000
00000100
00000010
00000000
00000001
,
00000100
00000000
00000001
00000100
00000000
00000000
00000010
00000000
00000100
00000010
00000000
00000000
00000100
00000000
00001000
00000100
00000000
00000000
00001000
00000000
00010000
00001000
00000000
00000000
,
00010000
00000000
00100000
00010000
00000000
00000000
00100000
00000000
10000000
00100000
00000000
00000000
10000000
00000000
01000000
10000000
00000000
00000000
01000000
00000000
00100000
01000000
00000000
00000000
,
10000000
00000000
01000000
00100000
00000000
00010000
10000000
00000000
00010000
00100000
00000000
01000000
10000000
00000000
00100000
01000000
00000000
00100000
00010000
00000000
00001000
00010000
00000000
00000100
,
00010000
00001000
00010000
00001000
00010000
00001000
00010000
00001000
00010000
00001000
00010000
00001000
00020000
00000000
00000000
00030000
00000000
00000000
00011000
00000000
00000000
MMMMMMMM
00000000
00000000
,
00001000
00000000
00010000
00000010
00000000
00000000
00001000
00000000
00000000
00000100
00000000
00000000
00000110
00000000
00000000
MMMMMMMM
00000000
00000110
00000000
00000000
00000010
00000001
00000000
00001000
,
00000100
00000000
00010000
00001000
00000000
00000000
00010000
00000000
00000000
01000000
00000000
00000000
01100000
00000000
00000000
MMMMMMMM
00000000
01100000
00000000
00000000
00100000
00010000
00000000
10000000
,
01000000
00000000
00010000
01000000
00000000
00000000
10000000
00000000
00000000
00010000
00000000
00000000
10010000
00000000
00000000
MMMMMMMM
00000000
10010000
00000000
00000000
10000000
01000000
00000000
00100000
,
00001000
00000000
00000000
00010000
00000000
00000000
00000100
00000000
00000000
00000010
00000000
00000000
00000001
00000000
00000000
00000100
00000000
00001000
00000000
00000000
00001000
00010000
00000000
00001000
,
00010000
00000000
00001000
00100000
00000000
00000000
00010000
00000000
00000000
01000000
00000000
00000000
01100000
00000000
00000000
MMMMMMMM
00000000
01100000
00000000
00000000
00100000
10000000
00000000
00010000
,
01000000
00000000
00001000
00010000
00000000
00000000
00001000
00000000
00000000
00000100
00000000
00000000
00000110
00000000
00000000
MMMMMMMM
00000000
00000110
00000000
00000000
00000010
00001000
00000000
00000001
,
00000100
00000000
00001000
00000100
00000000
00000000
00000001
00000000
00000000
00001000
00000000
00000000
00001001
00000000
00000000
MMMMMMMM
00000000
00001001
00000000
00000000
00000001
00000100
00000000
00000010
,
00010000
00000000
00001000
00010000
00000000
00000000
00001000
00000000
01000000
00010000
00000000
01000000
00000000
00000000
00100000
10000000
00000000
01000000
00000000
00000000
00100000
00001000
00000000
00010000
,
00000100
00000000
00000010
00001000
00000000
00000000
00000010
00000000
00000100
00001000
00000000
00000000
MMMM0100
00000000
00000000
0001MMMM
00000000
00000000
MMMM1000
00000000
00000000
0010MMMM
00000000
00000000
,
00010000
00000000
01000000
00100000
00000000
00000000
00010000
00000000
00100000
01000000
00000000
00000000
MMMM1000
00000000
00000000
0001MMMM
00000000
00000000
0001MMMM
00000000
00000000
MMMM1000
00000000
00000000
,
01000000
00000000
00100000
00010000
00000000
00000000
00100000
00000000
01000000
00010000
00000000
00000000
0100MMMM
00000000
00000000
MMMM1000
00000000
00000000
0001MMMM
00000000
00000000
MMMM0010
00000000
00000000
,
00001000
00000000
00000100
00000010
00000000
00000000
00001000
00000000
00000010
00000100
00000000
00000000
0001MMMM
00000000
00000000
MMMM1000
00000000
00000000
MMMM1000
00000000
00000000
0001MMMM
00000000
00000000
,
00011000
MMMM1000
0100MMMM
01010000
MMMMMMMM
01010000
00010000
00110000
,
MMMMMMMM
00011000
MMMMMMMM
00002100
00000000
00000001
00000001
00003001
,
00000001
00000100
00000010
00002000
00000000
00003001
00000100
00002000
,
00000000
00000000
00000000
00013000
00000000
00100000
10000000
00000000
00100000
01000000
00000000
00010000
00100000
00000000
00001000
00010000
00000000
00000100
00001000
00000000
00000100
00000010
00000000
00000000
,
00000110
00000000
00000000
00000000
,
00000000
00000000
00000000
00000000
;
