
//----- song ID: drtb -----//
#TITLE:Drop The Bounce;
#ARTIST:Hommarju;
#BANNER:Drop The Bounce.png;
#BACKGROUND:Drop The Bounce-bg.png;
#CDTITLE:./CDTitles/DDR A20.png;
#MUSIC:Drop The Bounce.ogg;
#SAMPLESTART:91.198;
#SAMPLELENGTH:15;
#BPMS:0=150,196=75,212=150;
#BGSTAGE:14;
#NOTES:
     dance-single:
     :
     Beginner:
     3:
     :
0000
0000
0000
0000
,
0000
0000
0000
0000
,
0000
0000
0000
0000
,
0000
0000
0000
0000
,
0000
0000
0000
0000
,
0000
0000
0000
0000
,
0000
0000
0000
0000
,
0000
0000
0000
0000
,
0000
0000
0000
0000
,
0010
0000
0010
0000
,
1000
0000
1000
0000
,
0001
0000
0001
0000
,
0100
0000
0100
0000
,
0010
0000
0010
0000
,
1000
0000
1000
0000
,
0001
0000
0001
0000
,
0100
0000
0100
0000
,
0001
0001
0001
0000
,
1000
1000
1000
0000
,
0001
0001
0001
0000
,
1000
1000
1000
0000
,
0001
0000
0010
0000
,
1000
0000
0010
0000
,
0001
0000
0010
0000
,
1000
1000
1000
0000
,
0001
0000
0001
0000
,
1000
0000
1000
0000
,
0010
0010
0010
0000
,
0010
0010
0010
0000
,
0001
0000
0001
0000
,
1000
0000
1000
0000
,
0100
0100
0100
0000
,
0100
0100
0100
0000
,
0001
0000
0100
0000
,
1000
0000
0100
0000
,
0001
0000
0100
0000
,
1000
0000
0100
0000
,
0010
0010
0010
0000
,
0100
0100
0100
0000
,
0010
0010
0010
0000
,
0100
0100
0100
0000
,
0002
0000
0003
0000
,
0020
0000
0030
0000
,
2000
0000
3000
0000
,
0200
0000
0300
0000
,
0001
0000
0001
0000
,
0010
0000
0010
0000
,
1000
0000
1000
0000
,
0100
0100
0100
0000
,
1000
0000
0001
0000
,
1000
0000
0001
0000
,
0010
0000
0100
0000
,
0010
0000
0100
0000
,
0001
0000
0010
0000
,
1000
1000
1000
0000
,
0001
0000
0100
0000
,
1000
1000
1000
0000
,
0010
0000
1000
0000
,
0001
0001
0001
0000
,
0010
0000
0001
0000
,
1000
1000
1000
0000
,
0001
0000
0100
0000
,
1000
0000
0100
0000
,
0001
0000
0100
0000
,
1000
0000
0100
0000
,
0010
0010
0010
0000
,
0100
0100
0100
0000
,
0010
0010
0010
0000
,
0100
0100
0100
0000
,
1001
0000
0000
0000
,
0000
0000
0000
0000
;
#NOTES:
     dance-single:
     :
     Easy:
     7:
     :
0000
0000
0000
0000
,
0000
0000
0000
0000
,
0000
0000
0000
0000
,
0000
0000
0000
0000
,
0000
0000
0000
0000
,
0000
0000
0000
0000
,
0000
0000
0000
0000
,
0000
0000
0000
0000
,
0000
0000
0000
0000
,
1000
1000
0010
0010
,
0001
0001
0010
0000
,
0001
0001
0010
0010
,
1000
1000
0010
0000
,
1000
0010
0001
0100
,
1000
0010
0001
0000
,
0001
0010
1000
0100
,
0001
0010
1000
0000
,
0010
0000
0010
0000
0100
0001
0100
0000
,
0010
0000
0010
0000
0100
1000
0100
0000
,
0010
0000
0010
0000
0100
0001
0100
0000
,
0010
0000
0010
0000
0100
1000
0100
0000
,
0001
0100
1000
0010
,
0001
0100
1000
0010
,
0001
1000
0001
0000
0100
0010
0100
0000
,
0001
0000
0001
0000
0001
1000
0010
0000
,
1000
0001
1000
0010
,
1000
0000
0001
0000
1000
0100
0010
0000
,
0001
0010
1000
0100
,
0010
0000
0010
0000
0001
1000
0100
0000
,
0001
1000
0001
0010
,
0001
0000
1000
0000
0001
0100
0010
0000
,
1000
0010
0001
0100
,
0010
1000
0100
0000
,
0001
0110
0001
0110
,
0001
0110
0001
0001
,
1000
0110
1000
0110
,
1000
0110
1000
1000
,
0001
0001
0001
0000
0010
0010
0010
0000
,
1000
1000
1000
0000
0100
0100
0100
0000
,
0001
0001
0001
0000
0010
0010
0010
0000
,
0001
0000
0001
0000
0001
1000
0100
0000
,
0010
0010
0010
0010
,
0002
0013
2000
3010
,
0100
0100
0100
0100
,
0002
0103
2000
3100
,
1000
0010
0001
0010
,
1000
0100
0001
0100
,
0010
0010
0010
0010
,
0100
0000
0100
0000
0100
0010
0100
0000
,
2001
0000
0010
0000
0001
0001
3010
0000
,
1002
0000
0010
0000
1000
1000
0013
0000
,
2001
0000
0100
0000
0001
0001
3100
0000
,
1002
0000
0100
0000
1003
1000
1000
0100
,
1000
0000
0010
0000
0100
0010
1000
0000
,
0001
0110
1000
0110
,
0001
0000
1000
0000
0010
1000
0100
0000
,
0010
1001
0100
1001
,
0010
0000
0100
0000
0010
0001
1000
0000
,
0001
0110
1000
0110
,
0001
0000
0010
0000
0100
1000
0010
0000
,
0100
0000
0100
0000
0100
0010
0100
0000
,
1000
0110
1000
0110
,
1000
0110
1000
1000
,
0001
0110
0001
0110
,
0001
0110
0001
0001
,
1000
1000
1000
0000
0010
0010
0010
0000
,
0001
0001
0001
0000
0100
0100
0100
0000
,
1000
1000
1000
0000
0010
0010
0010
0000
,
1000
0000
1000
0000
1000
0001
0100
0000
,
0110
0000
0000
0000
,
0000
0000
0000
0000
;
#NOTES:
     dance-single:
     :
     Medium:
     10:
     :
0000
0000
0000
0000
,
0000
0000
0000
0000
,
0000
0000
0000
0000
,
0000
0000
0000
0000
,
0000
0000
0000
0000
,
0000
0000
0000
0000
,
0000
0000
0000
0000
,
0000
0000
0000
0000
,
0000
0000
0000
0000
,
0001
0001
0010
0010
,
1000
1000
0100
0100
,
0001
0001
0010
0010
,
1000
1000
0100
0100
,
0001
0010
1000
0100
,
0001
0010
1000
0100
,
0001
0010
1000
0100
,
0001
0010
1000
0000
,
0010
1000
0100
0010
0001
0100
0010
0000
,
0010
1000
0100
0010
0000
0001
0010
0000
,
0010
0001
0100
0010
1000
0100
0010
0000
,
0010
0001
0100
0010
0000
1000
0010
0000
,
1000
0010
1000
0010
1000
0001
1000
0001
,
0010
0001
0010
0001
0010
0100
0010
0100
,
1000
0100
0010
0001
0100
0010
1000
0100
,
1000
0000
1000
0000
1000
0100
0010
0000
,
0001
0100
1000
0000
0001
0100
0010
0100
,
0001
0100
1000
0000
0001
0100
0010
0000
,
1000
0100
0010
0000
0001
0010
0100
0000
,
0010
1000
0010
0001
1000
0100
1000
0000
,
1000
0100
0001
0000
1000
0100
0010
0100
,
1000
0100
0001
0000
1000
0100
0010
0000
,
0001
0100
0010
0000
1000
0010
0100
0000
,
0010
1000
0001
1000
0100
1000
0001
0000
,
1000
0100
0010
0001
1000
0100
0010
0001
,
1000
0100
0010
0001
1000
1000
1000
0000
,
0001
0100
0010
1000
0001
0100
0010
1000
,
0001
0100
0010
1000
0001
0001
0001
0000
,
1000
0100
1000
0100
0010
0001
0010
0001
,
0100
0001
0100
0001
1000
0010
1000
0010
,
0100
0010
1000
0100
0010
0001
0100
0010
,
1000
0000
1000
0000
1000
0001
0100
0000
,
0002
0010
0010
0010
,
2003
0010
3002
0010
,
2003
0010
0010
0010
,
3002
0010
2003
3010
,
0001
0011
1000
1010
,
0001
0101
1000
1100
,
0010
0100
0010
0100
0010
0100
0010
0000
,
0001
0000
0001
0000
0001
1000
0010
0000
,
0201
0000
1000
0000
0301
1000
0001
0000
,
1200
0000
0001
0000
1300
0001
1000
0000
,
0021
0000
1000
0000
0031
1000
0001
0000
,
1020
0000
0000
0000
0001
0000
0000
0000
1030
0000
1000
0000
1000
0001
0100
0000
,
0001
0010
0001
1000
0010
1000
0001
0000
,
0010
1100
0010
0101
,
1000
0010
1000
0001
0010
0001
1000
0000
,
0010
0101
0010
1100
,
0001
0100
0010
1000
0010
0100
0001
0000
,
1000
0110
0001
0110
,
1000
0100
0010
0000
0001
0100
0010
0000
,
0100
0000
0100
0000
0100
0010
0100
0000
,
0001
0100
0010
1000
0001
0100
0010
1000
,
0001
0100
0010
1000
0001
0001
0001
0000
,
1000
0100
0010
0001
1000
0100
0010
0001
,
1000
0100
0010
0001
1000
1000
1000
0000
,
0001
0100
0001
0100
0010
1000
0010
1000
,
0100
1000
0100
1000
0001
0010
0001
0010
,
0100
0010
0001
0100
0010
1000
0100
0010
,
0001
0000
0001
0000
0001
1000
0100
0000
,
0110
0000
0000
0000
,
0000
0000
0000
0000
;
#NOTES:
     dance-single:
     :
     Hard:
     15:
     :
0000
0000
0000
0000
,
0000
0000
0000
0000
,
0000
0000
0000
0000
,
0000
0000
0000
0000
,
0000
0000
0000
0000
,
0000
0000
0000
0000
,
0000
0000
0000
0000
,
0000
0000
0000
0000
,
0000
0000
0000
0000
,
1000
1000
0010
0010
,
0001
0000
0001
0000
0100
0010
0100
0000
,
1000
1000
0100
0100
,
0001
0000
0001
0000
0010
0100
0010
0000
,
1000
0010
0001
0100
,
1000
0000
0010
0000
0001
0100
1000
0000
,
0100
0001
0010
1000
,
0100
0001
0010
0000
,
0011
0100
1000
0001
0100
0010
0110
0000
,
1010
0000
0100
0000
0001
0000
1000
0100
0000
0000
0010
0000
0110
0000
0000
0000
,
0011
0100
1000
0001
0100
0010
0110
0000
,
1010
0000
0100
0000
0001
0000
1000
0100
0000
0000
0010
0000
0110
0000
0000
0000
,
0010
0010
0001
0001
0100
0100
1000
1000
,
0010
0010
0001
0001
0100
0100
1000
1000
,
0100
0010
0100
0010
0001
0100
0001
0100
0010
1000
0010
1000
0100
0010
0100
0010
,
0001
0000
0001
0000
0001
1000
0110
0000
,
1000
0010
1000
0010
1000
0000
0001
0100
0001
0100
0001
0000
1000
0010
1000
0000
,
0001
0010
0001
0010
0001
0000
1000
0100
1000
0100
1000
0000
0001
0010
0001
0000
,
1000
0000
0100
0000
0010
0100
0000
0100
0010
0000
0001
0000
1000
0000
0100
0000
,
0010
0000
0001
1000
0010
0000
1000
0001
0100
0000
0001
1000
0100
0000
0000
0000
,
0010
0100
0010
0100
0010
0000
0001
1000
0001
1000
0001
0000
0010
0100
0010
0000
,
0001
0010
0001
0010
0001
0000
1000
0010
1000
0010
1000
0000
0001
0010
0001
0000
,
1000
0000
0010
0000
0100
0010
0000
0010
0100
0000
0001
0000
1000
0000
0010
0000
,
0100
0001
1000
0001
0010
0001
1100
0000
,
1001
0101
0010
1000
1001
0101
0010
1000
,
1001
0101
0010
1000
0001
0100
0010
1000
,
1001
1100
0010
0001
1001
1100
0010
0001
,
1000
0100
0001
0100
1000
0100
0010
0010
,
0001
0001
0100
0100
1000
1000
0010
0010
,
0001
0001
0100
0100
1000
1000
0010
0010
,
0001
0001
0100
0100
1000
1000
0010
0010
,
0001
0000
0000
0000
0001
0000
0000
0000
0001
0000
1000
0000
0010
0100
0001
0000
,
2000
0100
0100
0100
,
3002
0100
2003
0100
,
3002
0100
0100
0100
,
2003
0100
3002
0103
,
0010
0100
0010
0100
0010
0100
0010
0100
0010
1000
0010
1000
0010
1000
0010
1000
,
0001
1000
0001
1000
0001
1000
0001
1000
0001
0010
0001
0010
0001
0010
0001
0010
,
0100
0010
0100
0010
0100
0010
0100
0010
0100
1000
0100
1000
0100
1000
0100
1000
,
0001
0000
0001
0000
0001
1000
0110
0000
,
1020
0000
0032
0000
1003
0100
0001
0000
,
0021
0000
2030
0000
3001
0100
1000
0000
,
0201
0000
2300
0000
3001
0010
1000
0000
,
1200
0000
0000
0000
0302
0000
0000
0000
1003
0000
1000
0000
1000
0010
1001
0000
,
1000
0100
1000
0100
1000
0000
0001
0010
0001
0010
0001
0000
1000
0100
1000
0000
,
0001
0100
0001
0100
0001
0000
1000
0010
1000
0010
1000
0000
0001
0100
0001
0000
,
1000
0001
1000
0001
1000
0000
0100
0010
0100
0010
0100
0000
1000
0001
1000
0000
,
0021
0230
2300
3001
,
0001
0100
0001
0100
0001
0000
1000
0100
1000
0100
1000
0000
0001
0100
0001
0000
,
1000
0010
1000
0010
1000
0000
0001
0010
0001
0010
0001
0000
1000
0010
1000
0000
,
0010
0100
0010
0100
0010
0000
1000
0001
1000
0001
1000
0000
0010
0100
0010
0000
,
0100
0000
0100
0000
0100
0010
1001
0000
,
1000
0010
0110
0001
0010
0110
0100
0110
,
0001
0010
0110
1000
0010
0110
1001
0000
,
1000
0100
0110
0001
0100
0110
0010
0110
,
0001
0100
0110
1000
0100
0110
1001
0000
,
0010
0010
1000
1000
0100
0100
0001
0001
,
0010
0010
1000
1000
0100
0100
0001
0001
,
0100
0010
0100
0010
1000
0100
1000
0100
0010
0001
0010
0001
0100
0010
0100
0010
,
1000
0000
0000
0000
1000
0000
0000
0000
1000
0000
0001
0000
0010
0001
1000
0000
,
0010
0000
0000
0000
,
0000
0000
0000
0000
;
#NOTES:
     dance-single:
     :
     Challenge:
     16:
     :
0000
0000
0000
0000
,
0000
0000
0000
0000
,
0000
0000
0000
0000
,
0000
0000
0000
0000
,
0000
0000
0000
0000
,
0000
0000
0000
0000
,
0000
0000
0000
0000
,
0000
0000
0000
0000
,
0000
0000
0000
0000
,
0001
0200
0302
2003
,
3200
0320
0230
2300
,
3001
0002
0203
0320
,
2030
3200
0320
0032
,
1003
0000
1000
0001
0200
0000
0320
0000
,
2030
3002
0023
0130
,
0010
0000
0001
1000
0020
0000
0230
0000
,
0302
2003
0002
3003
,
0011
0001
0100
0101
0001
1000
1001
0000
,
1100
0000
1000
0000
0001
0000
1000
0010
0100
0000
0010
0000
0110
0000
0000
0000
,
1010
1000
0100
1100
1000
0001
1001
0000
,
0101
0000
0001
0000
1000
0000
0001
0010
0100
0000
0010
0000
0110
0000
0000
0000
,
0011
0001
1001
0001
0101
0001
0010
0100
,
1100
1000
1001
1000
1010
1000
0010
0100
,
0001
0010
0001
1000
0100
1000
0001
0100
0001
1000
0010
1000
0001
0010
0100
1000
,
0010
0000
0000
0000
0010
0000
0000
0000
0010
0000
0100
0000
0010
1000
0001
0000
,
1000
0000
0001
0100
1000
0000
0100
0001
0010
0000
0100
1000
0010
0000
0100
0001
,
1000
0000
0001
0010
1000
0000
0010
0001
0100
0000
0010
0000
2020
0000
3030
0000
,
1000
0000
0001
0000
0010
0001
0000
1000
0010
0000
0100
0000
0001
0010
0001
0000
,
1000
0010
1000
0000
0001
0010
0100
1000
0010
0000
0100
0000
0220
0000
0330
0000
,
0001
0000
1000
0100
0001
0000
0100
1000
0010
0000
0100
0001
0010
0000
0100
1000
,
0001
0000
1000
0010
0001
0000
0010
1000
0100
0000
0010
0000
0022
0000
0033
0000
,
0001
0000
1000
0000
0010
1000
0000
0001
0010
0000
0100
0000
0020
0000
0000
0000
,
0031
0000
0000
0000
0000
0000
0000
0000
0000
0000
0000
0000
0000
0000
0000
0000
0000
0000
0000
0000
0000
0000
0000
0000
0100
0000
0000
0000
0000
0000
0000
0000
0000
0000
0000
0000
0000
0000
0000
0000
0000
0000
0000
0000
0000
0000
0000
0000
1000
0000
0000
0000
0000
0000
0000
0000
0000
0000
0000
0000
0000
0000
0000
0000
0000
0000
0000
0000
0000
0000
0000
0000
0100
0000
0000
0000
0000
0000
0000
0000
0000
0000
0000
0000
0000
0000
0000
0000
0000
0000
0000
0000
0000
0000
0000
0000
0001
0000
0000
0000
0000
0000
0000
0000
0000
0000
0000
0000
0000
0000
0000
0000
0000
0000
0000
0000
0000
0000
0000
0000
0000
0000
0000
0000
0000
0000
0000
0000
0000
0000
0000
0000
0000
0000
0000
0000
0000
0000
0000
0000
0000
0000
0000
0000
2002
3003
0000
0000
0000
0000
0000
0000
0000
0000
0000
0000
0000
0000
0000
0000
0000
0000
0000
0000
0000
0000
0000
0000
0000
0000
0000
0000
0000
0000
0000
0000
0000
0000
0000
0000
0000
0000
0000
0000
0000
0000
0000
0000
0000
0000
0000
0000
,
0102
1003
0201
0310
0102
1003
0201
0310
,
0102
1003
0201
0310
0100
0001
1000
0100
,
2100
3001
1200
0310
2100
3001
1200
0310
,
2100
3001
1200
0310
0100
1000
0001
0100
,
0010
0010
1010
0010
0010
0011
0010
0110
,
0100
0100
0101
0100
0100
0110
1001
1000
,
0001
0000
0010
0000
0100
1000
0000
0001
0100
0000
0010
0000
1000
0100
0010
0001
,
1000
0000
0010
0000
0100
0001
0000
1000
0100
0000
0010
0000
0100
1000
0001
0000
,
1001
0002
0203
0320
,
2030
3200
0302
0203
,
1300
2000
3020
0230
,
0302
0023
0230
1300
,
0001
1000
0001
1000
0010
0100
0001
1000
0100
0010
0001
1000
0010
1000
0001
0010
,
0100
1000
0001
0100
0010
1000
0001
0010
0100
1000
0100
0010
0001
1000
0010
1000
,
0001
0010
0001
1000
0100
1000
0001
1000
0010
0100
0001
0010
0001
1000
0001
0100
,
0010
0000
0010
0000
0010
0100
1001
0000
,
0001
0100
0001
0100
0001
0100
0001
0100
0010
0100
0010
0100
0010
0100
0010
0100
0010
1000
0010
1000
0010
1000
0010
1000
0001
1000
0001
1000
0001
1000
0001
1000
,
0100
1000
0100
1000
0100
1000
0100
1000
0100
0010
0100
0010
0100
0010
0100
0010
0001
0010
0001
0010
0001
0010
0001
0010
0001
1000
0001
1000
0001
1000
0001
1000
,
0010
0100
0010
0100
0010
0100
0010
0100
0001
0100
0001
0100
0001
0100
0001
0100
0001
0010
0001
0010
0001
0010
0001
0010
0100
0010
0100
0010
0100
0010
0100
0010
,
0100
1000
0100
1000
0100
1000
0100
1000
0010
1000
0010
1000
0010
1000
0010
1000
0001
0100
0001
0100
0001
0100
0001
0100
0010
1000
0001
0100
0010
1000
0001
0010
,
0100
0000
1000
0001
0100
0000
0001
0010
1000
0000
0010
0001
0100
0000
0010
1000
,
0100
0000
0001
0100
1000
0000
0001
1000
0010
0000
1000
0100
0010
0000
0001
1000
,
0010
0000
1000
0100
0001
0000
0100
1000
0010
0000
0100
0001
0010
0000
1000
0010
,
0001
0000
1000
0001
0100
0000
0001
0010
1000
0000
0010
0001
0100
0000
0010
1000
,
0100
0000
1000
0010
0001
0000
0010
1000
0100
0000
0001
0100
1000
0000
0001
1000
,
0010
0000
1000
0100
0001
0000
0100
1000
0010
0000
0100
0001
0010
0000
0001
0100
,
1000
0000
0100
0001
0010
0000
1000
0010
0001
0000
1000
0001
0100
0000
0001
0010
,
0100
0000
0000
0000
0100
0000
0000
0000
0100
0000
0010
0000
0100
1000
0001
0000
,
0100
0100
0101
0100
0100
1100
0100
0110
,
0010
0010
1010
0010
0010
0110
1001
1000
,
0100
0100
1100
0100
0100
0101
0100
0110
,
0010
0010
0011
0010
0010
0110
1001
0000
,
1010
1000
1001
1000
1100
1000
0010
0100
,
0101
0001
1001
0001
0011
0001
0010
0100
,
1000
0010
1000
0001
0100
0001
1000
0100
1000
0001
0010
0001
1000
0010
0100
0001
,
0010
0000
0000
0000
0010
0000
0000
0000
0010
0000
0100
0000
1000
0010
0100
0001
,
1001
0000
0000
0000
,
0000
0000
0000
0000
;
#NOTES:
     dance-double:
     :
     Easy:
     8:
     :
00000000
00000000
00000000
00000000
,
00000000
00000000
00000000
00000000
,
00000000
00000000
00000000
00000000
,
00000000
00000000
00000000
00000000
,
00000000
00000000
00000000
00000000
,
00000000
00000000
00000000
00000000
,
00000000
00000000
00000000
00000000
,
00000000
00000000
00000000
00000000
,
00000000
00000000
00000000
00000000
,
10000000
10000000
01000000
01000000
,
00010000
00001000
00000010
00000000
,
00000001
00000001
00000100
00000100
,
00001000
00010000
00100000
00000000
,
10000000
00100000
00010000
00001000
,
00010000
00001000
00000100
00000000
,
00000001
00000010
00001000
00010000
,
00001000
00010000
01000000
00000000
,
10000000
00000000
10000000
00000000
01000000
00100000
00010000
00000000
,
00100000
00000000
00100000
00000000
00001000
00010000
00001000
00000000
,
00000100
00000000
00000100
00000000
00000001
00001000
00000010
00000000
,
00010000
00000000
00010000
00000000
00001000
00010000
00001000
00000000
,
00010000
01000000
10000000
00100000
,
00010000
00001000
00000100
00000001
,
00001000
00000001
00001000
00000000
00000010
00000100
00000010
00000000
,
00001000
00000000
00001000
00000000
00001000
00000001
00000100
00000000
,
00000001
00000100
00000010
00001000
,
00000100
00000000
00010000
00000000
00001000
00010000
00001000
00000000
,
00010000
01000000
10000000
01000000
,
00100000
00000000
00010000
00000000
10000000
00010000
10000000
00000000
,
10000000
01000000
00100000
00010000
,
01000000
00000000
00001000
00000000
00010000
00001000
00010000
00000000
,
00001000
00000100
00000001
00000100
,
00000010
00001000
00000001
00000000
,
00000001
00000100
00001000
00000000
00000100
00001000
00010000
00000000
,
00001000
00010000
00001000
00000000
00010000
00100000
10000000
00000000
,
10000000
01000000
00010000
00000000
01000000
00010000
00001000
00000000
,
00010000
00001000
00010000
00000000
00001000
00000010
00000001
00000000
,
00000011
00000011
00001010
00001010
,
00011000
00011000
00110000
00110000
,
10100000
10100000
10010000
10010000
,
00010000
00000000
00010000
00000000
00010000
10000000
01000000
00000000
,
10000000
10000000
10000000
01000000
,
00020000
00031000
00002000
00013000
,
00001000
00001000
00001000
00000010
,
00000002
00001003
00002000
00003001
,
00000001
00000010
00001000
00000010
,
00001000
00010000
00001000
00010000
,
00100000
00100000
00100000
00100000
,
01000000
00000000
01000000
00000000
01000000
00100000
01000000
00000000
,
20010000
00000000
00100000
00000000
30010000
00100000
01000000
00000000
,
02100000
00000000
00010000
00000000
03100000
00001000
00010000
00000000
,
00012000
00000000
00000100
00000000
00013000
00001000
00000100
00000000
,
00000120
00000000
00001000
00000000
00000130
00000100
00000010
00000100
,
00000001
00000000
00000100
00000000
00001000
00010000
00001000
00000000
,
00010000
01100000
10000000
01100000
,
00010000
00000000
10000000
00000000
01000000
00100000
00010000
00000000
,
00001000
00000110
00000001
00000110
,
00001000
00000000
00000001
00000000
00000100
00000010
00000100
00000000
,
00001000
00011000
00010000
00011000
,
00010000
00000000
00100000
00000000
01000000
00010000
10000000
00000000
,
01000000
00000000
01000000
00000000
01000000
00100000
01000000
00000000
,
10000000
01000000
00010000
00000000
01000000
00010000
00001000
00000000
,
00010000
00001000
00010000
00000000
00001000
00000010
00000001
00000000
,
00000001
00000100
00001000
00000000
00000100
00001000
00010000
00000000
,
00001000
00010000
00001000
00000000
00010000
00100000
10000000
00000000
,
10100000
10100000
00110000
00110000
,
00011000
00011000
00001010
00001010
,
00000011
00000011
00001001
00001001
,
00001000
00000000
00001000
00000000
00001000
00000001
00000100
00000000
,
00000110
00000000
00000000
00000000
,
00000000
00000000
00000000
00000000
;
#NOTES:
     dance-double:
     :
     Medium:
     11:
     :
00000000
00000000
00000000
00000000
,
00000000
00000000
00000000
00000000
,
00000000
00000000
00000000
00000000
,
00000000
00000000
00000000
00000000
,
00000000
00000000
00000000
00000000
,
00000000
00000000
00000000
00000000
,
00000000
00000000
00000000
00000000
,
00000000
00000000
00000000
00000000
,
00000000
00000000
00000000
00000000
,
00001000
00001000
00010000
00001000
,
00010000
00100000
10000000
00100000
,
00010000
00010000
00001000
00010000
,
00001000
00000010
00000001
00000010
,
00001000
00001000
00010000
00001000
,
00010000
01000000
10000000
01000000
,
00010000
00010000
00001000
00010000
,
00001000
00000100
00000001
00000000
,
00000001
00000100
00000010
00001000
00000001
00000100
00000000
00000000
,
00001000
00010000
00001000
00010000
00000000
00100000
01000000
00000000
,
00010000
10000000
01000000
00100000
00010000
01000000
00000000
00000000
,
00100000
10000000
00010000
00100000
00000000
00001000
00010000
00000000
,
00001000
00010000
00001000
00010000
00001000
00000010
00001000
00000010
,
00000001
00000100
00000001
00000100
00001000
00010000
00001000
00010000
,
00100000
10000000
01000000
00100000
00010000
10000000
00100000
01000000
,
00010000
00000000
00010000
00000000
00010000
10000000
01000000
00000000
,
10000000
01000000
00010000
00000000
00001000
00010000
00001000
00000100
,
00000010
00001000
00000001
00000000
00000010
00000100
00001000
00000000
,
00000001
00000100
00001000
00000000
00010000
00001000
00010000
00000000
,
00100000
10000000
00100000
00010000
00001000
00010000
01000000
00000000
,
10000000
00100000
00010000
00000000
00001000
00010000
00001000
00000010
,
00000100
00001000
00000001
00000000
00000100
00000010
00001000
00000000
,
00000001
00000010
00001000
00000000
00010000
00001000
00010000
00000000
,
00100000
10000000
00010000
10000000
00100000
01000000
00100000
00000000
,
10000000
01000000
00100000
00010000
01000000
00100000
00010000
00001000
,
00100000
00010000
00001000
00000100
00000010
00000010
00000010
00000000
,
00000001
00000100
00000010
00001000
00000100
00000010
00001000
00010000
,
00000010
00001000
00010000
01000000
00100000
00100000
00100000
00000000
,
10000000
01000000
10000000
01000000
00100000
00010000
00100000
00010000
,
00001000
00000100
00001000
00000100
00000010
00000001
00000010
00000001
,
00001000
00000100
00000010
00000001
00001000
00000010
00000100
00000001
,
00001000
00000000
00001000
00000000
00001000
00000001
00000100
00000000
,
00000002
00000010
00000010
00000010
,
00002003
00000010
00003020
00010000
,
00020030
00001000
00001000
00001000
,
00032000
00100000
00203000
00310000
,
00010000
00110000
10000000
10100000
,
01000000
01010000
00001000
00011000
,
00010000
00001000
00010000
00001000
00010000
00001000
00010000
00000000
,
00001000
00000000
00001000
00000000
00001000
00000100
00000001
00000000
,
00000201
00000000
00001000
00000000
00000301
00000100
00001000
00000000
,
00021000
00000000
00100000
00000000
00031000
00010000
01000000
00000000
,
12000000
00000000
00010000
00000000
13000000
01000000
00010000
00000000
,
00012000
00000000
00000000
00000000
00000010
00000000
00000000
00000000
00003001
00000000
00000001
00000000
00000001
00000100
00001000
00000000
,
00000001
00000010
00000001
00000100
00001000
00010000
00001000
00000000
,
00010000
00110000
10000000
11000000
,
10000000
00100000
10000000
01000000
00010000
00001000
00010000
00000000
,
00001000
00001010
00000001
00000101
,
00000001
00000100
00001000
00010000
00100000
00010000
00001000
00000000
,
00010000
01100000
10000000
01100000
,
10000000
00100000
00010000
00000000
00001000
00010000
00001000
00000000
,
00000010
00000000
00000010
00000000
00000010
00000100
00000010
00000000
,
00000001
00000010
00000100
00001000
00000010
00000100
00001000
00010000
,
00000100
00001000
00010000
00100000
01000000
01000000
01000000
00000000
,
10000000
00100000
01000000
00010000
00100000
01000000
00010000
00001000
,
01000000
00010000
00001000
00000010
00000100
00000100
00000100
00000000
,
00000001
00000010
00000001
00000010
00000100
00001000
00000100
00001000
,
00010000
00100000
00010000
00100000
01000000
10000000
01000000
10000000
,
00010000
00100000
01000000
10000000
00010000
01000000
00100000
10000000
,
00010000
00000000
00010000
00000000
00010000
10000000
00100000
00000000
,
01100000
00000000
00000000
00000000
,
00000000
00000000
00000000
00000000
;
#NOTES:
     dance-double:
     :
     Hard:
     15:
     :
00000000
00000000
00000000
00000000
,
00000000
00000000
00000000
00000000
,
00000000
00000000
00000000
00000000
,
00000000
00000000
00000000
00000000
,
00000000
00000000
00000000
00000000
,
00000000
00000000
00000000
00000000
,
00000000
00000000
00000000
00000000
,
00000000
00000000
00000000
00000000
,
00000000
00000000
00000000
00000000
,
10000000
10000000
00100000
00100000
,
00010000
00000000
00010000
00000000
00001000
00000100
00000001
00001000
,
00000001
00000001
00000010
00000010
,
00001000
00000000
00001000
00000000
00010000
01000000
10000000
00010000
,
10000000
00000000
00100000
00010000
00001000
00000000
00010000
00000100
,
00001000
00000000
00000001
00000000
00000010
00001000
00010000
00000000
,
01000000
00000000
10000000
00010000
00100000
00000000
00001000
00000000
,
00010000
00000000
00001000
00000010
00000001
00000000
00000000
00000000
,
00000101
00000010
00001000
00000001
00000010
00001000
00001010
00000000
,
00011000
00000000
00010000
00000000
00100000
00000000
10000000
00010000
00000000
00000000
01000000
00000000
01100000
00000000
00000000
00000000
,
01010000
00100000
10000000
01000000
00010000
00001000
00011000
00000000
,
00001010
00000000
00000010
00000000
00000001
00000000
00001000
00000100
00000000
00000000
00000010
00000000
00000110
00000000
00000000
00000000
,
00000001
00000001
00000010
00000010
00000100
00000100
00001000
00001000
,
00010000
00010000
00100000
00100000
01000000
01000000
10000000
10000000
,
01000000
00100000
01000000
00100000
00001000
00010000
00001000
00010000
00000100
00000010
00000100
00000010
00000001
00001000
00000001
00001000
,
00000010
00000000
00000010
00000000
00000010
00000100
00001001
00000000
,
00000001
00000100
00001000
00000000
00000100
00000000
00000010
00001000
00000100
00000000
00010000
00000000
00001000
00100000
00010000
00000000
,
00100000
01000000
10000000
00000000
01000000
00000000
00100000
00010000
00100000
00000000
00001000
00000000
00010000
00001000
00000100
00000000
,
00000010
00000000
00000100
00000000
00001000
00000100
00000001
00000100
00001000
00000000
00000100
00000000
00000001
00000000
00000100
00000000
,
00000010
00000000
00001000
00000100
00010000
00000000
00001000
00100000
00010000
00000000
00100000
01000000
10000000
00000000
00000000
00000000
,
10000000
01000000
00010000
00000000
01000000
00000000
00100000
00010000
01000000
00000000
00001000
00000000
00010000
00000010
00001000
00000000
,
00000010
00000100
00000001
00000000
00000100
00000000
00000010
00001000
00000010
00000000
00010000
00000000
00001000
00010000
01000000
00000000
,
00100000
00000000
01000000
00000000
00010000
01000000
10000000
01000000
00010000
00000000
01000000
00000000
10000000
00000000
01000000
00000000
,
00010000
00001000
00010000
00000000
00000100
00001000
00000100
00000000
00000010
00000000
00000001
00000000
00000101
00000000
00000000
00000000
,
00000001
00000100
00000001
00000100
00000010
00000000
00001000
00000000
00000100
00010000
00000100
00010000
00001000
00000000
00010000
00000000
,
00100000
10000000
00100000
10000000
00010000
00000000
01000000
00000000
00100000
00000000
01000000
00000000
00100000
00000000
00100000
00000000
,
10000000
01000000
10000000
01000000
00010000
00000000
00001000
00000000
00100000
00001000
00100000
00001000
00010000
00000000
00000100
00000000
,
00000010
00000001
00000010
00000000
00000100
00000000
00001000
00000000
00000001
00000100
00000001
00000000
00001000
00000000
00000001
00000000
,
00001000
00001000
00000001
00000001
00000100
00000100
00001000
00001000
,
00010000
00010000
00001000
00001000
00000010
00000010
00001000
00001000
,
00010000
00010000
01000000
01000000
10000000
10000000
00010000
00010000
,
01000000
00000000
00000000
00000000
01000000
00000000
00000000
00000000
01000000
00000000
00100000
00000000
10000000
00010000
00100000
01000000
,
20000000
01000000
01000000
01000000
,
30020000
00100000
00230000
00001000
,
00302000
00000010
00000010
00000010
,
00003020
00000001
00000032
00001003
,
00000001
00000100
00000001
00000100
00000001
00000000
00001000
00000000
00000010
00001000
00000010
00001000
00000010
00000000
00010000
00000000
,
00001000
00010000
00001000
00000000
00100000
00010000
00100000
00000000
01000000
00100000
01000000
00000000
10000000
00010000
10000000
00000000
,
00100000
01000000
00100000
01000000
00100000
01000000
00100000
01000000
00010000
10000000
00010000
10000000
00010000
10000000
00010000
10000000
,
00100000
00000000
00100000
00000000
00100000
01000000
10010000
00000000
,
12000000
00000000
03020000
00000000
00031000
00010000
01000000
00000000
,
01020000
00000000
00032000
00000000
00003010
00001000
00010000
00000000
,
00001200
00000000
00000302
00000000
00000013
00001000
00010000
00000000
,
02010000
00000000
00000000
00000000
23000000
00000000
00000000
00000000
30100000
00000000
00100000
00000000
00100000
01000000
10010000
00000000
,
10000000
00100000
00010000
00000000
00100000
00000000
01000000
00010000
00100000
00000000
00001000
00000000
00010000
00000100
00001000
00000000
,
00000100
00000010
00000001
00000000
00000010
00000000
00000100
00001000
00000100
00000000
00010000
00000000
00001000
00010000
01000000
00000000
,
00100000
00010000
10000000
00000000
00010000
00000000
01000000
00100000
10000000
00000000
00100000
00000000
01000000
00010000
01000000
00000000
,
00100000
00010000
00001000
00000000
00000100
00000000
00000010
00001000
00000001
00000000
00000100
00000000
00000001
00000000
00000000
00000000
,
00000001
00000100
00001000
00000000
00000100
00000000
00000010
00001000
00000100
00000000
00010000
00000000
00001000
00100000
00010000
00000000
,
00100000
01000000
10000000
00000000
01000000
00000000
00100000
00010000
00100000
00000000
00001000
00000000
00010000
00001000
00000100
00000000
,
00000010
00000100
00000010
00000000
00001000
00000010
00001000
00000000
00000001
00000100
00000001
00000000
00001000
00000001
00001000
00000000
,
00000100
00000000
00000100
00000000
00000100
00000010
00001001
00000000
,
00000001
00000100
00000010
00000000
00001000
00000000
00000010
00000100
00000010
00000000
00001000
00000000
00000100
00000000
00010000
00000000
,
00001000
00100000
00010000
00000000
00100000
00000000
01000000
10000000
01000000
00000000
00100000
00000000
00010000
00000000
00100000
00000000
,
00001000
00010000
00001000
00000000
00000100
00000000
00000010
00001000
00000001
00000000
00000010
00000000
00000100
00001000
00000100
00000000
,
00000010
00000001
00000010
00000000
00000100
00000000
00000010
00001000
00010000
00000000
00001000
00000000
00100000
00010000
10000000
00000000
,
01000000
10000000
00010000
00000000
00100000
00010000
01000000
00000000
00001000
00010000
00000010
00000000
00001000
00000010
00000100
00000000
,
00000001
00001000
00000010
00001000
00000001
00000000
00000100
00000000
00001000
00010000
00001000
00010000
00100000
00000000
01000000
00000000
,
00100000
10000000
00100000
10000000
00100000
01000000
00100000
01000000
00010000
01000000
00010000
01000000
00001000
00010000
00001000
00010000
,
00000010
00000000
00000000
00000000
00000010
00000000
00000000
00000000
00000010
00000000
00000100
00000000
00000001
00001000
00000100
00000000
,
00000110
00000000
00000000
00000000
,
00000000
00000000
00000000
00000000
;
#NOTES:
     dance-double:
     :
     Challenge:
     16:
     :
00000000
00000000
00000000
00000000
,
00000000
00000000
00000000
00000000
,
00000000
00000000
00000000
00000000
,
00000000
00000000
00000000
00000000
,
00000000
00000000
00000000
00000000
,
00000000
00000000
00000000
00000000
,
00000000
00000000
00000000
00000000
,
00000000
00000000
00000000
00000000
,
00000000
00000000
00000000
00000000
,
00010000
00002000
00203000
00302000
,
00023000
00230000
00320000
00032000
,
00100000
00023000
00030020
00020030
,
00032000
00003020
00002030
00023000
,
00031000
00000000
00001000
00010000
02000000
00000000
03200000
00000000
,
00302000
00023000
00030020
00001000
,
00010030
00000000
00010000
00001000
00000020
00000000
00000230
00000000
,
00020300
00032000
00020000
00033000
,
00001000
00010000
00001000
00000000
01000000
00000000
00010000
00100000
01000000
00000000
10000000
00000000
10010000
00000000
00000000
00000000
,
00010000
01000000
00010000
00000000
00100000
00000000
01000000
00010000
00001000
00000000
00000100
00000000
00000110
00000000
00000000
00000000
,
00010000
00001000
00010000
00000000
00000100
00000000
00001000
00000010
00000100
00000000
00000001
00000000
00001001
00000000
00000000
00000000
,
00001000
00000100
00001000
00000000
00000010
00000000
00000100
00001000
00010000
00000000
01000000
00000000
01100000
00000000
00000000
00000000
,
10000000
11000000
00100000
01100000
00010000
00110000
00001000
00011000
,
00000100
00001100
00000010
00000110
00000001
00000011
00000010
00000100
,
00010000
00001000
00010000
00001000
00000010
00000001
00000010
00000001
00001000
00000001
00000100
00001000
00010000
00001000
00010000
00100000
,
01000000
00000000
00000000
00000000
00001000
00000000
00000000
00000000
00001000
00000000
00010000
00000000
00001000
00000100
00000001
00000000
,
00000010
00000000
00000100
00001000
00000010
00000000
00010000
00001000
00000010
00000000
00001000
00010000
00000010
00000000
00010000
00001000
,
00000010
00000000
00001000
00010000
00000010
00000000
00010000
00001000
00000010
00000000
00000100
00000000
00020000
00000000
00030000
00000000
,
00001000
00000000
00000010
00000000
00000001
00000100
00000000
00001000
00010000
00000000
00100000
00000000
10000000
01000000
00100000
00000000
,
00001000
00000000
00010000
00000000
00001000
00000010
00000000
00000001
00000100
00000000
00001000
00000000
00020000
00000000
00030000
00000000
,
00001000
00000000
00010000
00001000
00100000
00000000
00001000
00010000
00100000
00000000
00010000
00001000
00100000
00000000
00001000
00010000
,
00100000
00000000
00010000
00001000
00100000
00000000
00001000
00010000
00100000
00000000
01000000
00000000
00002000
00000000
00003000
00000000
,
00010000
00000000
00100000
00000000
10000000
01000000
00000000
00010000
00001000
00000000
00000010
00000000
00000200
00000000
00000000
00000000
,
00010300
00000000
00000000
00000000
00000000
00000000
00000000
00000000
00000000
00000000
00000000
00000000
00000000
00000000
00000000
00000000
00000000
00000000
00000000
00000000
00000000
00000000
00000000
00000000
00001000
00000000
00000000
00000000
00000000
00000000
00000000
00000000
00000000
00000000
00000000
00000000
00000000
00000000
00000000
00000000
00000000
00000000
00000000
00000000
00000000
00000000
00000000
00000000
00100000
00000000
00000000
00000000
00000000
00000000
00000000
00000000
00000000
00000000
00000000
00000000
00000000
00000000
00000000
00000000
00000000
00000000
00000000
00000000
00000000
00000000
00000000
00000000
00010000
00000000
00000000
00000000
00000000
00000000
00000000
00000000
00000000
00000000
00000000
00000000
00000000
00000000
00000000
00000000
00000000
00000000
00000000
00000000
00000000
00000000
00000000
00000000
01000000
00000000
00000000
00000000
00000000
00000000
00000000
00000000
00000000
00000000
00000000
00000000
00000000
00000000
00000000
00000000
00000000
00000000
00000000
00000000
00000000
00000000
00000000
00000000
00100000
00000000
00000000
00000000
00000000
00000000
00000000
00000000
00000000
00000000
00000000
00000000
00000000
00000000
00000000
00000000
00000000
00000000
00000000
00000000
00000000
00000000
00000000
00000000
20020000
30030000
00000000
00000000
00000000
00000000
00000000
00000000
00000000
00000000
00000000
00000000
00000000
00000000
00000000
00000000
00000000
00000000
00000000
00000000
00000000
00000000
00000000
00000000
00000000
00000000
00000000
00000000
00000000
00000000
00000000
00000000
00000000
00000000
00000000
00000000
00000000
00000000
00000000
00000000
00000000
00000000
00000000
00000000
00000000
00000000
00000000
00000000
,
02010000
03001000
01020000
10030000
02010000
03001000
01020000
10030000
,
02010000
03001000
01020000
10030000
01010000
00001000
00010000
00000010
,
00001020
00010030
00002010
00003001
00001020
00010030
00002010
00003001
,
00001010
00010000
00001000
01000000
20100000
30010000
00120000
10030000
,
00210000
00301000
00001020
00010030
00002010
00003001
00001020
00010030
,
00210000
00301000
00120000
10030000
00210000
00301000
00001020
00010030
,
00210000
00301000
00001020
00010030
00210000
00301000
00001020
00010030
,
00011000
00000000
00001000
00000000
00010000
00100000
00000000
10000000
01000000
00000000
00010000
00000000
00001000
00010000
00000100
00000000
,
00000110
00000020
00000032
00000203
,
00002300
00023000
02030000
23000000
,
00100000
32000000
03020000
00032000
,
00003200
00000302
00000023
00000130
,
00001000
00000001
00001000
00000001
00000010
00000100
00001000
00000010
00010000
00001000
00010000
00001000
01000000
00010000
00100000
01000000
,
10000000
00010000
10000000
00010000
01000000
00100000
10000000
00010000
00100000
00001000
00100000
00001000
00010000
00000100
00001000
00000100
,
00000010
00000001
00000010
00000001
00001000
00000100
00001000
00000010
00010000
00001000
00010000
00001000
01000000
00010000
00100000
00001000
,
00010000
00000000
00011000
00000000
00001000
00010000
00011000
00000000
,
00001000
00010000
00001000
00010000
00001000
00010000
00001000
00010000
00000100
00010000
00000100
00010000
00000100
00010000
00000100
00010000
00000100
00001000
00000100
00001000
00000100
00001000
00000100
00001000
00000100
00000010
00000100
00000010
00000100
00000010
00000100
00000010
,
00000001
00000010
00000001
00000010
00000001
00000010
00000001
00000010
00000001
00001000
00000001
00001000
00000001
00001000
00000001
00001000
00000001
00000100
00000001
00000100
00000001
00000100
00000001
00000100
00001000
00000100
00001000
00000100
00001000
00000100
00001000
00000100
,
00001000
00010000
00001000
00010000
00001000
00010000
00001000
00010000
00100000
00010000
00100000
00010000
00100000
00010000
00100000
00010000
00100000
10000000
00100000
10000000
00100000
10000000
00100000
10000000
00010000
10000000
00010000
10000000
00010000
10000000
00010000
10000000
,
01000000
10000000
01000000
10000000
01000000
10000000
01000000
10000000
01000000
00010000
01000000
00010000
01000000
00010000
01000000
00010000
00001000
00010000
00001000
00010000
00001000
00010000
00001000
00010000
00001000
00000010
00001000
00000010
00000001
00001000
00000010
00000100
,
00000001
00000000
00000010
00000100
00001000
00000000
00000001
00000100
00001000
00000000
00010000
00001000
00100000
00000000
01000000
10000000
,
00010000
00000000
01000000
00100000
00010000
00000000
00100000
00010000
00001000
00000000
00010000
00001000
00000100
00000000
00001000
00000100
,
00000010
00000000
00001000
00000010
00010000
00000000
00001000
00010000
00000100
00000000
00001000
00000001
00000010
00000000
00000001
00001000
,
00000100
00000000
00000010
00001000
00010000
00000000
00001000
00010000
01000000
00000000
00010000
01000000
00100000
00000000
00010000
00100000
,
00001000
00000000
00010000
00001000
01000000
00000000
00010000
01000000
10000000
00000000
01000000
00100000
00010000
00000000
00100000
00010000
,
00001000
00000000
00010000
00001000
00000010
00000000
00001000
00010000
00000010
00000000
00010000
00001000
00000010
00000000
00001000
00010000
,
00000010
00000000
00010000
00001000
00000010
00000000
00001000
00000010
00000001
00000000
00000001
00000100
00001000
00000000
00010000
00001000
,
00100000
00000000
00000000
00000000
00001000
00000000
00000000
00000000
00010000
00000000
00001000
00000000
01000000
00010000
00100000
00000000
,
01000000
01000000
10000000
10000000
00100000
00100000
00010000
00010000
,
00001000
00001000
00000010
00000010
00000001
00000001
00000100
00000100
,
00001000
00001000
00010000
00010000
01000000
01000000
10000000
10000000
,
00100000
00100000
00010000
00010000
00001000
00001000
00010000
00010000
,
00000010
00000000
00010000
00001000
00000010
00000000
00001000
00010000
00000010
00000000
00010000
00001000
00000010
00000000
00001000
00010000
,
00000010
00000000
00010000
00001000
00100000
00000000
00001000
00010000
00100000
00000000
00010000
00001000
00100000
00000000
00001000
00000000
,
00001000
00010000
00001000
00000010
00001000
00010000
00000010
00010000
00001000
00000010
00001000
00010000
00000010
00010000
00001000
00000010
,
00001000
00000000
00010000
00001000
00100000
00000000
01000000
10000000
00100000
00000000
00010000
00000000
00001000
00010000
00000100
00000000
,
00000110
00000000
00000000
00000000
,
00000000
00000000
00000000
00000000
;
