
//----- song ID: doku -----//
#TITLE:毒占欲;
#ARTIST:DECO*27;
#TITLETRANSLIT:Dokusenyoku;
#BANNER:Dokusenyoku.png;
#BACKGROUND:Dokusenyoku-bg.png;
#CDTITLE:./CDTitles/DDR A20.png;
#MUSIC:Dokusenyoku.ogg;
#SAMPLESTART:80.063;
#SAMPLELENGTH:15;
#BPMS:0=117;
#NOTES:
     dance-single:
     :
     Beginner:
     2:
     :
0000
0000
0000
0000
,
0000
0000
0000
0000
,
0000
0000
0000
0000
,
0010
0000
1000
0000
,
0010
0000
1000
0000
,
0001
0000
0100
0000
,
0001
0000
0100
0000
,
0002
0000
0003
0000
,
0001
0000
1000
0000
,
0001
0000
0010
0000
,
0100
0000
1000
0000
,
0010
0000
0100
0000
,
0001
0000
0001
0000
,
1000
0000
1000
0000
,
0010
0000
1000
0000
,
0010
0000
1000
0000
,
0010
0000
0000
0000
,
0001
0000
0100
0000
,
0001
0000
0100
0000
,
0010
0000
1000
0000
,
0010
0000
1000
0000
,
0001
0000
0100
0000
,
0010
0000
1000
0000
,
0001
0000
0100
0000
,
0010
0000
1000
0000
,
0001
0000
1000
0000
,
0010
0000
0100
0000
,
0001
0000
0001
0000
,
1000
0000
1000
0000
,
0020
0000
0030
0000
,
0100
0000
0000
0000
,
0001
0000
0000
0000
,
0010
0000
0000
0000
,
1000
0000
0001
0000
,
0010
0000
0000
0000
,
1000
0000
0000
0000
,
0100
0000
0000
0000
,
0010
0000
0000
0000
,
1001
0000
0000
0000
,
0010
0000
1000
0000
,
0010
0000
0100
0000
,
0010
0000
1000
0000
,
0001
0000
0100
0000
,
0001
0000
0010
0000
,
0100
0000
1000
0000
,
0010
0000
1000
0000
,
0100
0000
0010
0000
,
0001
0000
0000
0000
,
0010
0000
1000
0000
,
0001
0000
0000
0000
,
0000
0000
0000
0000
;
#NOTES:
     dance-single:
     :
     Easy:
     5:
     :
0000
0000
0000
0000
,
0000
0000
0000
0000
,
0000
0000
0000
0000
,
1000
0100
1000
0100
,
0010
0001
0010
0001
,
1000
0100
0010
0001
,
0100
0010
1000
0001
,
0200
0000
0000
0300
,
0010
1000
0001
0100
,
0010
1000
0001
0100
,
0001
0010
0100
1000
,
0001
0100
0010
1000
,
0100
0100
0010
0110
,
1000
0001
0100
0010
,
1000
1000
0001
1001
,
0100
0010
1000
0001
,
0100
0001
1000
1001
,
0010
0100
0010
0100
,
0001
0010
0001
0010
,
0100
1000
0100
1000
,
0001
0010
0100
1000
,
0001
1000
0001
0010
,
0100
1000
0001
0100
,
0001
1000
0010
1000
,
0001
0100
0010
0100
,
0001
0001
1000
1001
,
0010
0100
0010
0100
,
0001
1000
0100
1000
,
0010
0000
1000
0001
,
2002
0000
0000
3003
,
0010
0000
0100
0000
,
0002
0003
1000
0010
,
0200
0300
0020
0030
,
2000
3000
0002
0003
,
0010
0000
0100
0000
,
0020
0030
1000
0001
,
0200
0300
0002
0003
,
0020
0030
0200
0300
,
1001
0000
0000
0000
,
0010
1000
0010
1000
,
0001
0010
1000
0010
,
0001
0110
0000
1001
,
0100
0100
0010
0010
,
0001
0100
0001
0100
,
0010
1000
0100
1000
,
0010
1001
0000
0110
,
0001
0001
1000
1000
,
0010
1000
0001
1000
,
0001
0100
1000
0100
,
0010
0000
0000
0000
,
0000
0000
0000
0000
;
#NOTES:
     dance-single:
     :
     Medium:
     8:
     :
0000
0000
0000
0000
,
0000
0000
0000
0000
,
0000
0000
0000
0000
,
0001
0000
0010
0000
0100
1000
0100
0000
,
1000
0000
0010
0000
0100
0001
0100
0000
,
0010
0000
1000
0000
0001
0100
0001
0000
,
1000
0000
0001
0000
0010
0100
0010
0000
,
0002
0100
0000
0100
,
1003
0100
1000
0000
0010
0000
0100
0000
,
0001
1000
1000
0000
0010
1000
0010
0000
,
0100
0010
0100
0000
0001
0000
0010
0000
,
1000
0001
0001
0000
0100
0001
0100
0000
,
0010
0000
0000
1000
0000
0000
0000
1000
0000
0000
0001
0000
1001
0000
0000
0000
,
1000
0010
0010
0000
0100
0001
0010
0001
,
0100
0000
0000
0001
0000
0000
0000
0001
0000
0000
1000
0000
1001
0000
0000
0000
,
0001
0100
0100
0000
0001
1000
0001
0000
,
0010
1000
0001
1001
,
1000
0000
0010
0000
0100
0010
0100
0000
,
0001
0000
0100
0000
0010
1000
0010
0000
,
1000
0000
0100
0000
0010
0001
0010
0000
,
0100
0000
1000
0000
0010
0100
0010
0000
,
1000
0001
1000
0000
0010
0000
0010
0000
,
0100
0001
0001
0000
1000
0010
1000
0000
,
0001
0010
0001
0000
0010
0000
0010
0000
,
1000
0100
0100
0000
0010
0001
0010
0000
,
0001
0000
0000
0100
0000
0000
0000
0100
0000
0000
0010
0000
0110
0000
0000
0000
,
1000
0001
1000
0000
0001
0100
0001
0000
,
0000
1000
0000
0000
0100
0000
0000
0010
0000
0000
0001
0000
1000
0000
0000
0000
,
0010
0000
0000
1000
0000
0000
1000
0000
0001
0000
0000
0100
0000
0000
0100
0000
,
0220
0000
0000
0330
,
1000
0000
0100
0000
0010
0000
0001
0100
,
0002
1003
0010
0100
,
0020
1030
0210
0300
,
0002
2003
3020
0130
,
0001
0000
0010
0000
0100
0000
1000
0010
,
2000
3001
0100
0010
,
0200
0301
0020
0130
,
2000
3200
0320
0032
,
0003
0100
0100
0010
0010
1000
0000
1001
,
0001
0000
0010
0100
0010
0000
0001
1000
,
0001
0000
0100
0000
0010
1000
0010
0000
,
1000
0001
0100
0001
0000
1000
0100
1000
,
0000
0001
0010
0001
0010
0001
1000
0000
,
1000
0000
0100
0010
0100
0000
1000
0001
,
1000
0000
0010
0000
0100
0001
0100
0000
,
0001
1000
0010
1000
0000
0001
0010
0001
,
1000
0001
0000
0100
0010
0000
0100
0000
,
1001
0100
0010
0100
,
0001
0010
0001
0000
1000
0100
1000
0000
,
0001
0000
0000
0000
,
0000
0000
0000
0000
;
#NOTES:
     dance-single:
     :
     Hard:
     11:
     :
0000
0000
0000
0000
,
0000
0000
0000
0000
,
0000
0000
0000
0000
,
1000
0100
1000
0000
0001
1000
0010
0100
,
0001
0010
0001
0000
1000
0001
0010
0100
,
1000
0010
1000
0000
0001
0100
0010
1000
,
0100
0010
0100
0000
1000
0001
0100
0010
,
2000
0010
0010
0010
,
3001
0000
0100
0000
1000
0000
0100
0000
0001
0000
0000
1000
0000
1000
0100
0000
,
0010
0001
0001
1000
0100
0010
0001
0010
,
0100
0000
1000
0000
0010
0000
1000
0000
0100
0000
0000
0010
0000
0010
0001
0000
,
1000
0100
0100
0010
0001
0100
0010
1000
,
0001
0000
0100
0010
0000
0010
0000
1000
0000
1000
0001
0000
1001
0000
0010
0000
,
0100
0001
0001
1000
0010
0100
0001
0010
,
0100
0000
1000
0001
0000
0001
0000
0010
0000
0010
0100
0000
0110
0000
1000
0000
,
0001
0100
0100
0010
1000
0001
0100
0010
,
1000
0001
0100
0110
,
0001
0100
0001
0000
1000
0010
1000
0100
,
0010
0001
0010
0000
0001
1000
0100
0010
,
0001
1000
0001
0000
0100
0001
0010
0100
,
1000
0001
1000
0000
0100
0010
1000
0001
,
1000
0000
0100
0000
0001
0000
0100
0000
1000
0000
0000
0010
0000
0010
0100
0000
,
0001
0100
0100
0010
1000
0001
0100
0010
,
1000
0000
0100
0000
1000
0000
0010
0000
0100
0000
0000
0001
0000
0001
1000
0000
,
0010
1000
1000
0001
0100
0010
1000
0001
,
0100
0000
0001
0010
0000
0010
0000
0100
0000
0100
1000
0000
1100
0000
0001
0000
,
1000
0010
0110
1000
0001
0100
0110
0001
,
1000
0002
0000
0103
0020
0000
1030
0200
0000
0310
0002
0000
1003
0000
0010
0000
,
1001
0000
0000
0110
0000
0000
1100
0000
0101
0000
0000
0011
0000
0000
1100
0000
,
0220
0000
0000
0330
,
0001
0000
0010
0000
0100
0000
1000
0001
,
0200
0000
0300
0010
1000
0001
0010
0100
,
2000
0000
0000
0000
3000
0000
0020
0000
2030
0000
0000
3002
0000
0000
0023
0000
,
2030
0000
0000
3020
0000
0000
0032
0000
0203
0000
0000
0000
0300
0000
0000
0000
,
0010
0000
1000
0000
0001
0000
0100
0001
,
0020
0000
0030
0001
1000
0100
0001
0100
,
2000
0000
0000
0000
3000
0000
0002
0000
0023
0000
0000
0230
0000
0000
2300
0000
,
3002
0203
2300
3200
,
0300
0000
0001
0000
0001
0000
1000
0000
1000
0000
0100
0010
0000
0000
0110
0000
,
0001
0000
0000
1000
0000
0000
0100
0000
0010
0000
0000
0001
0000
0000
1000
0000
,
0010
0000
0000
0100
0000
0000
0001
0000
0010
0000
0000
0100
0000
0000
1000
0000
,
1000
0000
0010
0000
0100
0000
0001
1000
0000
0000
0100
0000
0010
0000
1000
0001
,
0000
0100
1000
0100
0001
0100
0001
0100
,
1000
0000
0000
0001
0000
0000
0011
0000
0100
0000
0000
1000
0000
0000
1001
0000
,
0100
0000
0000
0010
0000
0000
1010
0000
0100
0000
0000
0001
0000
0000
1001
0000
,
1000
0000
0001
0000
1000
0000
0100
0010
0000
0000
0001
0000
1000
0000
0100
0010
,
0000
0000
0001
0000
1000
0000
0100
0000
1100
0000
0000
0101
0000
0000
0110
0000
,
1001
1000
0010
0010
,
0100
0000
0000
0001
0000
0000
0010
0000
0100
0000
0000
1000
0000
0000
0010
0000
,
0010
0000
0000
0000
,
0000
0000
0000
0000
;
#NOTES:
     dance-double:
     :
     Easy:
     5:
     :
00000000
00000000
00000000
00000000
,
00000000
00000000
00000000
00000000
,
00000000
00000000
00000000
00000000
,
00000001
00000010
00000100
00001000
,
00000100
00010000
00001000
01000000
,
00100000
10000000
01000000
00100000
,
00010000
01000000
00001000
00010000
,
00002000
00010000
00000000
00010000
,
00103000
00001000
00010000
00000100
,
00000010
00000001
00000010
00000001
,
00000100
00000001
00000100
00001000
,
00010000
01000000
10000000
01000000
,
10000000
01000000
00010000
00001000
,
00010000
00000100
00000010
00000001
,
00000010
00000001
00000010
00001000
,
00010000
00100000
10000000
01000000
,
10000000
01000000
00010000
00011000
,
00010000
00001000
00010000
00000100
,
00001000
00000010
00001000
00000001
,
00000100
00000001
00000100
00000010
,
00001000
00000100
00010000
00001000
,
00100000
00010000
01000000
00100000
,
10000000
01000000
00010000
00001000
,
00000100
00000010
00000100
00000001
,
00000010
00001000
00010000
00100000
,
10000000
00100000
01000000
01100000
,
00010000
01000000
00001000
00010000
,
00000100
00010000
00001000
01000000
,
00010000
00000000
00000010
00000100
,
00002002
00000000
00000000
00003003
,
00000001
00000000
00000100
00000000
,
00001000
00000000
00010000
00001000
,
00020000
00030000
00002000
00003000
,
02000000
00000000
03020000
00000000
,
10030000
00000000
01000000
00000000
,
00010000
00000000
00001000
00010000
,
00002000
00003000
00020000
00030000
,
00000200
00000000
00002300
00000000
,
00003010
00000010
00000010
00000000
,
00001000
00000100
00001000
00000100
,
00010000
00001000
00100000
00010000
,
01000000
10010000
00000000
01100000
,
00010000
00010000
01000000
01000000
,
00100000
10000000
00100000
10000000
,
01000000
00010000
00001000
00010000
,
00000100
00000110
00000000
00001001
,
00000010
00000010
00000100
00000100
,
00001000
00000100
00010000
00001000
,
00100000
00010000
10000000
01000000
,
00010000
00000000
00000000
00000000
,
00000000
00000000
00000000
00000000
;
#NOTES:
     dance-double:
     :
     Medium:
     8:
     :
00000000
00000000
00000000
00000000
,
00000000
00000000
00000000
00000000
,
00000000
00000000
00000000
00000000
,
10000000
00000000
01000000
00000000
00100000
00010000
00100000
00000000
,
00001000
00000000
00010000
00000000
00001000
00010000
00001000
00000000
,
00010000
00000000
00000100
00000000
00001000
00000010
00001000
00000000
,
00000001
00000000
00000100
00000000
00000010
00001000
00000010
00000000
,
00002000
00000100
00000000
00000100
,
00003001
00000010
00000001
00000000
00000100
00000000
00001000
00000000
,
00010000
00001000
00001000
00000000
00100000
00010000
00100000
00000000
,
00010000
01000000
00010000
00000000
10000000
00000000
01000000
00000000
,
00100000
00010000
00010000
00000000
01000000
00001000
01000000
00000000
,
00001000
00000000
00000000
00010000
00000000
00000000
00000000
00001000
00000000
00000000
00000100
00000000
00000110
00000000
00000000
00000000
,
00000001
00001000
00001000
00000000
00000010
00001000
00000100
00010000
,
00001000
00000000
00000000
00010000
00000000
00000000
00000000
00001000
00000000
00000000
00100000
00000000
01100000
00000000
00000000
00000000
,
10000000
00010000
00010000
00000000
01000000
00100000
01000000
00000000
,
00010000
01000000
00001000
00011000
,
00010000
00000000
00000100
00000000
00001000
00000010
00001000
00000000
,
00000001
00000000
00000100
00000000
00000010
00001000
00000010
00000000
,
00010000
00000000
00001000
00000000
01000000
00010000
01000000
00000000
,
00100000
00000000
10000000
00000000
00010000
01000000
00010000
00000000
,
10000000
00010000
10000000
00000000
01000000
00000000
00010000
00000000
,
00001000
00010000
00010000
00000000
00000100
00001000
00000100
00000000
,
00000010
00000001
00000010
00000000
00000001
00000000
00000100
00000000
,
00000010
00001000
00001000
00000000
00000100
00010000
00000100
00000000
,
00010000
00000000
00000000
01000000
00000000
00000000
00000000
10000000
00000000
00000000
00010000
00000000
10010000
00000000
00000000
00000000
,
10000000
00100000
10000000
00000000
00010000
01000000
00010000
00000000
,
00000000
10000000
00000000
00000000
00100000
00000000
00000000
00010000
00000000
00000000
00001000
00000000
00000010
00000000
00000000
00000000
,
00000001
00000000
00000000
00000100
00000000
00000000
00000100
00000000
00001000
00000000
00000000
00010000
00000000
00000000
00010000
00000000
,
00022000
00000000
00000000
00033000
,
00001000
00000000
00100000
00000000
00010000
00000000
01000000
00100000
,
20000000
30010000
10000000
01000000
,
00200000
00310000
02000000
03001000
,
00020000
00030200
00000320
00000031
,
00001000
00000000
00000100
00000000
00010000
00000000
00001000
00010000
,
00002000
00013000
00001000
00010000
,
00000020
00001030
00000200
00000310
,
00000002
00000203
00002300
00023000
,
00030000
00001000
00001000
00010000
00010000
00001000
00000000
00011000
,
00001000
00000000
01000000
00010000
01000000
00000000
00100000
10000000
,
00100000
00000000
01000000
00000000
00010000
10000000
00010000
00000000
,
10000000
00010000
01000000
00010000
00000000
00001000
00010000
00001000
,
00000000
00010000
00001000
00000100
00000001
00000010
00000001
00000000
,
00000001
00000000
00001000
00000100
00001000
00000000
00000010
00000100
,
00000010
00000000
00000100
00000000
00000010
00001000
00000010
00000000
,
00010000
00001000
00010000
00001000
00000000
01000000
00010000
01000000
,
00100000
01000000
00000000
01000000
00010000
00000000
10000000
00000000
,
01100000
10000000
00010000
00100000
,
00001000
00010000
00000010
00000000
00001000
00000001
00000010
00000000
,
00000100
00000000
00000000
00000000
,
00000000
00000000
00000000
00000000
;
#NOTES:
     dance-double:
     :
     Hard:
     11:
     :
00000000
00000000
00000000
00000000
,
00000000
00000000
00000000
00000000
,
00000000
00000000
00000000
00000000
,
00001000
00010000
00001000
00000000
00010000
01000000
10000000
01000000
,
00100000
00010000
10000000
00000000
10000000
00100000
00010000
00001000
,
00000010
00000001
00000100
00000000
00001000
00000100
00000001
00000100
,
00001000
00010000
01000000
00000000
00100000
00010000
01000000
00001000
,
00020000
00001000
00001000
00001000
,
00030100
00000000
00001000
00000000
00000010
00000000
00001000
00000000
00000100
00000000
00000000
00001000
00000000
00001000
00000001
00000000
,
00000010
00000001
00000001
00001000
00000100
00010000
00001000
00100000
,
00010000
00000000
01000000
00000000
00010000
00000000
10000000
00000000
01000000
00000000
00000000
00100000
00000000
00100000
00010000
00000000
,
10000000
01000000
01000000
10000000
01000000
00010000
00001000
00000100
,
00000001
00000000
00001000
00000100
00000000
00000100
00000000
00000010
00000000
00000010
00000001
00000000
00001001
00000000
00000001
00000000
,
00000100
00000010
00000010
00001000
00000100
00010000
00001000
00010000
,
00001000
00000000
01000000
00010000
00000000
00010000
00000000
10000000
00000000
10000000
00100000
00000000
01100000
00000000
10000000
00000000
,
01000000
10000000
10000000
00100000
00010000
00001000
00000010
00000001
,
00000010
00000100
00001000
00011000
,
00010000
00001000
00010000
00000000
00001000
00100000
00010000
00100000
,
00001000
00010000
01000000
00000000
10000000
01000000
00010000
01000000
,
10000000
00010000
01000000
00000000
00001000
00010000
00000100
00010000
,
00001000
00000010
00000001
00000000
00001000
00000100
00000010
00000001
,
00000100
00000000
00001000
00000000
00010000
00000000
00001000
00000000
00010000
00000000
00000000
01000000
00000000
01000000
00100000
00000000
,
00010000
10000000
10000000
01000000
00010000
01000000
10000000
00100000
,
00010000
00000000
00001000
00000000
00000010
00000000
00000001
00000000
00000100
00000000
00000000
00000001
00000000
00000001
00001000
00000000
,
00000010
00001000
00001000
00000001
00000100
00001000
00010000
00001000
,
00010000
00000000
00100000
01000000
00000000
01000000
00000000
00010000
00000000
00010000
10000000
00000000
10010000
00000000
01000000
00000000
,
10000000
00100000
10100000
00000000
01000000
00010000
01010000
00000000
,
00010000
00200000
00000000
00301000
00020000
00000000
00030100
00002000
00000000
00003010
00000200
00000000
00000301
00000000
00000010
00000000
,
00001001
00000000
00000000
00001100
00000000
00000000
00011000
00000000
01010000
00000000
00000000
10010000
00000000
00000000
10100000
00000000
,
02200000
00000000
00000000
03300000
,
10000000
00000000
01000000
00000000
00010000
00000000
00001000
00000100
,
00000002
00000000
00000003
00000010
00001000
00000100
00010000
00001000
,
02000000
00000000
00000000
00000000
03000000
00000000
00020000
00000000
20030000
00000000
00000000
30200000
00000000
00000000
00320000
00000000
,
00032000
00000000
00000000
00003020
00000000
00000000
00000032
00000000
00000203
00000000
00000000
00000000
00000300
00000000
00000000
00000000
,
00000001
00000000
00000100
00000000
00001000
00000000
00010000
01000000
,
20000000
00000000
30000000
00100000
00010000
01000000
00001000
00010000
,
00002000
00000000
00000000
00000000
00003000
00000000
00020000
00000000
00030020
00000000
00000000
00000230
00000000
00000000
00000302
00000000
,
00002003
00003200
00020300
00032000
,
00003000
00000000
00010000
00000000
00010000
00000000
00001000
00000000
00001000
00000000
00100000
00010000
00000000
00000000
10010000
00000000
,
10000000
00000000
00000000
00100000
00000000
00000000
01000000
00000000
00010000
00000000
00000000
00100000
00000000
00000000
00001000
00000000
,
00010000
00000000
00000000
00000010
00000000
00000000
00001000
00000000
00000001
00000000
00000000
00000100
00000000
00000000
00000001
00000000
,
00000001
00000000
00000100
00000000
00001000
00000000
00010000
00001000
00000000
00000000
00100000
00000000
00010000
00000000
10000000
00010000
,
00000000
10000000
00100000
01000000
00010000
00100000
00001000
00010000
,
00001000
00000000
00000000
00010000
00000000
00000000
00011000
00000000
00000010
00000000
00000000
00001000
00000000
00000000
00001010
00000000
,
00000001
00000000
00000000
00000100
00000000
00000000
00000101
00000000
00000010
00000000
00000000
00001000
00000000
00000000
00001010
00000000
,
00000001
00000000
00000100
00000000
00001000
00000000
00010000
00001000
00000000
00000000
00100000
00000000
00010000
00000000
10000000
00010000
,
00000000
00000000
01000000
00000000
00010000
00000000
10000000
00000000
10010000
00000000
00000000
01010000
00000000
00000000
00011000
00000000
,
00001100
00000010
00001000
00000010
,
00000100
00000000
00000000
00000001
00000000
00000000
00001000
00000000
00000100
00000000
00000000
00010000
00000000
00000000
00001000
00000000
,
00001000
00000000
00000000
00000000
,
00000000
00000000
00000000
00000000
;
