
//----- song ID: dots -----//
#TITLE:District of the Shadows;
#ARTIST:DJ Noriken;
#BANNER:District of the Shadows.png;
#BACKGROUND:District of the Shadows-bg.png;
#CDTITLE:./CDTitles/DDR A20.png;
#MUSIC:District of the Shadows.ogg;
#SAMPLESTART:69.985;
#SAMPLELENGTH:15;
#BPMS:0=150;
#NOTES:
     dance-single:
     :
     Beginner:
     3:
     :
0000
0000
0000
0000
,
0000
0000
0000
0000
,
0000
0000
0000
0000
,
0000
0000
0000
0000
,
0000
0000
0000
0000
,
0000
0000
0000
0000
,
0000
0000
0000
0000
,
0000
0000
0000
0000
,
0000
0000
0000
0000
,
0000
0000
0000
0000
,
1000
0000
0000
0000
,
1000
0000
0000
0000
,
0100
0000
0000
0000
,
0100
0000
0000
0000
,
0001
0000
0000
0000
,
0001
0000
0000
0000
,
0100
0000
0000
0000
,
0200
0000
0300
0000
,
0100
0000
0100
0000
,
0100
0000
0000
0000
,
0001
0000
0001
0000
,
0001
0000
0000
0000
,
0100
0000
0100
0000
,
0100
0000
0000
0000
,
0001
0000
0001
0000
,
0001
0000
0000
0000
,
1000
0000
1000
0000
,
1000
0000
0000
0000
,
0100
0000
0100
0000
,
0100
0000
0000
0000
,
1000
0000
1000
0000
,
1000
0000
0000
0000
,
0100
0000
0100
0000
,
0100
0000
0000
0000
,
0001
0001
0001
0000
,
0001
0000
0000
0000
,
0010
0010
0010
0000
,
0010
0000
0000
0000
,
1000
1000
1000
0000
,
1000
0000
0000
0000
,
0100
0100
0100
0000
,
0100
0000
0000
0000
,
1001
0000
0000
0000
,
0000
0000
0000
0000
,
0001
0000
0100
0000
,
0001
0000
0000
0000
,
0001
0000
0100
0000
,
0001
0000
0000
0000
,
1000
0000
0100
0000
,
1000
0000
0000
0000
,
1000
0000
0100
0000
,
1000
0000
0000
0000
,
0001
0000
0010
0000
,
0001
0000
0010
0000
,
0010
0010
0010
0000
,
0010
0000
0000
0000
,
1000
1000
1000
0000
,
0100
0100
0100
0000
,
1000
1000
0100
0100
,
1000
0000
0000
0000
,
0001
0001
0001
0000
,
0100
0100
0100
0000
,
0001
0001
0100
0100
,
0001
0000
0000
0000
,
0001
0001
0001
0000
,
0010
0010
0010
0000
,
0001
0010
0001
0000
,
0010
0000
0000
0000
,
1000
1000
1000
0000
,
0010
0010
0010
0000
,
1000
0010
1000
0000
,
2002
0000
0000
3003
,
0000
0000
0000
0000
;
#NOTES:
     dance-single:
     :
     Easy:
     6:
     :
0000
0000
0000
0000
,
0000
0000
0000
0000
,
0000
0000
0000
0000
,
0000
0000
0000
0000
,
0000
0000
0000
0000
,
0000
0000
0000
0000
,
0001
0001
1000
0000
,
0001
1000
0001
0000
,
1000
1000
0001
0001
,
1000
0001
1000
0000
,
0010
1000
0100
0000
,
0010
1000
0100
0000
,
0010
0001
0100
0000
,
0010
0001
0100
0000
,
0020
0000
0000
0000
,
0000
0000
0000
0000
,
0130
0100
0010
0010
,
1001
0000
0000
0000
,
0001
0001
1000
1000
,
0001
0100
1000
0100
,
0001
0001
1000
1000
,
0001
0010
1000
0000
,
1000
1000
0001
0001
,
1000
0010
0001
0010
,
1000
1000
0001
0001
,
1000
0100
0001
0000
,
0010
0001
0100
0001
,
0010
1000
0100
1000
,
0010
0001
0100
0001
,
0010
1000
0100
0000
,
0100
1000
0010
1000
,
0100
0001
0010
0001
,
0100
1000
0010
1000
,
0100
0000
0110
0110
,
1001
0000
0011
0000
,
0101
0000
0110
0000
,
1001
0000
1010
0000
,
1100
0000
0110
0000
,
0001
0000
0001
0000
0001
0001
0001
0000
,
1000
0000
1000
0000
1000
1000
1000
0000
,
0010
0010
0010
0000
0100
0100
0100
0000
,
0110
0000
0000
0000
,
1001
0000
0000
0000
,
0000
0000
0000
0000
,
0001
0000
1000
0000
0001
0010
0000
0000
,
0100
0100
0100
0000
,
1000
0000
0001
0000
1000
0010
0000
0000
,
0100
0010
1000
0001
,
1000
0000
0100
0000
0010
0001
0000
0000
,
0010
0100
1000
0000
,
0001
0000
0100
0000
0010
1000
0000
0000
,
0010
0100
0001
0000
,
0010
0100
0010
0100
,
0010
0100
0010
0100
,
0010
0010
0010
0000
0100
0100
0100
0000
,
0110
0000
1001
1001
,
0001
0000
1000
0000
0100
0010
0000
0000
,
0001
1000
0010
0100
,
0001
0010
0100
1000
,
0100
0000
0010
0000
0001
0010
0001
0000
,
1000
0000
0001
0000
0100
0001
0000
0000
,
0010
0100
1000
0001
,
0100
0010
0100
0001
,
1000
0100
1000
0000
0001
0000
1001
0000
,
0000
0000
0100
0000
0010
0010
0010
0010
,
0000
1000
0001
1001
,
0100
0001
0010
0001
,
0100
0010
1000
0100
,
1000
0001
1000
0000
0001
0000
0010
0000
,
0100
0001
0010
0100
,
1000
0000
0000
0001
0000
0000
0100
0000
,
0000
0010
0110
1001
,
0000
0000
0000
0000
;
#NOTES:
     dance-single:
     :
     Medium:
     12:
     :
0000
0000
0000
0000
,
0000
0000
0000
0000
,
0000
0000
0000
0000
,
0000
0000
0000
0000
,
0000
0000
0000
0000
,
0000
0000
0000
0000
,
0001
1000
0001
0000
1000
0100
0000
0100
,
0010
0000
0001
0100
0000
1000
0100
0000
,
0010
1000
0100
0000
0010
0001
0100
0100
,
0000
0010
0100
0010
0000
0010
0100
0000
,
2001
0001
0100
0100
,
0001
0100
3001
0000
,
1002
1000
0100
0100
,
1000
0100
1003
0000
,
0010
0011
0010
1010
,
0100
0101
0100
1100
,
0010
1000
0010
1000
0001
0100
0001
0100
,
0001
0000
0110
1001
,
1000
0100
0001
0100
1000
0100
0001
0100
,
1000
0100
0001
0100
1000
0000
1001
0000
,
0001
0100
1000
0100
0001
0100
1000
0100
,
0001
0100
1000
0100
0001
0000
1001
0000
,
0010
0001
0100
0001
0010
0001
0100
0001
,
0010
0001
0100
0001
0010
0000
0110
0000
,
0100
1000
0010
1000
0100
1000
0010
1000
,
0100
1000
0010
1000
0100
0000
0110
0000
,
0010
0001
1000
0100
0010
0001
1000
0100
,
0010
0100
1000
0001
0010
0100
1000
0000
,
0001
0100
0010
1000
0001
0100
0010
1000
,
0010
0100
0001
1000
0010
0100
0001
0000
,
1000
0100
0010
0001
1000
0100
0010
0001
,
0010
0100
1000
0001
0010
0100
1000
0000
,
0010
1000
0001
0100
0010
1000
0001
0100
,
0020
0000
0100
0130
,
1010
0100
1010
0100
,
0011
1000
0011
0110
,
1100
0001
1100
0001
,
0101
0010
0101
1001
,
0011
0000
0000
0000
1100
0000
0000
0000
0001
0000
0000
0001
0000
0000
0001
0000
,
0101
0000
0000
0000
1010
0000
0000
0000
0100
0000
0000
0100
0000
0000
0100
0000
,
1100
0000
0000
0000
0011
0000
0000
0000
1000
0000
0000
1000
0000
0000
1000
0000
,
0001
0100
0001
0100
0010
1000
0010
0000
,
2002
0000
0000
0000
,
0000
0000
0000
3003
,
1000
0001
1000
0000
0001
0010
0000
0010
,
0100
0000
1000
0010
0000
0001
0010
0000
,
0100
0001
0010
0000
0100
1000
0010
0010
,
0000
0100
0010
0100
0000
0100
0010
0000
,
0001
1000
0001
0000
0100
0010
0000
0010
,
0100
0000
0001
0010
0000
0001
0010
0000
,
0100
1000
0010
0000
0100
1000
0010
0100
,
0000
0100
0010
0100
0000
0100
0010
0000
,
1000
0000
0100
0000
1000
0000
0100
0000
0010
0000
0000
0010
0000
0000
0010
0000
,
0001
0000
0100
0000
0001
0000
0100
0000
0010
0000
0000
0010
0000
0000
0010
0000
,
1000
0001
0100
0000
0001
1000
0100
0010
,
0110
0000
0000
0000
1001
0000
0001
0001
,
1000
0010
1000
0010
0100
0100
0000
0001
,
1000
0000
0001
0010
0000
0001
0100
0000
,
0001
0010
1000
0010
0001
0100
0010
1000
,
0000
0000
1000
0000
0010
0000
0001
0000
0010
0000
0000
1000
0000
0000
0001
0000
,
1000
0100
1000
0100
0010
0010
0000
0001
,
0100
0000
0001
0010
0000
0010
0100
0000
,
1000
0010
0001
0010
1000
0100
0010
0001
,
0000
0001
0010
0100
1000
0000
1001
0000
,
0000
0100
0100
0100
0010
0010
0010
0010
,
0000
0001
1000
0001
0000
0100
0100
0000
,
0001
0010
0100
0010
0001
0010
0100
0200
,
0000
0010
0010
0310
0000
0110
0110
0000
,
0000
1001
1001
0000
0100
0010
1000
0100
,
0000
0010
0100
1000
0100
0010
0100
0000
,
1000
1000
0010
0010
0100
0100
0001
0001
,
0000
1000
0100
0010
0000
0110
1001
0000
,
0000
0000
0000
0000
;
#NOTES:
     dance-single:
     :
     Hard:
     16:
     :
0000
0000
0000
0000
,
0000
0000
0000
0000
,
0000
0000
0000
0000
,
0000
0000
0000
0000
,
0000
0000
0000
0000
,
0000
0000
0000
0000
,
0010
0000
0100
0000
0010
0000
0100
0000
0001
0000
0001
0000
0000
0000
1000
0100
,
0010
0001
1000
1000
0000
0010
0010
0000
,
1000
0000
0100
0000
0010
0000
0001
0000
1000
0100
1000
0100
0010
0001
0010
0001
,
1000
0001
0100
0100
0000
0010
0010
0000
,
1000
0000
0010
0000
0200
0000
0000
0000
1300
0000
0000
1000
0100
0000
0010
0000
,
1000
0000
0100
0000
0020
0000
0000
0000
1030
0000
0000
1000
0010
0000
0010
0000
,
0001
0000
0100
0000
0020
0000
0000
0000
0031
0000
0000
0001
0010
0000
0100
0000
,
0001
0000
0010
0000
0200
0000
0000
0000
0301
0000
0000
0001
0100
0000
0100
0000
,
0010
0110
0001
1001
,
0001
0100
0010
1000
0001
0010
0100
1000
,
0100
0000
0010
0000
0001
0000
1000
0000
0010
0100
0010
0100
0010
0100
0010
0100
,
0010
0000
0110
0110
,
1001
0000
0001
0100
0001
0000
0100
0010
0100
0000
0010
1000
0010
0000
1000
0100
,
1000
0000
0100
0010
0100
0000
0010
0001
0010
0000
0001
1000
0001
0000
0000
0000
,
1001
0000
1000
0010
1000
0000
0010
0100
0010
0000
0100
0001
0100
0000
0001
0010
,
0001
0000
0010
0100
0010
0000
0100
1000
0100
0000
1000
0001
1000
0000
0000
0000
,
0110
0000
0010
0001
0010
0000
0001
1000
0001
0000
1000
0100
1000
0000
0010
1000
,
0010
0000
0100
0010
0100
0000
0001
0100
0001
0000
1000
0001
1000
0000
0000
0000
,
0110
0000
0100
1000
0100
0000
1000
0001
1000
0000
0001
0010
0001
0000
0100
0001
,
0100
0000
0010
0100
0010
0000
1000
0010
1000
0000
0001
1000
0001
0000
0000
0000
,
0000
0001
0100
0010
0000
1000
0010
0100
0000
0001
0010
0100
0000
1000
0100
0010
,
0000
0001
0100
0010
0000
1000
0100
0010
0000
0001
1000
0001
1000
0000
0000
0000
,
0000
1000
0010
0100
0000
0001
0100
0010
0000
1000
0100
0010
0000
0001
0010
0100
,
0000
1000
0010
0100
0000
0001
0010
0100
0000
1000
0001
1000
0001
0000
0000
0000
,
0000
0001
1000
0010
0000
0100
0001
1000
0000
1000
0001
0010
0000
0100
1000
0001
,
0000
0001
0100
0010
0000
1000
0010
0100
0000
0001
0010
0100
1000
0000
0000
0000
,
0000
0001
0010
0100
0000
1000
0010
0100
0000
0001
0010
0100
0000
1000
0010
0100
,
0001
0000
0000
0001
0000
0000
0100
0000
0000
0100
0000
0000
0100
0000
0000
0000
0000
0000
1001
0000
0000
0001
1000
0001
,
1000
0000
0000
0001
0100
0000
0100
0010
1000
0000
0000
1000
0100
0000
0100
0010
,
0001
0000
0000
0001
0100
0000
0100
1000
0100
0000
0000
0100
0001
0000
0000
0000
,
1000
0000
0000
0001
0010
0000
0010
0100
1000
0000
0000
1000
0010
0000
0010
0100
,
0001
0000
0000
0001
0010
0000
0010
1000
0010
0000
0000
0010
0001
0000
0000
0000
,
1000
0000
0100
0010
0100
0000
0001
0100
0010
0100
0000
0010
0100
0000
1000
0000
,
0001
0000
0100
0010
0100
0000
1000
0100
0010
0100
0000
0010
0100
0000
0001
0000
,
1000
0000
0010
0100
0010
0000
0001
0010
0100
0010
0000
0100
0010
0000
1000
0100
,
1000
0000
0000
0001
0010
0001
0010
0000
0000
0100
1000
0100
1000
0000
0000
0001
1000
0001
1000
0000
0000
0000
0000
0000
,
2002
0000
0000
0000
,
0000
0000
0000
3003
,
0020
0000
0000
0000
,
0230
0000
0000
0000
,
0302
0000
0000
0000
,
2000
0000
0000
3003
,
0001
0001
0100
0100
,
1000
1000
0100
0100
,
0001
0010
1000
0010
,
0001
0100
1000
0100
,
0001
0000
1000
0000
0100
0000
1000
0000
0010
0100
1000
0100
0001
0000
1000
0000
,
0100
0000
0010
0000
0001
0000
1000
0000
0100
0010
1000
0010
0001
0000
1000
0000
,
0001
0100
0010
0000
1000
0100
0010
0000
0001
0010
0100
1000
0001
0010
0100
1000
,
0001
0000
0000
0000
0200
0000
0310
0010
,
0110
0000
0001
0000
0101
0000
0001
0000
1001
0000
0100
0000
1000
0000
0010
0100
,
0010
1000
1100
0010
0001
0100
1001
0000
,
0101
0100
1100
0100
0101
0010
1010
0010
,
0001
0000
1000
0100
1000
0000
0001
0000
0100
0000
0010
0100
0010
0000
1000
0000
,
1001
0000
0100
0000
0110
0000
0001
0000
0011
0000
1000
0000
0100
0000
1000
0010
,
1000
0001
0011
0100
1000
0001
1001
0100
,
1010
0010
0011
0010
1010
0100
0101
1001
,
0100
0000
0001
0010
0100
0000
1000
0000
0000
0000
0010
0000
1001
0000
0000
0000
,
0000
0000
1000
0100
0110
0000
1001
0000
0011
0000
1001
0000
1100
0000
0110
0000
,
0000
0000
0001
0100
0001
0000
0110
0000
0000
0000
0100
0010
1001
0000
0000
0000
,
0101
0100
1010
0010
1100
1000
0011
0001
,
0101
0000
1000
0010
1000
0001
0010
0100
1000
0100
0001
0100
1000
0100
0001
0100
,
0000
0000
1000
0100
0011
0000
0100
0000
0110
0000
1010
0000
0101
0000
0100
0001
,
0100
0000
1000
0000
0010
0000
0110
0000
0000
0000
0001
0100
1000
0000
0001
0010
,
1000
0100
0010
0100
1000
0000
0001
0100
0010
0100
0001
0000
1001
0000
0100
0000
,
1001
0000
0001
0100
0010
1000
0100
0000
0010
0000
0110
0000
1001
0000
0000
0000
,
0000
0000
0000
0000
;
#NOTES:
     dance-double:
     :
     Easy:
     7:
     :
00000000
00000000
00000000
00000000
,
00000000
00000000
00000000
00000000
,
00000000
00000000
00000000
00000000
,
00000000
00000000
00000000
00000000
,
00000000
00000000
00000000
00000000
,
00000000
00000000
00000000
00000000
,
10000000
00100000
10000000
00000000
,
00010000
01000000
00010000
00000000
,
01000000
00001000
01000000
00000000
,
00001000
00010000
00001000
00000000
,
00010000
00000100
00010000
00000000
,
00000100
00001000
00000100
00000000
,
00001000
00000010
00001000
00000000
,
00000001
00001000
00000001
00000000
,
00002002
00000000
00000000
00000000
,
00003003
00000000
00000000
00000000
,
00000002
00000003
00002000
00003000
,
00001001
00000000
00000000
00000000
,
00000001
00000100
00000001
00000100
,
00000010
00001000
00000010
00000000
,
00010000
00001000
00010000
00001000
,
01000000
00001000
01000000
00000000
,
00010000
01000000
00010000
01000000
,
00100000
10000000
00100000
00000000
,
10000000
01000000
10000000
01000000
,
00100000
00001000
00100000
00000000
,
00001000
00100000
00010000
01000000
,
00100000
10000000
01000000
00100000
,
00001000
00010000
00000100
00001000
,
00000001
00000100
00000010
00000100
,
00000010
00001000
00000001
00000100
,
00000010
00010000
00001000
01000000
,
00010000
10000000
01000000
00100000
,
00010000
00000000
00000000
00000000
,
10100000
00000000
01010000
00000000
,
00011000
00000000
00001100
00000000
,
00000011
00000000
00000101
00000000
,
00001100
00000000
00011000
00000000
,
00100000
00010000
10000000
01000000
,
00100000
00000000
00001000
00000000
00010000
00010000
00010000
00000000
,
00000100
00000010
00000001
00001000
,
00000100
00000000
00010000
00000000
00001000
00001000
00001000
00000000
,
00011000
00000000
00000000
00000000
,
00000000
00000000
00000000
00000000
,
10000000
00000000
00100000
00000000
01000000
00100000
00000000
00000000
,
10000000
01000000
00010000
00000000
,
00001000
00000000
00100000
00000000
00001000
00010000
00000000
00000000
,
00000100
00000010
00000001
00000000
,
00000001
00000000
00000100
00000000
00000010
00000100
00000000
00000000
,
00000001
00000010
00001000
00000000
,
00010000
00000000
00000100
00000000
00010000
00001000
00000000
00000000
,
00100000
01000000
10000000
00000000
,
00100000
01000000
00100000
00010000
,
00001000
00010000
00001000
00010000
,
00001000
00001000
00001000
00000000
00010000
00010000
00010000
00000000
,
00011000
00000000
00000000
00000000
,
00000001
00000100
00001000
00000100
,
00000010
00000000
00010000
00000000
00001000
00010000
00001000
00000000
,
00010000
00001000
01000000
00010000
,
10000000
00000000
01000000
00000000
00100000
00010000
00100000
00000000
,
00010000
10000000
00100000
00010000
,
00001000
00000000
00000100
00000000
00000010
00001000
00000010
00000000
,
00000100
00000001
00000010
00001000
,
00010000
00000000
01000000
00000000
10000000
01000000
10000000
00000000
,
00000000
00010000
00010000
00000000
10000000
10000000
00000000
00010000
,
00000000
01000000
00100000
10010000
,
01000000
00100000
00010000
00001000
,
00010000
01000000
00100000
00001000
,
00010000
00001000
00000100
00000010
,
00001000
00000100
00000010
00001000
,
00010000
00000000
00000000
00001000
00000000
00000000
00100000
00000000
,
00000000
01000000
10000000
10010000
,
00000000
00000000
00000000
00000000
;
#NOTES:
     dance-double:
     :
     Medium:
     12:
     :
00000000
00000000
00000000
00000000
,
00000000
00000000
00000000
00000000
,
00000000
00000000
00000000
00000000
,
00000000
00000000
00000000
00000000
,
00000000
00000000
00000000
00000000
,
00000000
00000000
00000000
00000000
,
00000001
00001000
00000001
00000000
00000001
00000100
00000000
00000100
,
00001000
00000000
00010000
00001000
00000000
00000100
00001000
00000000
,
00000001
00000010
00001000
00000000
00010000
00001000
00010000
00001000
,
00000000
01000000
00010000
01000000
00000000
01000000
00100000
00000000
,
10000000
01000000
00010000
01000000
00100000
00000000
00100000
00000000
,
00001000
00010000
00000100
00001000
00000010
00000000
00000010
00000000
,
00001000
00000100
00000001
00000100
00000010
00000000
00000010
00000000
,
00000001
00000100
00000010
00010000
00001000
00000000
00001000
00000000
,
00100000
00010000
00100000
00000000
00100000
10000000
00100000
00000000
,
01000000
00010000
01000000
00000000
01000000
10000000
01000000
00000000
,
00100000
10000000
01000000
00010000
01000000
10000000
00100000
00010000
,
00001000
00000000
00000110
00000110
,
00000100
00000010
00010000
00001000
00000100
00000010
00010000
00001000
,
00000100
00000010
00010000
00001000
00000100
00000000
00000100
00000000
,
00000010
00010000
00000100
00001000
00000010
00010000
00000100
00001000
,
00000010
00010000
00000100
00001000
00000100
00000000
00010000
00000000
,
00001000
00100000
00010000
01000000
00001000
00100000
00010000
01000000
,
00001000
00100000
00010000
01000000
00001000
00100000
00010000
00000000
,
01000000
00100000
00010000
00001000
01000000
00100000
00010000
00001000
,
01000000
00100000
00010000
00001000
01000000
00000000
01000000
00000000
,
00100000
10000000
00010000
01000000
00001000
00010000
00001000
01000000
,
00100000
10000000
00010000
01000000
00001000
00010000
00001000
00000000
,
00010000
00000100
00001000
00000001
00000010
00000100
00001000
00000100
,
00010000
00000100
00001000
00000001
00000010
00000100
00001000
00000000
,
00000001
00000100
00000010
00001000
00000100
00010000
00001000
00100000
,
00010000
01000000
00100000
10000000
00010000
00100000
01000000
00000000
,
10000000
00100000
01000000
00001000
00010000
00000100
00001000
00000010
,
00000200
00000000
00000010
00000310
,
00001010
00001010
00000011
00000011
,
00001100
00001100
00011000
00011000
,
00110000
00110000
01010000
01010000
,
10100000
10100000
01100000
01100000
,
10000000
00000000
01000000
00000000
00100000
00000000
00001000
00000000
00010000
00000000
00000000
00000100
00000000
00000000
00000010
00000000
,
00000001
00000000
00000100
00000000
00000010
00000000
00010000
00000000
00001000
00000000
00000000
01000000
00000000
00000000
00100000
00000000
,
10000000
00000000
01000000
00000000
00010000
00000000
00001000
00000000
00000010
00000000
00000000
00000010
00000000
00000000
00000010
00000000
,
00000001
00000100
00000001
00000100
00001000
00010000
00001000
00000000
,
00022000
00000000
00000000
00000000
,
00000000
00000000
00000000
00033000
,
00010000
00100000
00010000
00000000
00010000
00100000
00000000
00100000
,
10000000
00000000
01000000
00010000
00000000
01000000
10000000
00000000
,
00100000
00010000
00001000
00000000
00000100
00000001
00000010
00000001
,
00000000
00000001
00000100
00001000
00000000
00010000
00001000
00000000
,
00001000
00000100
00001000
00000000
00001000
00000100
00000000
00000100
,
00000001
00000000
00000010
00001000
00000000
00000010
00000001
00000000
,
00000100
00001000
00010000
00000000
00100000
10000000
01000000
10000000
,
00000000
10000000
00100000
00010000
00000000
00001000
00010000
00000000
,
00001000
00000000
00000010
00000000
00000001
00000000
00000010
00000000
00001000
00000000
00000000
00001000
00000000
00000000
00001000
00000000
,
00010000
00000000
01000000
00000000
10000000
00000000
01000000
00000000
00010000
00000000
00000000
00010000
00000000
00000000
00010000
00000000
,
00001000
00000000
00000100
00000000
00000001
00000000
00000100
00000000
00001000
00000000
00000000
00001000
00000000
00000000
00001000
00000000
,
00010000
00100000
10000000
00100000
01100000
00000000
01100000
00000000
,
10000000
10000000
00100000
00100000
01000000
01000000
00000000
00010000
,
00010000
00000000
00100000
00100000
00000000
00001000
00001000
00000000
,
00010000
00010000
00000100
00000100
00000010
00000010
00000001
00000001
,
00000000
00000001
00000100
00000100
00000000
00000010
00000100
00000000
,
00000001
00000001
00000100
00000010
00001000
00001000
00000000
00000100
,
00000100
00000000
00010000
00010000
00000000
00001000
00001000
00000000
,
00100000
00100000
00010000
00010000
10000000
01000000
00100000
00010000
,
00000000
00100000
00100000
01000000
00000000
01000000
10010000
00000000
,
00000000
10000000
01000000
10000000
01000000
00010000
00001000
00000010
,
00000000
00001000
00010000
01000000
00000000
00010000
00001000
00000000
,
00000100
00001000
00010000
00001000
00000100
00001000
00010000
00001000
,
00000000
00001000
00010000
00001000
00000000
00010000
00010000
00000000
,
00000000
00001000
00001000
00000000
00100000
00010000
10000000
01000000
,
00000000
00010000
00001000
00100000
00001000
00010000
00000100
00000000
,
00000010
00000001
00000100
00001000
00010000
00001000
01000000
00100000
,
00000000
10000000
01000000
00100000
00000000
00001000
00011000
00000000
,
00000000
00000000
00000000
00000000
;
#NOTES:
     dance-double:
     :
     Hard:
     16:
     :
00000000
00000000
00000000
00000000
,
00000000
00000000
00000000
00000000
,
00000000
00000000
00000000
00000000
,
00000000
00000000
00000000
00000000
,
00000000
00000000
00000000
00000000
,
00000000
00000000
00000000
00000000
,
00000001
00000010
00000001
00000010
00000100
00001000
00000010
00000100
,
00001000
00010000
00001000
00000100
00000010
00010000
00011000
00000000
,
00001000
00001000
00100000
00100000
00010000
00010000
10000000
10000000
,
00100000
01000000
10000000
01000000
00000000
00100000
01100000
00000000
,
00100000
00000000
10000000
00000000
01000000
00000000
00010000
00000000
10000000
00000000
00000000
10000000
00000000
00000000
10000000
00000000
,
00100000
00000000
00001000
00000000
00010000
00000000
00000100
00000000
00000010
00000000
00000000
00000010
00000000
00000000
00000010
00000000
,
00000100
00000000
00001000
00000000
00000010
00000000
00000001
00000000
00001000
00000000
00000000
00001000
00000000
00000000
00001000
00000000
,
00000100
00000000
00000010
00000000
00010000
00000000
00001000
00000000
01000000
00000000
00000000
01000000
00000000
00000000
01000000
00000000
,
00100000
01100000
10000000
10010000
,
00100000
01000000
00001000
00010000
00000100
00001000
00000010
00000100
,
00001000
00000000
00010000
00000000
00100000
00000000
00010000
00000000
00001000
00000100
00001000
00000000
00010000
00100000
00010000
00000000
,
00011000
00000000
01010000
01100000
,
10010000
00000000
10000000
00100000
10000000
00000000
00100000
00010000
00100000
00000000
00010000
00001000
00010000
00000000
00001000
00000100
,
00001000
00000000
00000100
00000001
00000100
00000000
00000001
00000010
00000001
00000000
00000010
00001000
00000010
00000000
00000000
00000000
,
00001001
00000000
00000001
00000100
00000001
00000000
00000100
00001000
00000100
00000000
00001000
00010000
00001000
00000000
00010000
00100000
,
00010000
00000000
00100000
10000000
00100000
00000000
10000000
01000000
10000000
00000000
01000000
00010000
01000000
00000000
00000000
00000000
,
11000000
00000000
10000000
01000000
00100000
00000000
01000000
00100000
00001000
00000000
01000000
00001000
00010000
00000000
00001000
00010000
,
00000010
00000000
00010000
00000010
00001000
00000000
00000010
00001000
00000001
00000000
00001000
00000001
00000100
00000000
00000000
00000000
,
00000011
00000000
00000001
00000010
00000100
00000000
00000010
00000100
00010000
00000000
00000010
00010000
00001000
00000000
00010000
00001000
,
01000000
00000000
00001000
01000000
00010000
00000000
01000000
00010000
10000000
00000000
00010000
10000000
00100000
00000000
00000000
00000000
,
00000000
10000000
01000000
00100000
00000000
00001000
00010000
01000000
00000000
10000000
00100000
01000000
00000000
00001000
00010000
00100000
,
00000000
10000000
01000000
00100000
00000000
00001000
00010000
00001000
00000000
00010000
00000100
00000010
00000001
00000000
00000000
00000000
,
00000000
00000001
00000010
00000100
00000000
00010000
00001000
00000010
00000000
00000001
00000100
00000010
00000000
00010000
00001000
00000100
,
00000000
00000001
00000010
00000100
00000000
00010000
00001000
00010000
00000000
00001000
00100000
01000000
10000000
00000000
00000000
00000000
,
00000000
10000000
01000000
00010000
00000000
00001000
00000010
00000001
00000000
00000001
00000100
00001000
00000000
00010000
00100000
10000000
,
00000000
10000000
01000000
00010000
00000000
00001000
00000010
00000001
00000000
00000001
00000100
00000010
00001000
00000000
00000000
00000000
,
00000000
00000001
00000010
00001000
00000000
00010000
01000000
10000000
00000000
10000000
00100000
00010000
00000000
00001000
00000100
00000001
,
00000010
00000000
00000000
00001000
00000000
00000000
00010000
00000000
00000000
01000000
00000000
00000000
10000000
00000000
00000000
00000000
00000000
00000000
10010000
00000000
00000000
10000000
00010000
10000000
,
00010000
00000000
00000000
10000000
00100000
00000000
00100000
01000000
00001000
00000000
00000000
00001000
00010000
00000000
00010000
00000010
,
00000100
00000000
00000000
00000100
00000001
00000000
00000001
00000010
00001000
00000000
00000000
00000010
00000001
00000000
00000000
00000000
,
00001000
00000000
00000000
00000001
00000100
00000000
00000100
00000010
00010000
00000000
00000000
00010000
00001000
00000000
00001000
01000000
,
00100000
00000000
00000000
00100000
10000000
00000000
10000000
01000000
00010000
00000000
00000000
01000000
10000000
00000000
00000000
00000000
,
10000000
00000000
01000000
00100000
01000000
00000000
00010000
00000000
00011000
00000000
00000000
00001100
00000000
00000000
00000011
00000000
,
00000001
00000000
00000100
00000010
00000100
00000000
00001000
00000000
00011000
00000000
00000000
01010000
00000000
00000000
10100000
00000000
,
10000000
00000000
00100000
00010000
00001000
00000000
00000100
00000000
00000101
00000000
00000000
00000011
00000000
00000000
00001001
00000000
,
00000100
00000000
00000000
00010000
00001000
00010000
00001000
00000000
00000000
01000000
00010000
01000000
00010000
00000000
00000000
10000000
00010000
10000000
00010000
00000000
00000000
00000000
00000000
00000000
,
20020000
00000000
00000000
00000000
,
00000000
00000000
00000000
30030000
,
00020000
00000000
00000010
00000000
,
00100000
00000000
00000000
00030000
,
00002000
00000000
00000100
00000000
,
01000000
00000000
00000000
00003000
,
00010000
00010000
01000000
01000000
,
10000000
10000000
00100000
00100000
,
00010000
00010000
00001000
00001000
,
00000100
00000100
00000001
00000000
,
00000001
00000000
00000100
00000000
00000010
00000000
00001000
00000000
00000010
00010000
00000000
00010000
00000010
00000000
00001000
00000000
,
00000100
00000000
00010000
00000000
00001000
00000000
00100000
00000000
00100000
00001000
00000000
00001000
00100000
00000000
00010000
00000000
,
10000000
00000000
01000000
00000000
00100000
00000000
00010000
00000000
00100000
00001000
00010000
00001000
01000000
00001000
00010000
00001000
,
00010000
00000000
00011000
00000100
,
00000011
00000000
00000100
00000000
00001010
00000000
00000100
00000000
00001001
00000000
00000100
00000000
00001000
00000000
00010000
00100000
,
00010000
00100000
10100000
01000000
00100000
00010000
11000000
00000000
,
01010000
00100000
01010000
00001000
01010000
00100000
11000000
00100000
,
00001000
00000000
00010000
00000000
00000100
00000000
00000010
00000000
00000100
00000000
00001000
00000010
00000100
00000000
00000001
00000000
,
00000110
00000000
00001000
00000000
00000110
00000000
00000001
00000000
00001010
00000000
00000001
00000000
00000100
00000000
00000010
00010000
,
00001000
00010000
01100000
00010000
10000000
00010000
11000000
00100000
,
00101000
00010000
01100000
00010000
00101000
00010000
01100000
00010000
,
10000000
00000000
01000000
00010000
00001000
00000000
00000010
00000000
00000000
00000000
00000100
00000000
00000110
00000000
00000000
00000000
,
00000000
00000000
00000001
00000100
00000010
00000000
00001010
00000000
00011000
00000000
01010000
00000000
11000000
00000000
10100000
00000000
,
00000000
00000000
10000000
00100000
00010000
00000000
00011000
00000000
00000000
00000000
00001000
00000100
00000001
00000000
00000000
00000000
,
00000101
00000010
00001010
00000100
00010100
00001000
00101000
00010000
,
01010000
00000000
00100000
10000000
00100000
00000000
01000000
00000000
01010000
00000000
00100000
10000000
01000000
00000000
01100000
00000000
,
00000000
00000000
10000000
00100000
01000000
00000000
01010000
00000000
00011000
00000000
00001010
00000000
00000011
00000000
00000101
00000000
,
00000000
00000000
00000001
00000100
00001000
00000000
00011000
00000000
00000000
00000000
00010000
00100000
10000000
00000000
10000000
01000000
,
00010000
01000000
00100000
00001000
00010000
00000000
00010000
00001000
00000010
00000100
00001000
00000000
00000001
00000100
00001000
00000000
,
00010000
00100000
00010000
00001000
00010000
00000000
00001000
00000000
00000000
00000000
00011000
00000000
00011000
00000000
00000000
00000000
,
00000000
00000000
00000000
00000000
;
