
//----- song ID: dehe -----//
#TITLE:Dead Heat;
#ARTIST:Maozon;
#BANNER:Dead Heat.png;
#BACKGROUND:Dead Heat-bg.png;
#CDTITLE:./CDTitles/DDR A20.png;
#MUSIC:Dead Heat.ogg;
#SAMPLESTART:26.657;
#SAMPLELENGTH:15;
#BPMS:0=177;
#NOTES:
     dance-single:
     :
     Beginner:
     4:
     :
0000
0000
0000
0000
,
0000
0000
0000
0000
,
0000
0000
0000
0000
,
0000
0000
0000
0000
,
0000
0000
0000
0000
,
0000
0000
0000
0000
,
0000
0000
0000
0000
,
0000
0000
0000
0000
,
0000
0000
0000
0000
,
0002
0000
0000
0000
,
0000
0000
0003
0000
,
0200
0000
0000
0000
,
0000
0000
0300
0000
,
0001
0000
0001
0000
,
0001
0000
0000
0000
,
1000
1000
1000
0000
,
1000
1000
1000
0000
,
0100
0100
0100
0000
,
0100
0000
0000
0000
,
0001
0000
0010
0000
,
0001
0000
0000
0000
,
0010
0000
0001
0000
,
0010
0000
0000
0000
,
1000
0000
0100
0000
,
1000
0000
0000
0000
,
0100
0000
1000
0000
,
0100
0000
0000
0000
,
1000
0000
0010
0000
,
1000
0000
0000
0000
,
0010
0000
1000
0000
,
0010
0000
0000
0000
,
0001
0000
0100
0000
,
0001
0000
0000
0000
,
0100
0000
0001
0000
,
0100
0000
0000
0000
,
0110
0000
0000
0000
,
0000
0000
0000
0000
,
1001
0000
0000
0000
,
0000
0000
0000
0000
,
0110
0000
0000
0000
,
0000
0000
0000
0000
,
2002
0000
0000
0000
,
0000
0000
0000
0000
,
3003
0000
0000
0000
,
0000
0000
0000
0000
,
0000
0000
0000
0000
,
0000
0000
0000
0000
,
1000
1000
0100
0100
,
1000
0000
0000
0000
,
0001
0001
0100
0100
,
0001
0000
0000
0000
,
0001
0001
0010
0010
,
0001
0000
0000
0000
,
0100
0000
0001
0000
,
0010
0010
0001
0000
,
0100
0000
0000
0000
,
0000
0000
0000
0000
,
1001
0000
0000
0000
,
0000
0000
0000
0000
,
1000
0000
0000
0000
,
0000
0000
0000
0000
,
1001
0000
0000
0000
,
0000
0000
0000
0000
,
1000
1000
0010
0000
,
1000
1000
0100
0000
,
1000
0010
1000
0000
,
0100
0000
0000
0000
,
0001
0001
0010
0000
,
0001
0001
0100
0000
,
0001
0010
0001
0000
,
0100
0000
0000
0000
,
1000
0100
1000
0000
,
1000
1000
1000
0000
,
0010
1000
0010
0000
,
1000
0000
0000
0000
,
0001
0100
0001
0000
,
0001
0001
0001
0000
,
0010
0001
0010
0000
,
0001
0000
0000
0000
,
1001
0000
0000
0000
,
0000
0000
0000
0000
;
#NOTES:
     dance-single:
     :
     Easy:
     6:
     :
0000
0000
0000
0000
,
0000
0000
0000
0000
,
0000
0000
0000
0000
,
0000
0000
0000
0000
,
0000
0000
0000
0000
,
0000
0000
0000
0000
,
0000
0000
0000
0000
,
0000
0000
0000
0000
,
0000
0000
0000
0000
,
2000
0000
0000
0000
,
3002
0000
0000
0003
,
0001
1000
0010
0100
,
0010
1000
0001
0010
,
0100
0010
0001
1000
,
0100
1000
0100
0100
,
0110
0000
0011
0000
,
1100
0000
1001
0000
,
1000
0100
0001
0100
,
1000
0000
0000
0000
,
0001
0001
0100
0000
,
1000
0010
0001
0010
,
1000
1000
0100
0000
,
0001
0010
1000
0010
,
0001
0001
0100
0100
,
1000
1000
0010
0010
,
0001
0100
1000
0100
,
0001
1000
0001
0000
,
1000
1000
0010
0000
,
0001
0100
1000
0100
,
0001
0001
0010
0000
,
1000
0100
0001
0100
,
1000
1000
0010
0010
,
0001
0001
0100
0100
,
1000
0010
0001
0010
,
1000
0001
1000
0000
,
0002
0000
0000
0000
,
0000
0000
0003
0000
,
0200
0000
0000
0000
,
0000
0000
0300
0000
,
0020
0000
0000
0000
,
0000
0000
0030
0000
,
2000
0000
0000
0000
,
0000
0000
0000
0000
,
3000
0000
0000
0000
,
0000
0000
0000
0000
,
0000
0000
0000
0000
,
0010
0010
0010
0000
,
1000
0100
1000
0100
,
1000
0100
1000
0000
,
0001
0100
0001
0100
,
0001
0100
0001
0000
,
1000
0010
1000
0010
,
1000
0010
1000
0000
,
0001
0010
0001
0010
,
0001
0010
0001
0000
,
1000
1000
1000
0000
,
0010
0010
0010
0000
,
0001
0001
0001
0000
,
0100
0100
0100
0000
,
1000
1000
1000
0000
,
0100
0100
0100
0000
,
0001
0001
0001
0000
,
0220
0000
0000
0330
,
0010
1000
0010
1000
,
0001
0100
0001
0100
,
0001
0010
0001
0010
,
0100
1000
0100
0000
,
1000
0001
1000
0001
,
0100
0001
0100
0001
,
1000
0010
1000
0010
,
0100
0010
0100
0000
,
0001
0010
0001
1000
,
0100
1000
0001
0100
,
0010
1000
0010
0100
,
0001
0100
0001
0000
,
1000
0010
0100
0001
,
1000
0010
0100
0001
,
1000
0100
0010
0002
,
2000
0000
0000
3003
,
1001
0000
0000
0000
,
0000
0000
0000
0000
;
#NOTES:
     dance-single:
     :
     Medium:
     10:
     :
0000
0000
0000
0000
,
0000
0000
0000
0000
,
0000
0000
0000
0000
,
0000
0000
0000
0000
,
0000
0000
0000
0000
,
0000
0000
0000
0000
,
0000
0000
0000
0000
,
0000
0000
0000
0000
,
0000
0000
0000
0000
,
1001
0000
0000
0000
,
0110
0000
0000
0011
0000
1100
0000
0000
,
1000
0100
1000
0000
0001
0010
0000
0011
,
0000
0010
0001
0000
1000
0100
1000
0000
,
0010
1000
0010
0000
0100
0001
0000
0101
,
0000
0001
0100
0000
0010
1000
0010
0000
,
1000
0001
1000
0000
0001
1000
0001
0000
,
0100
0010
0100
0000
0010
0100
0010
0000
,
1000
0100
0010
0001
1000
0100
0010
0002
,
2000
0000
0000
3003
,
0100
0000
1001
0000
0001
1000
0100
1000
,
0001
0010
0100
0100
,
0010
0000
1001
0000
1000
0001
0100
0001
,
1000
0010
0100
0100
,
0110
0000
0100
0001
0010
0000
0100
1000
,
0010
0000
0100
0001
0010
0000
0100
1000
,
0010
0000
0110
0000
0010
0001
0000
0001
,
0100
1000
0100
0000
0110
0000
0000
0000
,
0010
0000
1001
0000
0001
1000
0010
1000
,
0001
0100
0010
0010
,
0100
0000
1001
0000
1000
0001
0010
0001
,
1000
0100
0010
0010
,
0100
0000
0110
0000
0010
0001
0100
0000
,
0010
1000
0100
0000
0010
0001
0100
0000
,
0010
0000
0110
0000
0100
0001
1000
0000
,
0010
0000
0000
0010
0000
0000
0010
0000
0000
0010
0000
0000
0010
0000
0000
0000
,
0220
0000
0000
0000
,
0000
0000
0000
0330
,
2020
0000
0000
0000
,
0000
0000
0000
3030
,
0202
0000
0000
0000
,
0000
0000
0000
0303
,
2002
0000
0000
0000
,
0000
0000
0000
0000
,
3003
0000
0000
0000
,
0000
0000
0000
0000
,
0000
0000
0000
0000
,
0010
0000
0000
0100
0000
0000
0001
0000
0000
1000
0000
0000
1001
0000
0000
0000
,
0010
0000
0100
0000
0010
0000
0000
0000
1000
0000
0000
0001
0000
0000
1000
0000
,
0001
0010
0001
0000
0101
0000
1001
0000
,
0001
0000
1000
0000
0001
0000
0000
0000
0010
0000
0000
0100
0000
0000
0010
0000
,
0100
0001
0100
0000
1100
0000
0110
0000
,
1000
0000
0010
0000
0110
0000
0100
0010
,
0000
0010
0100
0000
0110
0000
1001
0000
,
1000
0000
0100
0000
1000
0000
0000
0000
0100
0000
0000
0100
0000
0000
0010
0000
,
0010
0000
0000
0001
0000
0000
0001
0000
0000
1000
0000
0000
1001
0000
0000
0000
,
0020
0000
0000
0000
0000
1000
0000
0000
,
0100
0000
0000
1000
0000
1000
0000
2030
,
0000
0000
0000
0000
,
0000
0000
0000
0000
,
3002
0000
0000
0000
0000
0010
0000
0000
,
1000
0000
0000
0100
0000
0100
0000
0023
,
0000
0000
0000
0000
,
0130
0000
0000
0220
0000
0000
0330
0000
,
0010
0000
0110
0000
1000
0001
0010
0000
,
0001
0000
1000
0100
0000
0100
1000
0000
,
0001
0000
1001
0000
0010
1000
0010
0000
,
0100
0000
1001
0000
0000
0010
1000
0010
,
1000
0000
1001
0000
0100
0010
1000
0000
,
0001
0000
1000
0100
0000
0100
1000
0000
,
0001
0000
0110
0000
0001
1000
0100
0000
,
0001
0000
0110
0000
0000
1000
0100
1000
,
0100
0000
0110
0000
0010
0001
0100
0000
,
0010
0000
1000
0100
0000
0100
0010
0000
,
0001
0000
1001
0000
1000
0001
0100
0000
,
0010
0000
1001
0000
0000
0100
0001
0100
,
0010
0010
0110
0110
,
1000
1000
1001
1001
,
1000
0010
1000
0010
0100
0001
0100
0001
,
1000
0000
0000
0100
0000
0000
0010
0000
,
1001
0000
0000
0000
,
0000
0000
0000
0000
;
#NOTES:
     dance-single:
     :
     Hard:
     14:
     :
0000
0000
0000
0000
,
0000
0000
0000
0000
,
0000
0000
0000
0000
,
0000
0000
0000
0000
,
0000
0000
0000
0000
,
0000
0000
0000
0000
,
0000
0000
0000
0000
,
0000
0000
0000
0000
,
0000
0000
0000
0000
,
2000
0000
0000
0000
,
0001
0000
0000
0100
0000
0100
3000
0000
,
0001
0000
0010
0000
0100
0000
0000
1000
0100
0000
0010
0000
0001
0000
0100
0000
,
0001
0010
0001
0000
0100
0000
0010
1000
0010
1000
0010
0000
0100
0000
0000
0000
,
0010
0000
1000
0000
0100
0000
0000
0100
0010
0000
0002
0000
0000
0000
0000
0000
,
1000
0000
0000
0100
0000
0000
0013
0000
,
0011
0011
1100
1100
,
1010
0000
1010
0000
1001
0000
0001
1000
,
0001
0010
0001
0000
1000
0100
1000
0000
0010
1000
0010
0000
0100
0001
0100
0000
,
1001
0000
0000
1001
,
0010
0000
0110
0000
0001
0010
0001
0010
,
0100
0000
1000
0100
0000
0010
0100
1000
,
0100
0000
0110
0000
1000
0010
1000
0010
,
0100
0000
0001
0100
0000
0010
0100
0001
,
0100
0000
0001
0100
1000
0000
0001
0010
,
1000
0000
0001
0100
1000
0000
0001
0010
,
1000
0000
0001
0000
0010
0000
0001
0000
1000
0000
0100
0010
0001
0000
1000
0000
,
0001
0010
0100
0000
1000
0000
0100
0010
0001
0000
1000
0000
0001
0010
0001
0010
,
0100
0000
0110
0000
1000
0010
1000
0010
,
0100
0000
0001
0100
0000
0010
0100
0001
,
0100
0000
0110
0000
0001
0010
0001
0010
,
0100
0000
1000
0100
0000
0010
0100
1000
,
0100
0000
1000
0100
0001
0000
1000
0010
,
0001
0000
1000
0100
0001
0000
1000
0010
,
0001
0000
1000
0000
0010
0000
1000
0000
0001
0000
0010
0001
0010
0000
0001
0000
,
1000
0000
0001
0100
0000
1000
0100
0000
0001
0100
0000
1000
0100
0000
0001
0000
,
1001
0000
0000
0000
0000
0001
0100
1000
,
0200
0000
0000
0010
0000
0000
0320
0000
,
0000
0000
0000
0000
0000
0001
0000
0000
,
0100
0000
0000
1000
0000
0000
0130
0000
,
0010
0000
1000
0000
0001
0000
0100
0001
0100
0000
0010
0000
1000
0000
0001
0000
,
0010
0100
0010
0000
0001
0000
1000
0100
1000
0100
1000
0000
0001
0000
1000
0000
,
0002
0000
0000
0000
0000
0100
0000
0000
,
0010
0000
0000
1000
0000
0000
0103
0000
,
0110
0000
0000
0000
,
0000
0000
0000
0000
,
0000
0000
0000
0000
,
0110
0000
0000
1010
0000
0000
0110
0000
0000
0101
0000
0000
1001
0000
0000
0000
,
1000
0000
0100
0000
0020
0000
0000
0000
0001
0000
0000
0001
0030
0000
0001
0000
,
0100
0020
0000
0000
0100
0100
0130
0000
,
0001
0000
0010
0000
0200
0000
0000
0000
1000
0000
0000
1000
0300
0000
1000
0000
,
0010
0000
0200
0000
0000
0000
0000
0000
0001
0000
0000
0001
0300
0000
0001
0000
,
1000
0000
0001
0000
1001
0000
0100
0001
,
0100
1000
0100
0000
0110
0000
1001
0000
,
0001
0000
0010
0000
0100
0000
1000
0000
0001
0000
1000
0010
0100
0000
0001
0000
,
1000
0000
0001
0100
0010
0000
1000
0000
0010
0100
0001
0000
1000
0000
0000
0000
,
1001
0000
0000
0000
0000
2000
0000
0000
,
3020
0000
0000
0032
0000
0023
0000
2030
,
0000
0000
0000
0000
,
0000
0000
0000
0000
,
0000
0000
0000
0000
0000
3200
0000
0000
,
0320
0000
0000
0230
0000
0302
0000
0203
,
0000
0000
0000
0300
,
0020
0000
0030
2002
0000
0000
3003
0000
,
0010
0000
0110
0000
0000
1000
1100
0000
,
0010
0000
0100
0000
1000
0000
0001
1000
0001
0000
1000
0000
0100
0000
0000
0000
,
0010
0000
0110
0000
0000
0001
0101
0000
,
0001
0000
0100
0000
0010
0000
1000
0001
1000
0000
0010
0000
0100
0000
0001
0000
,
1000
0000
1001
0000
0000
0100
0101
0000
,
1000
0000
0001
0000
0100
0000
0010
0100
0010
0000
0100
0000
0001
0000
0000
0000
,
1000
0000
1001
0000
0000
0010
0011
0000
,
0010
0000
0001
0000
1000
0000
0100
0010
0100
0000
1000
0000
0001
0000
0010
0000
,
0100
0000
0110
0000
0000
0010
1001
0000
,
0100
0000
0010
0000
1000
0000
0100
0001
0100
0000
1000
0000
0010
0000
0000
0000
,
0100
0000
0110
0000
0000
0100
1001
0000
,
0010
0000
0100
0000
0001
0000
0100
1000
0100
0000
0001
0000
0010
0000
0100
0000
,
1000
1000
1100
1100
,
0001
0001
0101
0101
,
0010
0001
0010
1000
0010
0100
0010
0001
,
0020
0000
0000
0001
0000
0000
1000
0000
,
0130
0000
0000
0000
,
0000
0000
0000
0000
;
#NOTES:
     dance-double:
     :
     Easy:
     6:
     :
00000000
00000000
00000000
00000000
,
00000000
00000000
00000000
00000000
,
00000000
00000000
00000000
00000000
,
00000000
00000000
00000000
00000000
,
00000000
00000000
00000000
00000000
,
00000000
00000000
00000000
00000000
,
00000000
00000000
00000000
00000000
,
00000000
00000000
00000000
00000000
,
00000000
00000000
00000000
00000000
,
00000002
00000000
00000000
00000003
,
00002000
00000000
00000000
00003000
,
00000001
00000100
00000001
00000100
,
00000010
00001000
00000010
00001000
,
00000100
00010000
00001000
00010000
,
00001000
00100000
00010000
01000000
,
01100000
00000000
10100000
00000000
,
01010000
00000000
10010000
00000000
,
10000000
00100000
01000000
00010000
,
10000000
00000000
00000000
00000000
,
10000000
01000000
10000000
00000000
,
10000000
01000000
00010000
00000000
,
00010000
00001000
00010000
00000000
,
00010000
00001000
00000010
00000000
,
00000001
00000100
00000010
00001000
,
00000100
00010000
00001000
00100000
,
00001000
00010000
00100000
01000000
,
00010000
00100000
01000000
00000000
,
10000000
00100000
10000000
00000000
,
10000000
00100000
00010000
00000000
,
00010000
00001000
00010000
00000000
,
00010000
00001000
00000100
00000000
,
00000001
00000010
00000100
00001000
,
00000010
00010000
00001000
01000000
,
00001000
00010000
01000000
00100000
,
00010000
01000000
00100000
00000000
,
20000000
00000000
00000000
00000000
,
00000000
00000000
30000000
00000000
,
00020000
00000000
00000000
00000000
,
00000000
00000000
00030000
00000000
,
00002000
00000000
00000000
00000000
,
00000000
00000000
00003000
00000000
,
00000002
00000000
00000000
00000000
,
00000000
00000000
00000000
00000000
,
00000003
00000000
00000000
00000000
,
00000000
00000000
00000000
00000000
,
00000000
00000000
00000000
00000000
,
00000100
00000100
00000100
00000000
,
00000001
00000010
00000001
00000010
,
00000100
00001000
00000100
00000000
,
00001000
00000010
00001000
00000010
,
00010000
00001000
00010000
00000000
,
00001000
00100000
00001000
00100000
,
00010000
10000000
00010000
00000000
,
10000000
00100000
10000000
00100000
,
01000000
00010000
01000000
00000000
,
00200000
00000000
00000000
00000000
,
00320000
00000000
00000000
00000000
,
00032000
00000000
00000000
00000000
,
00003200
00000000
00000000
00000000
,
00002300
00000000
00000000
00000000
,
00023000
00000000
00000000
00000000
,
02030000
00000000
00000000
03000000
,
02200000
00000000
00000000
03300000
,
10000000
01000000
10000000
01000000
,
00010000
00001000
00100000
00001000
,
00010000
00000100
00010000
00000100
,
00001000
00000100
00000010
00000000
,
00000001
00000100
00000001
00000100
,
00001000
00010000
00000010
00010000
,
00001000
01000000
00001000
01000000
,
00010000
01000000
00100000
00000000
,
10000000
00100000
10000000
00100000
,
00010000
00001000
01000000
00001000
,
00010000
00000010
00010000
00000010
,
00001000
00000010
00000100
00000000
,
00000001
00000010
00000001
00000010
,
00001000
00010000
00000100
00010000
,
00001000
00100000
00001000
00100000
,
00010000
00100000
01000000
00000000
,
10010000
00000000
00000000
00000000
,
00000000
00000000
00000000
00000000
;
#NOTES:
     dance-double:
     :
     Medium:
     10:
     :
00000000
00000000
00000000
00000000
,
00000000
00000000
00000000
00000000
,
00000000
00000000
00000000
00000000
,
00000000
00000000
00000000
00000000
,
00000000
00000000
00000000
00000000
,
00000000
00000000
00000000
00000000
,
00000000
00000000
00000000
00000000
,
00000000
00000000
00000000
00000000
,
00000000
00000000
00000000
00000000
,
01100000
00000000
00000000
00000000
,
10010000
00000000
00000000
01000000
00000000
01000000
00000000
00000000
,
10000000
01000000
10000000
00000000
00100000
00010000
00000000
00110000
,
00000000
00010000
00001000
00000000
00001000
00000100
00001000
00000000
,
00000100
00000001
00000100
00000000
00000001
00000010
00000000
00000110
,
00000000
00000010
00001000
00000000
00001000
00010000
00001000
00000000
,
00010000
01000000
00010000
00000000
01000000
10000000
01000000
00000000
,
10000000
00100000
10000000
00000000
00100000
01000000
00100000
00000000
,
10000000
01000000
00100000
00001000
00010000
00000100
00000010
00000002
,
00002000
00000000
00000000
00003003
,
00000010
00000000
00001001
00000000
00000001
00000010
00000100
00010000
,
00001000
01000000
00100000
00000000
,
01000000
00000000
10010000
00000000
10000000
01000000
00100000
00001000
,
00010000
00000010
00000100
00000000
,
00000110
00000000
00000000
00000001
00000010
00000000
00000000
00000100
,
00001000
00000000
00000000
00010000
00100000
00000000
00000000
01000000
,
10000000
00000000
01100000
00000000
00010000
01000000
00000000
01000000
,
10000000
01000000
00010000
00000000
10010000
00000000
00000000
00000000
,
00100000
00000000
10010000
00000000
10000000
00100000
01000000
00001000
,
00010000
00000100
00000010
00000000
,
00000100
00000000
00001001
00000000
00000001
00000100
00000010
00010000
,
00001000
00100000
01000000
00000000
,
01100000
00000000
00000000
10000000
01000000
00000000
00000000
00100000
,
00010000
00000000
00000000
00001000
00000100
00000000
00000000
00000010
,
00000001
00000000
00000110
00000000
00001000
00000100
00000000
00000100
,
00000001
00000000
00000000
00000100
00000000
00000000
00001000
00000000
00000000
00000100
00000000
00000000
00000010
00000000
00000000
00000000
,
00000220
00000000
00000000
00000000
,
00000000
00000000
00000330
00000000
,
00022000
00000000
00000000
00000000
,
00000000
00000000
00033000
00000000
,
02200000
00000000
00000000
00000000
,
00000000
00000000
03300000
00000000
,
20020000
00000000
00000000
00000000
,
00000000
00000000
00000000
00000000
,
30030000
00000000
00000000
00000000
,
00000000
00000000
00000000
00000000
,
00000000
00000000
00000000
00000000
,
00100000
00000000
00000000
01000000
00000000
00000000
00010000
00000000
00000000
10000000
00000000
00000000
10010000
00000000
00000000
00000000
,
00100000
10000000
01000000
00010000
00001000
00000010
00000001
00000000
,
00000100
00000010
00001001
00000000
,
00000010
00000001
00000100
00001000
00010000
00100000
10000000
00000000
,
01000000
00100000
01100000
10010000
,
10000000
00000000
01000000
00000000
01100000
00000000
00100000
00001000
,
00000000
00001000
00010000
00000000
00011000
00000000
00001010
00000000
,
00001000
00000000
00000100
00000000
00000010
00000000
00000000
00000000
00000001
00000000
00000000
00000001
00000000
00000000
00000100
00000000
,
00000010
00000000
00000000
00000010
00000000
00000000
00001000
00000000
00000000
00010000
00000000
00000000
00011000
00000000
00000000
00000000
,
00020000
00000000
00000000
00000000
00000000
01000000
00000000
00000000
,
10000000
00000000
00000000
00100000
00000000
10000000
00000000
01000000
,
00000000
00000000
00000000
00000000
,
00000000
00000000
00000000
00000000
,
00032000
00000000
00000000
00000000
00000000
00000100
00000000
00000000
,
00000001
00000000
00000000
00000010
00000000
00000001
00000000
00000100
,
00000000
00000000
00000000
00000000
,
00013000
00000000
00000000
00022000
00000000
00000000
00033000
00000000
,
00010000
00000000
01010000
00000000
00100000
10000000
01000000
00000000
,
00100000
00000000
00010000
01000000
00000000
01000000
00010000
00000000
,
00001000
00000000
00011000
00000000
00001000
00010000
01000000
00000000
,
00100000
00000000
01100000
00000000
00000000
01000000
00010000
00001000
,
00010000
00000000
00001100
00000000
00000010
00000001
00000100
00000000
,
00000010
00000000
00001000
00000010
00000000
00000010
00001000
00000000
,
00010000
00000000
00011000
00000000
00010000
00000010
00000100
00000000
,
00000010
00000000
00000110
00000000
00000000
00000100
00001000
00010000
,
00001000
00000000
00011000
00000000
00001000
00010000
00100000
00000000
,
10000000
00000000
01000000
00100000
00000000
00100000
00010000
00000000
,
01000000
00000000
01100000
00000000
00100000
00010000
00001000
00000000
,
00010000
00000000
00011000
00000000
00000000
00001000
00000100
00000001
,
00000010
00000010
00000011
00000011
,
00000100
00000100
00001100
00001100
,
00000001
00000100
00001000
00000000
00010000
01000000
10000000
00000000
,
00100000
00000000
00000000
00010000
00000000
00000000
00001000
00000000
,
00011000
00000000
00000000
00000000
,
00000000
00000000
00000000
00000000
;
#NOTES:
     dance-double:
     :
     Hard:
     14:
     :
00000000
00000000
00000000
00000000
,
00000000
00000000
00000000
00000000
,
00000000
00000000
00000000
00000000
,
00000000
00000000
00000000
00000000
,
00000000
00000000
00000000
00000000
,
00000000
00000000
00000000
00000000
,
00000000
00000000
00000000
00000000
,
00000000
00000000
00000000
00000000
,
00000000
00000000
00000000
00000000
,
00011000
00000000
00000000
00000000
,
01010000
00000000
00000000
01100000
00000000
10010000
00000000
00000000
,
00100000
10000000
01000000
10000000
00100000
00010000
00001000
00000100
,
00000001
00000010
00000001
00000100
00001000
00010000
00100000
00000000
,
10000000
00000000
00010000
00000000
01000000
00000000
00000000
01000000
00100000
00000000
20000000
00000000
00000000
00000000
00000000
00000000
,
01000000
00000000
00000000
00010000
00000000
00000000
30100000
00000000
,
10100000
10100000
00110000
00110000
,
00011000
00000000
00011000
00000000
00001100
00000000
00001000
00000100
,
00000001
00000000
00001000
00000000
00000001
00000000
00000100
00000000
00001000
00000000
00000010
00000000
00010000
00001000
00010000
00000000
,
00011000
00000000
00000000
00000000
,
00100000
00000000
01100000
00000000
10000000
01000000
00010000
01000000
,
00100000
00000000
00001000
00010000
00000000
00001000
00010000
00000000
,
00000100
00000000
00000110
00000000
00000001
00000100
00001000
00000100
,
00000010
00000000
00010000
00001000
00000000
00010000
00001000
00000000
,
01000000
00000000
00100000
10000000
01000000
00000000
00100000
00010000
,
01000000
00000000
00100000
10000000
01000000
00000000
00100000
00010000
,
10000000
01000000
00010000
00001000
00000010
00000001
00000100
00001000
,
00010000
00100000
10000000
01000000
00010000
00001000
00000010
00000000
,
00000100
00000000
00000110
00000000
00000001
00000010
00001000
00000010
,
00000100
00000000
00010000
00001000
00000000
00010000
00001000
00000000
,
00100000
00000000
01100000
00000000
10000000
00100000
00010000
00100000
,
01000000
00000000
00001000
00010000
00000000
00001000
00010000
00000000
,
00000010
00000000
00000100
00000001
00000010
00000000
00000100
00001000
,
00000010
00000000
00000100
00000001
00000010
00000000
00000100
00001000
,
00000001
00000010
00001000
00010000
01000000
10000000
00100000
00010000
,
00001000
00000100
00000001
00000010
00001000
00010000
01000000
10000000
,
10010000
00000000
00000000
00000000
00000000
00010000
00000000
00100000
,
00002000
00000000
00000000
00000100
00000000
00000000
00023000
00000000
,
00000000
00000000
00000000
00000000
00000000
00000100
00000000
00000000
,
01000000
00000000
00000000
00000100
00000000
00000000
00031000
00000000
,
01000000
10000000
00100000
10000000
01000000
00010000
00001000
00000010
,
00000001
00000100
00000001
00000010
00001000
00010000
01000000
10000000
,
00200000
00000000
00000000
00000000
00000000
00010000
00000000
00000000
,
01000000
00000000
00000000
10000000
00000000
00000000
01300000
00000000
,
01100000
00000000
00000000
00000000
,
00000000
00000000
00000000
00000000
,
00000000
00000000
00000000
00000000
,
00000011
00000000
00000000
00000101
00000000
00000000
00001100
00000000
00000000
00010100
00000000
00000000
00011000
00000000
00000000
00000000
,
00001000
01000000
00100000
10000000
01000000
00001000
01000000
00100000
,
00001000
00010000
00000100
00001000
00000010
00000001
00000010
00000100
,
00000001
00000010
00010000
00000010
00000100
00010000
00001000
00100000
,
01000000
00010000
01000000
00001000
01000000
10000000
00010000
01000000
,
00100000
00000000
01000000
00000000
10010000
00000000
01000000
00100000
,
00000000
00100000
01000000
00000000
01100000
00000000
10010000
00000000
,
00100000
00000000
01000000
00000000
00001000
00000000
00010000
00000000
00001000
00000000
00100000
00010000
00100000
00000000
00001000
00000000
,
00010000
00000000
00000100
00001000
00000100
00000000
00010000
00000000
00000010
00001000
00000010
00000000
00010000
00000000
00000000
00000000
,
00011000
00000000
00000000
00000000
00000000
00100000
00000000
00000000
,
00010000
00000000
00000000
10000000
00000000
01000000
00000000
00020000
,
00000000
00000000
00000000
00000000
,
00000000
00000000
00000000
00000000
,
00030000
00000000
00000000
00000000
00000000
00000010
00000000
00000000
,
00001000
00000000
00000000
00000001
00000000
00000100
00000000
00002000
,
00000000
00000000
00000000
00000000
,
00013000
00000000
00000000
00022000
00000000
00000000
00033000
00000000
,
00001000
00100000
00010000
00000000
01000000
00100000
10000000
00000000
,
00010000
00000000
10000000
00000000
01000000
00000000
00100000
00010000
00100000
00000000
00001000
00000000
00011000
00000000
00000000
00000000
,
00010000
00000010
00001000
00000000
00000100
00000010
00000001
00000000
,
00001000
00000000
00000001
00000000
00000100
00000000
00000010
00001000
00000010
00000000
00010000
00000000
00011000
00000000
00010000
00000000
,
01000000
10000000
00100000
00000000
01000000
00100000
10000000
00000000
,
01000000
00000000
00010000
00000000
00001000
00000000
00000010
00000100
00000010
00000000
00000001
00000000
00001000
00000000
00000000
00000000
,
00000100
00000001
00000010
00000000
00000100
00000010
00000001
00000000
,
00000100
00000000
00001000
00000000
00010000
00000000
00100000
01000000
00100000
00000000
10000000
00000000
00010000
00000000
00100000
00000000
,
01000000
00000000
01100000
00000000
00000000
00100000
10010000
00000000
,
01000000
00000000
00100000
00000000
10000000
00000000
01000000
00010000
01000000
00000000
00100000
00000000
00001000
00000000
00000000
00000000
,
00000100
00000000
00000110
00000000
00000000
00000010
00001001
00000000
,
00000100
00000000
00000010
00000000
00000001
00000000
00000100
00001000
00000100
00000000
00000010
00000000
00010000
00000000
00001000
00000000
,
00010000
01000000
11000000
11000000
,
00100000
00010000
00011000
00011000
,
00001000
00100000
00001000
00010000
00001000
00000010
00000001
00000100
,
00000010
00000000
00000000
00010000
00000000
00000000
00001000
00000000
,
00011000
00000000
00000000
00000000
,
00000000
00000000
00000000
00000000
;
