
//----- song ID: dilu -----//
#TITLE:DIGITAL LUV;
#ARTIST:ハレトキドキ;
#ARTISTTRANSLIT:Yu Fujishima;
#BANNER:DIGITAL LUV.png;
#BACKGROUND:DIGITAL LUV-bg.png;
#CDTITLE:./CDTitles/DDR A20.png;
#MUSIC:DIGITAL LUV.ogg;
#SAMPLESTART:55.542;
#SAMPLELENGTH:15;
#BPMS:0=154;
#NOTES:
     dance-single:
     :
     Beginner:
     2:
     :
0000
0000
0000
0000
,
0000
0000
0000
0000
,
0000
0000
0000
0000
,
0000
0000
0000
0000
,
0000
0000
0000
0000
,
0000
0000
0000
0000
,
0000
0000
0000
0000
,
0001
0000
0001
0000
,
0001
0000
0000
0000
,
1000
0000
1000
0000
,
1000
0000
0000
0000
,
0002
0000
0000
0000
,
0003
0000
0000
0000
,
0020
0000
0000
0000
,
0030
0000
0000
0000
,
0200
0000
0000
0000
,
0300
0000
0000
0000
,
2000
0000
0000
0000
,
3000
0000
0000
0000
,
2000
0000
0000
0000
,
3000
0000
0000
0000
,
0020
0000
0000
0000
,
0030
0000
0000
0000
,
0200
0000
0000
0000
,
0300
0000
0000
0000
,
0002
0000
0000
0000
,
0003
0000
0000
0000
,
0001
0000
0001
0000
,
0100
0000
0000
0000
,
0001
0000
0001
0000
,
0010
0000
0000
0000
,
1000
0000
1000
0000
,
0010
0000
0000
0000
,
1000
0000
1000
0000
,
0100
0000
0000
0000
,
0000
0000
0000
0000
,
1000
1000
1000
0000
,
0010
0000
0100
0000
,
1000
0000
0010
0000
,
0001
0000
0000
0000
,
0001
0000
0010
0000
,
0001
0000
0100
0000
,
0001
0000
0001
0000
,
0001
0000
0000
0000
,
0001
0001
0001
0000
,
0010
0000
0100
0000
,
0001
0000
0010
0000
,
1000
0000
0000
0000
,
1000
0000
0010
0000
,
1000
0000
0100
0000
,
1000
0000
1000
0000
,
1000
0000
0000
0000
,
1001
0000
0000
0000
,
0000
0000
0000
0000
,
0001
0001
0001
0000
,
0100
0000
0010
0000
,
0001
0000
0100
0000
,
1000
1000
1000
0000
,
1000
0000
0100
0000
,
0001
0000
0100
0000
,
1000
0000
0000
0000
,
1001
0000
0000
0000
,
1000
1000
1000
0000
,
0100
0000
0010
0000
,
1000
0000
0100
0000
,
0001
0001
0001
0000
,
0001
0000
0100
0000
,
1000
0000
0100
0000
,
0001
0000
0000
0000
,
1000
0000
0000
0000
,
1001
0000
0000
0000
,
0000
0000
0000
0000
;
#NOTES:
     dance-single:
     :
     Easy:
     5:
     :
0000
0000
0000
0000
,
0000
0000
0000
0000
,
0000
0000
0000
0000
,
0000
0000
0000
0000
,
0000
0000
0000
0000
,
0000
0000
0000
0000
,
0000
0000
0000
0000
,
0001
0010
0100
0000
,
1000
0010
0100
0000
,
0001
0001
0100
0000
,
1000
1000
0100
0000
,
1000
0100
1000
0000
,
0100
0000
0010
0000
,
0001
0100
0001
0000
,
0100
0000
0010
0000
,
1000
0001
1000
0000
,
0001
0000
0010
0000
,
0100
0010
0100
0000
,
1000
0000
0001
0000
,
1000
0001
0100
0000
,
0001
0000
1000
0000
,
0001
1000
0010
0000
,
1000
0000
0001
0000
,
0001
1000
0100
0000
,
1000
0000
0001
0000
,
1000
0001
0100
0000
,
0001
0000
1000
0000
,
0001
0001
0001
0000
,
0200
0000
0300
0000
,
1000
1000
1000
0000
,
0020
0000
0030
0000
,
0001
0010
0001
0000
,
1000
0100
1000
0000
,
0001
0000
1000
0000
,
0200
0000
0300
0000
,
2002
0000
3003
0000
,
0001
0100
0001
0010
,
0001
0000
1001
0000
,
1000
0100
0001
0000
,
0001
0100
1000
0000
,
0010
0010
1000
0000
,
0001
0100
0001
0000
,
0100
0100
0100
0100
,
0000
0000
0000
0000
,
1000
0100
1000
0010
,
1000
0000
1001
0000
,
0001
0100
1000
0000
,
1000
0100
0001
0000
,
0010
0010
0001
0000
,
1000
0100
1000
0000
,
0100
0100
0100
0100
,
0100
0100
0000
0000
,
2002
0000
0000
0000
,
3003
0000
0000
0000
,
0010
1000
0010
0000
,
1000
0100
0010
0000
,
0001
0000
1000
0000
,
1001
0000
0000
0000
,
1001
0000
0110
0000
,
2002
0000
3003
0000
,
0001
0001
0001
0000
,
1000
1000
1000
0000
,
0100
0001
0100
0000
,
0001
0010
0100
0000
,
1000
0000
0001
0000
,
1001
0000
0000
0000
,
1001
0000
0110
0000
,
2002
0000
3003
0000
,
1000
1000
1000
0000
,
0001
0001
0001
0000
,
1001
0000
0000
0000
,
0000
0000
0000
0000
;
#NOTES:
     dance-single:
     :
     Medium:
     9:
     :
0000
0000
0000
0000
,
0000
0000
0000
0000
,
0000
0000
0000
0000
,
0000
0000
0000
0000
,
0000
0000
0000
0000
,
0000
0000
0000
0000
,
0000
0000
0000
0000
,
0011
0000
1010
0000
1001
0000
0010
1000
,
1100
0101
2002
3003
,
0000
0110
0000
1001
0000
0001
0100
1000
,
0000
0100
0000
0001
0000
2002
3003
0000
,
1000
0000
0010
0000
0100
0010
0100
0000
,
0001
0000
0010
0000
0100
0010
0100
0000
,
1000
0000
0100
0000
0001
0100
1000
0000
,
0001
0000
0100
0000
1000
0100
0001
0000
,
0010
0000
0001
0000
0100
0001
0010
0000
,
0100
0000
1000
0000
0010
1000
0100
0000
,
0010
0001
0100
0010
,
1000
0100
1000
0100
1000
0001
1000
0000
,
0001
0000
0100
0000
0010
0100
0010
0000
,
1000
0000
0100
0000
0010
0100
0010
0000
,
0001
0000
0010
0000
1000
0010
0001
0000
,
1000
0000
0010
0000
0001
0010
1000
0000
,
0100
0000
1000
0000
0010
1000
0100
0000
,
0010
0000
0001
0000
0100
0001
0010
0000
,
0100
1000
0010
0100
,
0001
0010
0001
0010
0001
1000
0001
0000
,
0010
0010
0010
0000
0020
0000
0030
0000
,
0100
0100
0100
0000
0200
0000
0300
0000
,
1000
1000
1000
0000
0001
0001
0001
0000
,
2002
0000
3003
0000
,
0001
0000
0000
0000
0100
0000
0000
0000
0010
0000
0000
0010
0000
0000
0010
0000
,
1000
0000
0000
0000
0100
0000
0000
0000
0010
0000
0000
0010
0000
0000
0010
0000
,
0001
0100
0010
1000
,
2002
0000
0000
0000
,
3003
0000
0000
0000
,
1000
0010
1000
0000
1000
0001
0010
0000
,
0011
0101
1001
0000
,
0001
0100
1000
0000
1000
0100
0001
0000
,
1001
0110
1001
0000
,
0001
0100
0001
0000
1000
0100
1000
0000
,
0001
0010
0100
1000
0002
0000
0003
0000
,
1000
0001
1000
0000
0010
0100
0010
0100
,
0000
0110
0000
0000
0000
0000
0000
0000
,
0001
0100
0001
0000
0001
1000
0100
0000
,
1100
1010
1001
0000
,
1000
0010
0001
0000
0001
0010
1000
0000
,
1001
0110
1001
0000
,
1000
0010
1000
0000
0001
0010
0001
0000
,
1000
0100
0010
0001
2000
0000
3000
0000
,
0001
1000
0001
0000
0100
0010
0100
0010
,
0000
0100
0200
0000
0300
0000
0010
2002
,
0000
0000
0000
0000
,
3003
0000
0000
0000
,
1000
0000
1000
0000
0001
0100
0001
0000
,
0001
0000
0001
0000
1000
0100
1000
0000
,
0010
0000
0000
0010
0000
0000
0010
0000
0100
0000
0000
0000
1001
0000
0000
0000
,
0010
1000
0100
0000
0010
0001
0100
0000
,
0001
0100
1100
0000
,
1000
1010
2002
3003
,
0010
0100
0010
0000
1000
0001
1000
0001
,
0000
0001
0000
0101
0000
1001
0000
0000
,
0001
0000
0001
0000
1000
0100
1000
0000
,
1000
0000
1000
0000
0001
0100
0001
0000
,
0010
0000
0000
0010
0000
0000
0010
0000
0100
0000
0000
0000
1001
0000
0000
0000
,
0010
0001
0100
0000
0010
1000
0100
0000
,
1000
0100
0101
0000
,
0001
0011
2002
3003
,
0010
0100
0010
0000
0001
1000
0001
1000
,
0000
1000
0000
1100
0000
2002
0000
0000
,
3003
0000
0000
0000
,
0000
0000
0000
0000
;
#NOTES:
     dance-single:
     :
     Hard:
     12:
     :
0000
0000
0000
0000
,
0000
0000
0000
0000
,
0000
0000
0000
0000
,
0000
0000
0000
0000
,
0000
0000
0000
0000
,
0000
0000
0000
0000
,
0000
0000
0000
0000
,
0001
0100
1000
0000
1000
0100
0001
0000
,
1000
0010
0001
0010
2000
0000
3000
0000
,
0010
1010
0000
1100
0000
0010
0001
0101
,
0000
0110
0000
0110
0000
2002
3003
0000
,
1000
0100
1000
0100
0001
0100
0010
0001
,
0100
1000
0100
1000
0100
0010
1000
0100
,
0010
0001
0010
0001
0010
1000
0010
0100
,
1000
0010
1000
0010
0001
0010
0100
0000
,
0001
0100
0001
0100
1000
0100
0010
1000
,
0100
0001
0100
0001
0100
0010
0001
0100
,
0010
1000
0010
1000
0010
0001
0010
0100
,
0001
0010
0001
0010
1000
0010
0100
0000
,
1000
0010
0100
0001
0010
0001
1000
0010
,
0100
0001
0010
0100
0001
0100
1000
1000
,
0010
0100
1000
0100
0001
1000
0010
0100
,
0001
0010
0100
1000
0010
0100
0001
0000
,
0001
0100
0010
1000
0100
1000
0001
0100
,
0010
1000
0100
0010
1000
0010
0001
0001
,
0100
0010
0001
0010
1000
0001
0100
0010
,
1000
0100
0010
0001
0100
0010
1000
0000
,
0002
0000
1000
0000
0100
0100
0103
0000
,
2000
0000
0001
0000
0100
0100
3100
0000
,
0020
1000
0001
1030
,
0200
0010
0020
0330
,
1000
0000
0010
0000
0001
0000
0010
0000
1000
0000
0000
0110
0000
0000
1001
0000
,
0001
0000
0010
0000
1000
0000
0010
0000
0001
0000
0000
0110
0000
0000
1001
0000
,
0002
0023
0230
2300
,
3001
0000
0000
1000
0000
0000
0001
0000
2002
0000
0000
0000
0000
0000
0000
0000
,
3003
0000
0000
0000
,
0001
0100
1000
1000
0100
0001
0001
0100
,
0010
1000
0100
0001
0200
0010
0310
0000
,
0001
0020
1000
1030
0010
0002
0100
0103
,
0010
1000
0100
1000
0010
0010
0010
0000
,
0010
1000
0100
0100
0001
0010
0010
1000
,
1100
0011
0101
1010
,
0000
1000
0100
0001
0001
0100
1000
1010
,
0000
0011
0000
2002
0000
0000
3003
0000
,
1000
0100
0001
0001
0100
1000
1000
0100
,
0010
0001
0100
1000
0200
0010
0310
0000
,
1000
0020
0001
0031
0010
2000
0100
3100
,
0010
0001
0100
0001
0010
0010
0010
0000
,
0010
0001
0100
1000
0100
0001
0010
1000
,
0010
0001
0100
1000
0200
0010
0310
0000
,
0000
0001
0100
1000
1000
0100
0001
0011
,
0000
1000
2000
0000
0000
0000
3010
0220
,
0000
0000
0000
0000
,
0330
0000
0000
0000
,
0001
0100
0010
0100
0001
0010
0100
1000
,
0010
0100
0010
1000
0100
0010
1001
0000
,
1000
0010
0000
1000
0010
0000
0100
0001
0100
0000
0010
0000
1000
0000
0010
0000
,
0100
0001
0010
1000
0001
0100
1000
0000
,
1010
0000
0011
0000
0101
0000
1000
0100
,
0101
0011
2002
3003
,
0010
1010
0000
1100
0000
0010
0001
0011
,
0000
0110
0000
0110
0000
2002
3003
0000
,
1000
0010
0100
0010
1000
0100
0010
0001
,
0100
0010
0100
0001
0010
0100
1001
0000
,
0001
0100
0000
0001
0100
0000
0010
1000
0010
0000
0100
0000
0001
0000
0100
0000
,
0010
1000
0100
0001
1000
0010
0001
0000
,
0101
0000
1100
0000
1010
0000
0001
0010
,
1010
1100
2002
3003
,
0100
0101
0000
0011
0000
0100
1000
1100
,
0000
0110
0000
0110
0000
2002
0000
0000
,
3003
0000
0000
0000
,
0000
0000
0000
0000
;
#NOTES:
     dance-double:
     :
     Easy:
     5:
     :
00000000
00000000
00000000
00000000
,
00000000
00000000
00000000
00000000
,
00000000
00000000
00000000
00000000
,
00000000
00000000
00000000
00000000
,
00000000
00000000
00000000
00000000
,
00000000
00000000
00000000
00000000
,
00000000
00000000
00000000
00000000
,
10000000
10000000
01000000
00000000
,
00010000
00010000
00001000
00000000
,
00001000
00001000
00000100
00000000
,
00000001
00000001
00000010
00000000
,
00000001
00000100
00000001
00000000
,
00000100
00000000
00001000
00000000
,
00010000
00001000
00010000
00000000
,
00100000
00000000
10000000
00000000
,
00010000
10000000
00010000
00000000
,
10000000
00000000
01000000
00000000
,
00100000
00001000
00100000
00000000
,
00001000
00000000
00010000
00000000
,
00000100
00001000
00000100
00000000
,
00000010
00000000
00000001
00000000
,
00000100
00000010
00000100
00000000
,
00001000
00000000
00010000
00000000
,
00100000
01000000
00100000
00000000
,
10000000
00100000
00010000
00000000
,
00001000
00000000
00010000
00000000
,
00022000
00000000
00033000
00000000
,
00000100
00000100
00000100
00000000
,
00000020
00000000
00000030
00000000
,
00000001
00000001
00000001
00000000
,
00000200
00000000
00000300
00000000
,
00002000
00000000
00003000
00000000
,
00020000
00000000
00030000
00000000
,
00100000
00000000
10000000
00000000
,
00010000
00000000
10000000
00000000
,
20020000
00000000
30030000
00000000
,
00100000
00001000
00010000
00001000
,
00000100
00000100
00000100
00000000
,
00000010
00010000
00001000
00010000
,
01000000
01000000
01000000
00000000
,
00100000
00100000
00010000
00000000
,
00001000
00001000
00000100
00000000
,
00000001
00000100
00000001
00000100
,
00000000
00000000
00000000
00000000
,
00010000
00001000
00010000
00001000
,
00000010
00000010
00000010
00000000
,
00000100
00010000
00001000
00010000
,
00100000
00100000
00100000
00000000
,
01000000
01000000
00010000
00000000
,
00001000
00001000
00000010
00000000
,
00000001
00000010
00000001
00000010
,
00000100
00010000
00001000
00000000
,
00022000
00000000
00000000
00000000
,
00033000
00000000
00000000
00000000
,
00010000
01000000
10000000
00000000
,
00100000
01000000
00100000
00000000
,
00100000
00010000
00001000
00000000
,
00011000
00000000
00000000
00000000
,
00000110
00000000
00000110
00000000
,
00002002
00000000
00003003
00000000
,
00000010
00000010
00000010
00000000
,
00010000
00010000
00010000
00000000
,
00001000
00000100
00000001
00000000
,
00000010
00000100
00000010
00000000
,
00000010
00001000
00010000
00000000
,
00011000
00000000
00000000
00000000
,
01100000
00000000
01100000
00000000
,
20020000
00000000
30030000
00000000
,
00100000
00100000
00100000
00000000
,
00001000
00001000
00001000
00000000
,
00011000
00000000
00000000
00000000
,
00000000
00000000
00000000
00000000
;
#NOTES:
     dance-double:
     :
     Medium:
     9:
     :
00000000
00000000
00000000
00000000
,
00000000
00000000
00000000
00000000
,
00000000
00000000
00000000
00000000
,
00000000
00000000
00000000
00000000
,
00000000
00000000
00000000
00000000
,
00000000
00000000
00000000
00000000
,
00000000
00000000
00000000
00000000
,
10100000
00000000
10000000
00000000
11000000
00000000
01000000
00100000
,
00001000
00010000
00022000
00033000
,
00000000
00000110
00000000
00001001
00000000
00000001
00000010
00000100
,
00000000
00001000
00000000
00000001
00000000
00002002
00003003
00000000
,
00000001
00000000
00000100
00000000
00000010
00000100
00000010
00000000
,
00000100
00001000
00010000
00100000
,
00010000
00000000
00001000
00000000
00010000
00001000
00010000
00000000
,
01000000
10000000
00010000
00000000
,
10000000
00000000
00100000
00000000
01000000
00100000
01000000
00000000
,
00100000
00010000
00001000
00000100
,
00001000
00000000
00010000
00000000
00001000
00010000
00001000
00000000
,
00000010
00000001
00000010
00000001
00001000
00000100
00001000
00000000
,
00000001
00000000
00000100
00000000
00000010
00001000
00000100
00000000
,
00000010
00001000
00010000
01000000
,
00100000
00000000
00010000
00000000
10000000
00100000
00010000
00000000
,
00100000
01000000
00010000
00010000
,
10000000
00000000
01000000
00000000
00100000
00001000
00010000
00000000
,
00000100
00001000
00000010
00000010
,
00000100
00000000
00000001
00000000
00000010
00001000
00000010
00000000
,
00000001
00001000
00000001
00001000
00000001
00000100
00001000
00000000
,
00010000
00010000
00010000
00000000
00020000
00000000
00030000
00000000
,
00100000
00100000
00100000
00000000
00200000
00000000
00300000
00000000
,
10000000
01000000
10000000
00000000
00010000
01000000
00001000
00000000
,
00022000
00000000
00033000
00000000
,
00001000
00000000
00000000
00000000
00000010
00000000
00000000
00000000
00000001
00000000
00000000
00000001
00000000
00000000
00000001
00000000
,
00000010
00000000
00000000
00000000
00001000
00000000
00000000
00000000
00010000
00000000
00000000
00010000
00000000
00000000
00010000
00000000
,
01000000
10000000
01000000
00010000
,
00022000
00000000
00000000
00000000
,
00033000
00000000
00000000
00000000
,
00000010
00000001
00000010
00000000
00000010
00000100
00001000
00000000
,
00001100
00010100
00011000
00000000
,
00100000
00010000
01000000
00000000
00100000
10000000
01000000
00000000
,
10010000
01100000
10010000
00000000
,
10000000
01000000
10000000
01000000
00100000
00010000
01000000
00000000
,
00010000
01000000
00001000
00010000
00002000
00000000
00003000
00000000
,
00000010
00000001
00000010
00000000
00000001
00001000
00000001
00001000
,
00000000
00001001
00000000
00000000
00000000
00000000
00000000
00000000
,
00000100
00000001
00000100
00000000
00000100
00000010
00001000
00000000
,
00001010
00010010
00011000
00000000
,
01000000
00010000
00100000
00000000
01000000
10000000
00100000
00000000
,
10010000
01100000
10010000
00000000
,
10000000
00100000
00010000
00100000
10000000
01000000
00010000
00000000
,
00001000
00010000
00000100
00001000
00000200
00000000
00000300
00000000
,
00000010
00000001
00000010
00000000
00000100
00000010
00000100
00000010
,
00000000
00001000
00002000
00000000
00003000
00000000
00010000
00022000
,
00000000
00000000
00000000
00000000
,
00033000
00000000
00000000
00000000
,
00010000
00000000
00100000
00000000
10000000
00100000
10000000
00000000
,
01000000
00010000
00011000
00000000
,
00001000
00000000
00000000
00001000
00000000
00000000
00001000
00000000
00000010
00000000
00000001
00000000
00000010
00000000
00000000
00000000
,
00000001
00000100
00001000
00000000
00011000
00000000
00000000
00000000
,
00010000
00100000
10100000
00000000
,
00100000
00010000
00022000
00033000
,
00000010
00000001
00000010
00000000
00000001
00001000
00000001
00001000
,
00000000
00001000
00000000
00011000
00000000
00011000
00000000
00000000
,
00001000
00000000
00000010
00000000
00000001
00000010
00000001
00000000
,
00000100
00001000
00011000
00000000
,
00010000
00000000
00000000
00010000
00000000
00000000
00010000
00000000
00100000
00000000
10000000
00000000
00100000
00000000
00000000
00000000
,
10000000
01000000
00010000
00000000
00011000
00000000
00000000
00000000
,
00001000
00000010
00000011
00000000
,
00000010
00001000
00022000
00033000
,
00100000
10000000
00100000
00000000
10000000
00010000
10000000
00010000
,
00000000
00010000
00000000
00011000
00000000
00022000
00000000
00000000
,
00033000
00000000
00000000
00000000
,
00000000
00000000
00000000
00000000
;
#NOTES:
     dance-double:
     :
     Hard:
     12:
     :
00000000
00000000
00000000
00000000
,
00000000
00000000
00000000
00000000
,
00000000
00000000
00000000
00000000
,
00000000
00000000
00000000
00000000
,
00000000
00000000
00000000
00000000
,
00000000
00000000
00000000
00000000
,
00000000
00000000
00000000
00000000
,
00010000
01000000
10000000
00000000
10000000
01000000
00010000
00000000
,
00001000
00000100
00000001
00000100
00002000
00000000
00003000
00000000
,
00010000
00011000
00000000
00110000
00000000
00010000
01000000
00100000
,
00000000
10000000
00000000
01100000
00000000
20020000
30030000
00000000
,
10000000
01000000
10000000
00100000
01000000
00010000
00100000
00001000
,
00010000
00000100
00001000
00000100
00000001
00000100
00000010
00000001
,
00000100
00000010
00001000
00000100
00010000
00001000
00100000
00010000
,
01000000
00100000
10000000
01000000
00010000
01000000
00100000
00000000
,
00010000
01000000
00010000
01000000
00100000
00010000
00001000
00000100
,
00000010
00001000
00000010
00001000
00000100
00000010
00000001
00000100
,
00000001
00000010
00000001
00000010
00001000
00010000
01000000
00100000
,
00010000
10000000
01000000
00100000
00010000
10000000
00010000
00000000
,
10000000
00100000
00010000
00100000
10000000
01000000
00100000
00001000
,
00010000
00001000
00000010
00000001
00001000
00000100
00000010
00000010
,
00000001
00000010
00001000
00000010
00000001
00000100
00000010
00010000
,
00001000
00010000
00100000
10000000
00010000
01000000
00100000
00000000
,
00100000
10000000
01000000
10000000
00100000
01000000
00010000
00100000
,
00010000
00001000
00000100
00000010
00000001
00000100
00000001
00000001
,
00000010
00000100
00001000
00000010
00001000
00000010
00001000
00010000
,
01000000
00100000
10000000
00010000
00100000
00010000
01000000
00000000
,
00200000
10000000
00020000
00330000
,
00002000
00010000
00000020
00003030
,
00000002
00000010
00000100
00000103
,
00002000
00010000
00020000
00033000
,
00010000
00000000
00100000
00000000
10000000
00000000
00100000
00000000
00010000
00000000
00000000
00010000
00000000
00000000
00010000
00000000
,
00001000
00000000
00000010
00000000
00000001
00000000
00000010
00000000
00001000
00000000
00000000
00001000
00000000
00000000
00001000
00000000
,
00020000
02030000
23000000
32000000
,
03010000
00000000
00000000
00001000
00000000
00000000
00000010
00000000
00000002
00000000
00000000
00000000
00000003
00000000
00000000
00000000
,
00001001
00000000
00000000
00000000
,
00000001
00000100
00001000
00001000
00000100
00000001
00000001
00000100
,
00000010
00010000
00001000
01000000
00200000
01000000
01300000
00000000
,
00010000
10000000
01000000
01000000
00010000
00001000
00000010
00000010
,
00000001
00000001
00000100
00000100
00000010
00000010
00000010
00000000
,
00000001
00000010
00000001
00000010
00001000
00000100
00010000
00000000
,
00011000
00101000
00110000
01100000
,
00000000
10000000
01000000
00100000
00100000
00001000
00010000
00011000
,
00000000
00010000
00000000
02020000
00000000
00000000
03030000
00000000
,
10000000
01000000
00010000
00010000
01000000
10000000
10000000
01000000
,
00100000
00001000
00010000
00000100
00000020
00000100
00000130
00000000
,
00001000
00000001
00000100
00000100
00001000
00010000
00100000
00100000
,
10000000
10000000
01000000
01000000
00100000
00100000
00100000
00000000
,
10000000
00100000
10000000
00100000
00010000
01000000
00001000
00000000
,
00011000
00010010
00001010
00000110
,
00000000
00000001
00000100
00000010
00000010
00010000
00001000
00011000
,
00000000
00010000
00020000
00000000
00030000
00000000
01000000
02200000
,
00000000
00000000
00000000
00000000
,
03300000
00000000
00000000
00000000
,
10000000
00100000
10000000
00100000
01000000
00010000
00100000
00010000
,
01000000
00001000
01000000
00001000
00010000
00000100
00001000
00000000
,
00000010
00000100
00000000
00000010
00000100
00000000
00000001
00000010
00000001
00000000
00001000
00000000
00000001
00000000
00000001
00000000
,
00000100
00001000
00010000
00100000
10000000
00000000
10010000
00000000
,
10100000
00000000
00100000
00000000
00110000
00000000
00001000
00010000
,
00011000
00000100
00000220
00000330
,
00000000
00001010
00000000
00011000
00000000
01010000
00000000
00011000
,
00000000
00001100
00000000
00000110
00000000
00002002
00003003
00000000
,
00000001
00000100
00000001
00000100
00000010
00001000
00000100
00001000
,
00000010
00010000
00000010
00010000
00001000
00100000
00010000
00000000
,
01000000
00100000
00000000
01000000
00100000
00000000
10000000
01000000
10000000
00000000
00010000
00000000
10000000
00000000
10000000
00000000
,
00100000
00010000
00001000
00000100
00000001
00000000
00001001
00000000
,
00000101
00000000
00000100
00000000
00001100
00000000
00010000
00001000
,
00011000
00100000
02200000
03300000
,
00000000
01010000
00000000
00011000
00000000
00001010
00000000
00011000
,
00000000
00110000
00000000
01100000
00000000
20020000
00000000
00000000
,
30030000
00000000
00000000
00000000
,
00000000
00000000
00000000
00000000
;
