
//----- song ID: cyco -----//
#TITLE:CyberConnect;
#ARTIST:Blacklolita;
#BANNER:CyberConnect.png;
#BACKGROUND:CyberConnect-bg.png;
#CDTITLE:./CDTitles/DDR A20.png;
#MUSIC:CyberConnect.ogg;
#SAMPLESTART:79.541;
#SAMPLELENGTH:15;
#BPMS:0=150;
#STAGE:15;
#NOTES:
     dance-single:
     :
     Beginner:
     2:
     :
0000
0000
0000
0000
,
0000
0000
0000
0000
,
0000
0000
0000
0000
,
0000
0000
0000
0000
,
0000
0000
0000
0000
,
0000
0000
0000
0000
,
0000
0000
0000
0000
,
0000
0000
0000
0000
,
0000
0000
0000
0000
,
1000
0000
0001
0000
,
0010
0000
0010
0000
,
0100
0100
0100
0000
,
0010
0000
0010
0000
,
0100
0100
0100
0000
,
1000
0000
1000
0000
,
0001
0000
0001
0000
,
1000
0000
0001
0000
,
1001
0000
0000
0000
,
0001
0000
0001
0000
,
1000
0000
1000
0000
,
0010
0000
0010
0000
,
0100
0000
0100
0000
,
0001
0000
0001
0000
,
1000
0000
1000
0000
,
0010
0000
0100
0000
,
1001
0000
0000
0000
,
0001
0000
0001
0000
,
0010
0010
0010
0000
,
0100
0000
0100
0000
,
0100
0000
0100
0000
,
0010
0000
0010
0000
,
0010
0000
0010
0000
,
0001
0000
0001
0000
,
1000
0000
1000
0000
,
2002
0000
0000
0000
,
3003
0000
0000
0000
,
0000
0000
0000
0000
,
0000
0000
0000
0000
,
0010
0000
0000
0000
,
0010
0000
0000
0000
,
0100
0000
0000
0000
,
0100
0000
0000
0000
,
0002
0000
0003
0000
,
0000
0000
0000
0000
,
2000
0000
3000
0000
,
0000
0000
0000
0000
,
0010
0000
0010
0000
,
0100
0000
0100
0000
,
0001
0000
1000
0000
,
1001
0000
0000
0000
,
0010
0000
0010
0000
,
0100
0000
0100
0000
,
1001
0000
1001
0000
,
1001
0000
0000
0000
,
1000
0000
1000
0000
,
0001
0000
0001
0000
,
1001
0000
1001
0000
,
1001
0000
0000
0000
,
0010
0000
0010
0000
,
0100
0000
0100
0000
,
0001
0001
0001
0000
,
1000
1000
1000
0000
,
0001
0000
0010
0000
,
0100
0000
1000
0000
,
0001
0001
0001
0000
,
2002
0000
3003
0000
,
1000
0000
1000
0000
,
0001
0000
0001
0000
,
0010
0000
0010
0000
,
0200
0000
0300
0000
,
0010
0010
0010
0000
,
0100
0100
0100
0000
,
1000
0000
0001
0000
,
1001
0000
0000
0000
,
0000
0000
0000
0000
;
#NOTES:
     dance-single:
     :
     Easy:
     7:
     :
0000
0000
0000
0000
,
0000
0000
0000
0000
,
0000
0000
0000
0000
,
0000
0000
0000
0000
,
0000
0000
0000
0000
,
0000
0000
0000
0000
,
0000
0000
0000
0000
,
0000
0000
0000
0000
,
0000
0000
0000
0000
,
1000
0001
1000
0001
,
1001
1000
0010
0100
,
0001
0100
0010
0010
,
0110
0100
0001
1000
,
0010
0100
0010
0010
,
1001
0010
0100
0010
,
0110
1000
0001
1000
,
0001
0010
0100
1000
,
0002
0000
2003
0000
3002
0000
1003
0010
,
0100
0100
0010
0010
,
1000
0000
1000
0000
0001
0000
0001
1000
,
0001
0001
1000
1000
,
1001
0001
0010
0100
,
1000
0001
1000
0001
,
0010
0100
0010
0100
,
0010
0010
0100
0100
,
0020
0000
0230
0000
,
0310
0000
0110
0000
0000
0000
0000
0001
,
0000
1000
1000
0001
0001
0000
0000
0000
,
2000
3002
0013
0100
,
0010
0100
0010
0100
,
2000
3002
0103
0010
,
0100
0010
0100
0010
,
0110
1001
0001
0010
,
0200
0000
2300
0000
,
3002
0000
0000
0000
,
0000
0000
0000
0000
,
0000
0000
0000
0000
,
0003
0000
0000
0000
,
1000
0010
1000
0010
,
0100
0001
0100
0001
,
0010
0100
0010
0100
,
0020
0000
0000
0030
,
1001
0000
0010
1001
,
0000
0000
0001
1000
,
0110
0000
0100
0110
,
0000
0000
0200
0000
,
0310
1000
0010
0000
0100
0000
0100
0000
,
0001
0010
0001
0000
0100
0000
0100
0000
,
0010
1000
0001
0100
,
2002
0000
3003
0000
,
1000
0010
0100
0010
,
1001
0010
0100
0010
,
1001
0100
1001
0100
,
1001
0100
0001
0010
,
0001
0010
0100
0010
,
1001
0010
0100
0010
,
1001
0100
1001
0100
,
1001
0100
1000
0010
,
1000
0010
1000
0010
,
0100
0001
0010
0001
,
0110
0001
0110
0001
,
0110
1000
0001
1000
,
0001
0100
0001
0100
,
0010
1000
0100
1000
,
0110
1000
0110
1000
,
0220
0000
0330
0000
,
1000
0000
0000
1000
0000
0000
1001
0000
,
0001
0000
0000
0001
0000
0000
1001
0000
,
0010
0000
0000
0010
0000
0000
0110
0000
,
1000
0001
0100
0010
,
1000
1000
1000
1001
,
0001
0001
0001
1001
,
0010
0000
0000
0100
0000
0000
0010
0000
,
0200
0000
0000
0000
,
0300
0000
0000
0000
,
0000
0000
0000
0000
;
#NOTES:
     dance-single:
     :
     Medium:
     11:
     :
0000
0000
0000
0000
,
0000
0000
0000
0000
,
0000
0000
0000
0000
,
0000
0000
0000
0000
,
0000
0000
0000
0000
,
0000
0000
0000
0000
,
0000
0000
0000
0000
,
0000
0000
0000
0000
,
0000
0000
0000
0000
,
0020
0030
0200
0300
0020
0030
0200
0300
,
0110
0000
0010
1000
0100
0010
0001
0000
,
1000
0000
0001
0000
0100
0000
0000
0010
0000
0000
1000
0000
0100
0000
0000
0000
,
1001
0000
1000
0001
0100
0010
1000
0000
,
0001
0000
0010
0000
0100
0000
0000
0010
0000
0000
0001
0000
0100
0000
0000
0000
,
1000
0001
0100
0000
0010
1000
0001
0000
,
0010
0100
1000
0000
0001
0100
0010
0000
,
1000
0010
0100
0001
0100
0010
1000
0001
,
0200
0300
0020
0030
0200
0300
0020
0030
,
1000
0100
0010
0000
0001
0100
0010
0000
,
0100
0010
1000
0001
0010
0100
0010
0100
,
0010
0001
0010
0000
0100
1000
0100
0000
,
1001
0000
0001
0001
1000
1000
0010
0010
,
0100
0010
1000
0000
0100
0010
0001
0000
,
1000
0001
0100
0000
0001
0100
0010
0010
,
0100
0100
0010
0000
1000
1000
0001
0000
,
1000
0010
1000
0100
0010
0001
0100
0001
,
0010
0000
0110
0000
1000
0100
0010
0001
,
0000
0010
0100
0010
0200
0000
0310
0000
,
0011
0101
2000
3002
,
0023
0230
0320
0130
,
1010
1001
0002
1003
,
0020
1030
0002
1003
,
1010
1001
0020
0230
,
0302
0000
2003
0000
,
0002
0000
0000
0000
,
0000
0000
0000
0000
,
0000
0000
0000
0000
,
0000
0000
0000
3003
,
0001
0010
0001
0100
,
0010
1000
0100
1000
,
0010
0100
0010
1000
,
2002
0000
0000
0000
3003
0000
0001
1000
,
2002
3003
0010
0220
,
0000
0000
0000
0330
0000
0000
0001
0000
0100
0000
0010
0000
,
0200
0000
0000
0000
0301
1000
0002
0000
,
0000
0000
2000
3003
,
0001
0100
0001
0100
0010
1000
0100
0010
,
0001
0010
0001
0010
0100
1000
0001
0100
,
0010
1000
0010
1000
0001
0100
0001
0100
,
0020
0100
0100
0100
0130
0000
0010
0100
,
0010
0000
0000
1000
0000
0000
0010
0000
0000
1000
0000
0000
0010
0000
0100
0000
,
0010
0000
0000
0000
1000
0000
0000
0010
0000
0000
1000
0000
0010
0000
0100
0000
,
0010
0000
1100
0100
0010
0000
0101
0100
,
0010
0000
1001
0000
1000
0100
0010
0001
,
0010
0000
0000
0001
0000
0000
0010
0000
0000
0001
0000
0000
0010
0000
0100
0000
,
0010
0000
0000
0000
0001
0000
0000
0010
0000
0000
0001
0000
0010
0000
0100
0000
,
0010
0000
1100
0100
0010
0000
0101
0100
,
0010
0000
1001
0000
0001
0100
0010
1000
,
0001
0100
0010
0000
1000
0100
0010
0000
,
0001
1000
0100
0000
1000
0001
0010
0000
,
0100
0000
0000
1000
0200
0000
0010
0000
0310
0000
0000
0001
0200
0000
0010
0000
,
0320
0000
0130
0110
,
0100
0001
0010
0100
1000
0010
0100
0001
,
0100
0010
1000
0100
0010
0001
0100
0010
,
1000
0000
0000
0001
0200
0000
0010
0000
0310
0000
0000
1000
0200
0000
0010
0000
,
0320
0000
0100
0130
,
1010
0000
0000
1010
0000
0000
0110
0100
,
0101
0000
0000
0101
0000
0000
0011
0010
,
0110
0000
0000
0110
0000
0000
1001
0000
,
1000
0100
0010
0001
0010
0100
1000
0000
,
0001
0001
1000
1000
0010
0010
0100
0100
,
0010
0010
1000
1000
0001
0001
0200
0000
,
0310
0000
0000
0110
0000
0000
1100
0000
,
0001
0100
0101
0010
1000
0100
0010
1001
,
0000
0000
0000
0000
;
#NOTES:
     dance-single:
     :
     Hard:
     15:
     :
0000
0000
0000
0000
,
0000
0000
0000
0000
,
0000
0000
0000
0000
,
0000
0000
0000
0000
,
0000
0000
0000
0000
,
0000
0000
0000
0000
,
0000
0000
0000
0000
,
0000
0000
0000
0000
,
0000
0000
0000
0000
,
2000
3000
0002
0003
2000
3000
0002
0003
,
0101
0000
0000
0000
0100
0000
0100
0010
0000
0010
1000
0000
1010
0000
0000
0000
,
0100
0001
0100
0001
1000
0000
1000
0010
0000
0100
0001
0000
1001
0000
0000
0000
,
1100
0000
0000
0000
0100
0000
0100
0010
0000
0010
0001
0000
0011
0000
0000
0000
,
0010
0001
0010
0001
1000
0000
1000
0010
0000
0100
0001
0000
1001
0000
0000
0000
,
0110
0000
0000
0000
0010
0000
0100
0010
0000
0010
0100
0000
0001
0000
1000
0000
,
1001
0000
0001
0000
1000
0000
0100
0010
0000
0010
0100
0000
1000
0000
0001
0000
,
1000
0100
1000
0000
0001
0010
0001
0000
0100
0001
0010
0100
1000
0010
0100
0001
,
2000
0000
3000
0000
0002
0000
0003
0000
2000
0000
3000
0000
1000
0100
0010
0001
,
1000
0000
0010
1000
0001
0000
0100
0000
0010
0000
0100
0001
1000
0000
0010
0000
,
0100
0000
0010
0100
0001
0000
0010
0000
0100
0000
0010
0000
0110
0000
0011
0000
,
0001
0000
0100
0001
1000
0000
0010
0000
0100
0000
0010
1000
0001
0000
0100
0000
,
0020
0000
0000
0000
0130
0010
0100
0000
0001
1000
0001
0000
0100
0010
0100
0010
,
1000
0000
0010
1000
0100
0000
0010
0000
0100
0000
1000
0001
0100
0000
0010
0000
,
0100
0000
0001
1000
0100
0000
0010
0000
0100
0000
0010
0000
1100
0000
0101
0000
,
0001
0010
1000
0010
0001
0100
1000
0100
,
0001
0100
0001
0000
1000
0010
1000
0000
0001
0010
0100
1000
0100
0010
0001
1000
,
0001
0000
1001
0000
0010
1000
0001
1001
,
0000
0000
1000
0100
0010
0000
0001
0000
0020
0000
0000
0000
0130
0010
0100
0010
,
0200
0000
0000
0320
0000
0000
0032
0000
0000
0103
0010
0100
,
0002
0000
0000
0013
0100
0100
0010
0001
0100
0010
1000
0100
,
0010
0001
0010
0100
0010
0001
2000
0000
0000
3001
0000
1000
,
1100
0000
0000
0010
0000
0100
0101
0000
0000
0010
0000
0100
,
0110
0000
0000
1001
0000
0000
0001
0100
0010
1000
0100
0010
,
0002
0000
2003
0000
,
3002
0000
0000
0000
,
0000
0000
0023
0000
,
0230
0000
0000
0000
,
2300
0000
0000
0000
,
3001
0100
0010
0000
1000
0001
0100
0000
,
0010
1000
0100
0000
1000
0001
0010
0000
,
0100
1000
0010
0000
0100
0001
0010
0000
,
0210
0000
0000
0000
0000
0000
0000
0000
0010
0000
0000
0001
0000
0000
1300
0000
,
2200
3300
0010
0202
,
0000
0000
0000
0303
0000
0000
0001
0000
0010
0000
0100
0000
,
2200
0000
3300
0000
1000
0100
0022
0000
,
0000
0000
0033
0000
2002
0000
0000
3003
,
0001
0100
0010
1000
0100
0001
0100
1000
,
0001
0100
1000
0100
0001
1000
0010
0100
,
0001
0010
0001
0000
0100
0010
0100
0000
0001
0010
0100
1000
0100
0010
0001
1000
,
0002
0000
1000
0000
1000
0000
1000
0000
1003
0001
1000
0000
0001
1000
0010
0100
,
0001
0000
0000
1100
0000
0000
0011
0000
0000
1100
0000
0000
0011
0000
0100
0000
,
0002
0000
0000
0000
0103
0000
0000
1010
0000
0000
0101
0000
0010
0000
1000
0000
,
0100
0000
0000
1000
0100
1000
0100
0010
0001
0000
0000
1000
0100
1000
0100
0010
,
0001
0000
0000
1000
0000
0000
0001
0000
1000
0100
1000
0000
0001
0010
0001
0000
,
0100
0000
0000
0011
0000
0000
1100
0000
0000
0011
0000
0000
1100
0000
0010
0000
,
0002
0000
0000
0000
0103
0000
0000
1010
0000
0000
0101
0000
0010
0000
1000
0000
,
0100
0000
0000
1000
0100
1000
0100
0010
0001
0000
0000
1000
0100
1000
0100
0010
,
0001
0000
0000
0010
0000
0000
0100
0000
1000
0100
1000
0100
0010
0001
0010
0001
,
0100
0000
0010
1000
0100
0000
0010
0001
0100
0000
0001
1000
0100
0000
1000
0001
,
0200
0000
0000
0000
0310
0000
1000
0100
0010
0000
0001
0100
0010
0000
1000
0100
,
0020
0000
0000
0031
0100
0001
0010
0001
0100
0000
0000
0010
1000
0100
1000
0010
,
1000
0000
0000
0010
0000
0000
0100
0000
0001
0010
0001
0010
0100
1000
0100
1000
,
0010
0000
0100
0001
0010
0000
0100
1000
0010
0000
1000
0001
0010
0000
0001
1000
,
0020
0000
0000
0000
0130
0000
0001
0010
0100
0000
1000
0010
0100
0000
0001
0010
,
0100
0000
0000
1000
0010
1000
0100
1000
0010
0000
0000
0100
0001
0010
0001
0100
,
0002
0000
0000
0000
1003
0000
0220
0330
,
1000
0000
1000
1100
0000
0001
0011
0010
,
0110
0000
1000
1001
0000
1000
1010
0010
,
0110
0000
0100
0110
0000
0001
0010
0100
,
0010
0000
0001
1000
0100
0000
0010
0001
0000
1000
0100
0000
0020
0000
0030
0000
,
0100
0100
1000
1000
0001
0001
0100
0100
,
0010
0010
1000
1000
0001
0001
2002
3003
,
1010
0000
0001
0101
0000
0010
0110
1000
,
0001
0000
0100
0000
0010
0100
0010
0000
1000
0001
1000
0000
0010
0000
0100
0010
,
0000
0000
0000
0000
;
#NOTES:
     dance-single:
     :
     Challenge:
     17:
     :
0000
0000
0000
0000
,
0000
0000
0000
0000
,
0000
0000
0000
0000
,
0000
0000
0000
0000
,
0000
0000
0000
0000
,
0000
0000
0000
0000
,
0000
0000
0000
0000
,
0000
0000
0000
0000
,
0000
0000
0000
0000
,
0002
0203
2300
3200
0302
0023
2030
3010
,
1001
0000
0000
0000
0010
0000
0100
0010
0000
0010
0100
0000
1001
0000
0000
0000
,
1000
0000
0100
0000
0010
0000
0001
0000
0000
0100
0000
0000
0010
0000
0000
0000
0000
0000
0010
0000
0000
0100
0000
0000
0000
0000
0000
0100
0000
0000
0010
0000
0000
0000
0000
0000
1001
0000
0000
0000
0000
0000
0000
0000
0000
0000
0000
0000
,
0110
0000
0000
0000
1000
0000
0001
1000
0000
1000
0001
0000
0110
0000
0000
0000
,
0001
0000
1000
0000
0100
0000
0010
0000
0000
0001
0000
0000
1000
0000
0000
0000
0000
0000
1000
0000
0000
0001
0000
0000
0000
0000
0000
0001
0000
0000
1000
0000
0000
0000
0000
0000
0110
0000
0000
0000
0000
0000
2000
0000
0000
0000
0000
0000
,
3100
0010
0001
0000
0100
0010
1000
0000
0001
0010
0100
0000
1000
0010
0100
0000
,
1000
0100
0010
0000
1000
0100
0010
0000
1000
0010
0100
0000
1000
0010
0100
0000
,
1000
0100
1000
0100
0001
0100
0001
0100
0010
1000
0100
0010
0001
0010
0100
1000
,
0100
0000
0000
0000
0100
0000
0000
0000
0100
0000
0000
0000
0100
0010
0001
0000
,
1001
0000
0100
1000
0010
0000
0100
0000
0101
0000
1000
0100
0010
0000
0001
0000
,
0101
0000
0010
1000
0001
0000
0010
0000
0011
0000
0001
0010
0110
0000
1100
0000
,
1001
0000
0010
0001
0100
0000
0010
0000
1010
0000
0001
0100
0010
0000
1000
0000
,
1001
0000
0000
0000
0001
0010
1000
0010
0001
0100
1000
0100
0001
0100
0100
1000
,
1001
0000
0010
0001
0100
0000
0010
0000
1100
0000
0010
0001
0100
0000
0010
0000
,
0101
0000
1000
0100
0001
0000
0010
0000
1100
0000
0001
0100
1100
0000
1010
0000
,
0110
0000
1000
0100
0010
0000
0001
0100
0010
0000
1000
0100
0010
0000
0001
0000
,
1000
0010
1000
0010
0100
0001
0100
0001
1000
0010
0001
0010
1000
0001
0100
1000
,
1100
0000
0011
0000
0002
0023
1030
1100
,
0000
0000
1000
0001
1000
0000
1000
0000
0220
0000
0330
0000
0001
1000
0001
1000
,
0101
0000
0000
1010
0000
0000
1001
0000
0000
0010
1000
0100
,
0110
0000
0000
0010
0001
0100
0110
0010
1000
1010
0010
0100
,
0110
0010
1000
0100
0001
1000
0020
0000
0000
0031
0000
0001
,
1100
0000
0000
1000
0000
1000
0011
0000
0000
0001
0000
0001
,
0110
0000
0000
1001
0000
0000
0010
0001
0100
0010
1000
0100
,
0020
0030
0200
0300
,
2002
0000
0000
0000
,
0000
0000
0000
3003
,
1000
0010
1000
0000
0001
0010
0100
0000
1000
0100
1000
0000
0001
0100
0010
0000
,
1000
0100
0010
0000
0001
0100
0001
0000
1000
0010
0100
0000
0001
0010
0001
0000
,
1000
0001
0100
0010
0100
0001
0010
0000
0100
1000
0010
0100
0010
1000
0001
0000
,
0010
0001
0100
0010
1000
0100
1000
0000
0001
0100
0010
1000
0100
0010
0001
0000
,
0100
0001
1000
0100
1000
0010
1000
0000
0010
1000
0100
0010
0001
0100
0001
0000
,
2002
0000
0000
0000
3000
0000
0000
0000
0010
0000
0000
0100
0000
0000
1003
0000
,
2200
3300
0010
0202
,
0000
0000
0000
0303
0000
0000
0011
0000
0110
0000
1100
0000
,
2002
0000
3003
0000
0100
0010
2002
0000
,
0000
3003
0220
0330
,
1000
0100
1000
0000
1000
0010
1000
0000
1000
0010
0100
0000
0100
0001
0010
0000
,
0001
0100
0001
0000
0001
0010
0001
0000
0001
0100
0010
0000
0010
1000
0100
0000
,
0010
0001
0010
0001
0100
0001
0100
0001
1000
0010
1000
0010
1000
0100
1000
0100
,
0020
0000
0100
0000
0100
0000
0100
0000
0130
0010
0100
0000
1000
0100
0010
0001
,
0101
0000
1000
1100
0000
0001
0101
0000
1000
1100
0000
0001
0101
0000
1001
0000
,
0110
0000
0000
0000
1010
0000
0001
0011
0000
1000
1010
0000
0001
0000
0011
0000
,
1001
0000
0000
1000
0010
0100
0100
0100
0001
0000
0000
0001
0010
0100
0100
0100
,
1000
0000
0000
0100
0000
0000
0110
0000
0001
0010
0100
1000
0001
0010
0100
1000
,
1010
0000
0001
0011
0000
1000
1010
0000
0001
0011
0000
1000
1010
0000
1001
0000
,
0110
0000
0000
0000
0101
0000
1000
1100
0000
0001
0101
0000
1000
0000
1100
0000
,
1001
0000
0000
0001
0100
0010
0010
0010
1000
0000
0000
1000
0100
0010
0010
0010
,
0001
0000
0000
0100
0000
0000
0110
0000
0010
1000
0001
0100
0010
1000
0001
0100
,
0010
0000
1000
0100
0010
0000
0001
0010
0100
0000
1000
0010
0100
0000
0001
0100
,
0010
0000
1000
0001
0010
0000
0100
1000
0010
0000
1000
0001
0100
0000
0010
1000
,
0100
0000
0000
0010
0100
1000
1000
1000
0010
0000
0000
0100
0010
1000
1000
1000
,
0100
0000
0000
0010
0000
0000
0001
0000
1000
0100
0001
0100
1000
0010
0001
0010
,
1000
0000
0001
1000
0100
0000
1000
0001
0100
0000
0001
1000
0010
0000
1000
0001
,
0010
0000
0100
1000
0010
0000
0100
0001
0010
0000
0100
1000
0010
0000
0100
0001
,
0010
0000
0000
0100
0010
0001
0001
0001
0100
0000
0000
0010
0100
0001
0001
0001
,
0020
0000
0230
1300
,
1010
0000
0000
1100
0000
0000
1001
0000
,
0011
0000
0000
0101
0000
0000
1001
0000
,
1010
0000
0000
0101
0000
0000
1001
0000
,
0001
0100
1000
0100
0001
0000
0001
0010
0000
0010
1000
0000
1001
0000
0000
0000
,
1000
0010
0100
0010
1000
0010
0100
0010
1000
0100
0010
0001
0100
0010
1000
0000
,
0001
0010
0100
0010
0001
0010
0100
0010
0001
0100
0010
1000
0200
0000
0300
0000
,
0110
0000
0001
0010
1000
0000
0110
0000
1000
0100
0001
0000
0110
0000
1001
0000
,
0001
0000
0000
0000
0000
0000
1000
0000
0010
0000
1000
0000
0010
0000
0000
0000
0000
0000
0100
0000
0000
0000
0000
0000
0001
0000
0010
0000
0001
0000
0010
0000
0000
0100
0000
0000
1000
0000
0000
0000
0000
0000
0110
0000
0000
0100
0000
0000
,
0000
0000
0000
0000
;
#NOTES:
     dance-double:
     :
     Easy:
     7:
     :
00000000
00000000
00000000
00000000
,
00000000
00000000
00000000
00000000
,
00000000
00000000
00000000
00000000
,
00000000
00000000
00000000
00000000
,
00000000
00000000
00000000
00000000
,
00000000
00000000
00000000
00000000
,
00000000
00000000
00000000
00000000
,
00000000
00000000
00000000
00000000
,
00000000
00000000
00000000
00000000
,
00001000
00010000
00001000
00010000
,
00011000
00001000
00000010
00001000
,
00010000
00001000
00010000
00010000
,
00011000
00010000
00100000
00010000
,
00001000
00010000
00001000
00001000
,
00011000
00000100
00001000
00000001
,
00000100
00000010
00010000
00001000
,
00100000
00010000
10000000
01000000
,
00200000
00302000
00023000
00031000
,
00010000
00000010
00001000
00001000
,
00000001
00000000
00000010
00000000
00000100
00000000
00000100
00000010
,
00000100
00010000
00001000
00001000
,
00011000
00000000
00100000
00010000
,
01000000
00100000
10000000
10000000
,
01000000
00100000
00010000
00010000
,
00100000
00001000
00010000
00000100
,
00000020
00000000
00000230
00000000
,
00000310
00000000
00000110
00000000
00000000
00000000
00000000
00000001
,
00000000
00001000
00001000
00000000
00000100
00000000
00000000
00000000
,
00020000
00032000
00103000
00010000
,
00100000
01000000
00100000
01000000
,
20000000
30200000
01300000
00010000
,
01000000
00001000
00010000
00001000
,
00020000
00030200
00001300
00000100
,
00000020
00000000
00000032
00000000
,
00002003
00000000
00000000
00000000
,
00000000
00000000
00000000
00000000
,
00000000
00000000
00000000
00000000
,
00003000
00000000
00000000
00000000
,
00010000
01000000
00010000
01000000
,
00100000
10000000
00100000
10000000
,
01000000
00100000
00001000
00010000
,
00002000
00000000
00000000
00003000
,
00011000
00000000
00000100
00000110
,
00000000
00000000
00000001
00001000
,
00001001
00000000
00000100
00000110
,
00000000
00000000
00020000
00000000
,
00031000
00001000
00100000
00100000
,
00010000
00010000
01000000
01000000
,
00100000
10000000
00100000
00000000
01000000
00000000
00001000
00000000
,
00022000
00000000
00033000
00000000
,
00000100
00001000
00000100
00000010
,
00001001
00000010
00000100
00000010
,
00001001
00000000
00000110
00000000
,
00011000
00000000
01100000
00000000
,
00100000
00010000
00100000
01000000
,
10010000
01000000
00100000
01000000
,
10010000
00000000
01100000
00000000
,
00011000
00000000
00000110
00000000
,
00000001
00000010
00000100
00001000
,
00000100
00010000
00001000
00100000
,
00110000
00000000
11000000
00000000
,
10100000
00000000
01010000
00000000
,
10000000
01000000
00100000
00010000
,
00100000
00001000
00010000
00000100
,
00001100
00000000
00000011
00000000
,
00002002
00000000
00003003
00000000
,
00000001
00000000
00000000
00000001
00000000
00000000
00000100
00000000
,
00001000
00000000
00000000
00001000
00000000
00000000
00001000
00000000
,
00010000
00000000
00000000
00010000
00000000
00000000
01000000
00000000
,
10000000
00010000
20000000
30000000
,
00010000
00010000
00100000
00100000
,
00001000
00001000
00010000
00010000
,
00001000
00000000
00000000
00010000
00000000
00000000
00001000
00000000
,
00020000
00000000
00000000
00000000
,
00030000
00000000
00000000
00000000
,
00000000
00000000
00000000
00000000
;
#NOTES:
     dance-double:
     :
     Medium:
     11:
     :
00000000
00000000
00000000
00000000
,
00000000
00000000
00000000
00000000
,
00000000
00000000
00000000
00000000
,
00000000
00000000
00000000
00000000
,
00000000
00000000
00000000
00000000
,
00000000
00000000
00000000
00000000
,
00000000
00000000
00000000
00000000
,
00000000
00000000
00000000
00000000
,
00000000
00000000
00000000
00000000
,
00000002
00000003
00000200
00000300
00000020
00000030
00002000
00003000
,
00001001
00000000
00000001
00000010
00000100
00001000
00000100
00000000
,
00010000
00000000
00001000
00000000
00010000
00000000
00000000
00001000
00000000
00000000
01000000
00000000
00100000
00000000
00000000
00000000
,
10010000
00000000
10000000
00100000
01000000
00010000
01000000
00000000
,
00001000
00000000
00010000
00000000
00001000
00000000
00000000
00000100
00000000
00000000
00000001
00000000
00000010
00000000
00000000
00000000
,
00001000
00000001
00000010
00000000
00000100
00001000
00000100
00000000
,
00010000
00001000
00100000
00000000
00010000
10000000
00010000
00000000
,
10000000
01000000
10000000
01000000
00100000
00001000
00010000
00001000
,
00020000
00030000
00000200
00000300
00002000
00003000
00000020
00000030
,
00000100
00000001
00000010
00000000
00000100
00001000
00000010
00000000
,
00000100
00001000
00000100
00001000
00010000
00001000
00010000
00000000
,
00100000
10000000
01000000
00000000
00100000
00010000
01000000
00000000
,
10010000
00000000
00100000
00100000
01000000
01000000
00100000
00000000
,
00010000
00001000
00010000
00000000
00000100
00001000
00000010
00000000
,
00000100
00000001
00000100
00000001
00000010
00000100
00000010
00000000
,
00000100
00010000
00001000
00000000
00010000
00001000
00010000
00000000
,
00001000
00100000
00010000
00100000
01000000
10000000
01000000
00100000
,
00010000
00000000
10010000
00000000
10000000
01000000
00010000
01000000
,
00000000
00100000
00001000
00010000
00002000
00000000
00013000
00000000
,
00000100
00001001
00000002
00000203
,
00000320
00020030
00032000
02003000
,
03100000
10010000
20000000
31000000
,
00200000
00301000
00020000
00030100
,
00000010
00001001
00000002
00000203
,
00002300
00000000
00023000
00030000
,
00022000
00000000
00000000
00000000
,
00000000
00000000
00000000
00000000
,
00000000
00000000
00000000
00000000
,
00033000
00000000
00000000
00000000
,
10000000
01000000
10000000
00100000
,
01000000
00001000
00010000
00001000
,
00010000
00000100
00001000
00000100
,
00000220
00000000
00000000
00000000
00000330
00000000
00000001
00001000
,
00002002
00003003
00000010
00022000
,
00000000
00000000
00000000
00033000
00000000
00000000
00001000
00000000
01000000
00000000
01000000
00000000
,
00022000
00000000
00033000
00000000
01000000
00100000
01200000
00000000
,
00000000
00000000
20000000
30300000
,
10000000
00100000
01000000
00100000
01000000
00010000
01000000
00001000
,
00010000
00001000
00010000
00000100
00001000
00000100
00000010
00000100
,
00001000
00000100
00001000
00000100
00000010
00000001
00000010
00000001
,
00002000
00000001
00000001
00000001
00003001
00000000
00000001
00000100
,
00000001
00000000
00000000
00000100
00000000
00000000
00001000
00000000
00000000
00000100
00000000
00000000
00000010
00000000
00010000
00000000
,
00001000
00000000
00000000
00000000
00100000
00000000
00000000
00010000
00000000
00000000
00100000
00000000
10000000
00000000
00100000
00000000
,
00010000
00000000
11000000
01000000
00100000
00000000
11000000
10000000
,
00010000
00000000
10010000
00000000
00010000
10000000
01000000
00100000
,
00010000
00000000
00000000
01000000
00000000
00000000
10000000
00000000
00000000
01000000
00000000
00000000
00010000
00000000
00100000
00000000
,
00001000
00000000
00000000
00000000
00010000
00000000
00000000
00000100
00000000
00000000
00000001
00000000
00000100
00000000
00001000
00000000
,
00000100
00000000
00000011
00000001
00001000
00000000
00000011
00000010
,
00000100
00000000
00001001
00000000
00001000
00000010
00000100
00000010
,
00001000
00000100
00010000
00000000
00001000
01000000
00010000
00000000
,
10000000
01000000
00100000
00000000
00001000
00010000
00000010
00000000
,
00000100
00000000
00000000
00000001
00000020
00000000
00000100
00000000
00000130
00000000
00000000
00010000
00002000
00000000
00010000
00000000
,
00023000
00000000
00130000
01100000
,
10000000
00100000
10000000
00100000
01000000
00010000
01000000
00001000
,
00010000
00001000
00010000
00001000
00010000
00000100
00001000
00000100
,
00000010
00000000
00000000
00000001
00000020
00000000
00000100
00000000
00000130
00000000
00000000
00010000
00002000
00000000
00010000
00000000
,
00023000
00000000
01000000
01030000
,
10010000
00000000
00000000
01100000
00000000
00000000
10010000
00010000
,
01010000
00000000
00000000
00011000
00000000
00000000
00001010
00001000
,
00001001
00000000
00000000
00000110
00000000
00000000
00001001
00000000
,
00000001
00000100
00000010
00001000
00010000
01000000
00100000
00000000
,
10000000
10000000
01000000
01000000
00100000
00100000
00001000
00001000
,
00010000
00010000
00000100
00000100
00000010
00000010
00000002
00000000
,
00001003
00000000
00000000
00001100
00000000
00000000
00011000
00000000
,
01000000
00100000
00100000
01000000
00001000
00010000
00000100
00001001
,
00000000
00000000
00000000
00000000
;
#NOTES:
     dance-double:
     :
     Hard:
     15:
     :
00000000
00000000
00000000
00000000
,
00000000
00000000
00000000
00000000
,
00000000
00000000
00000000
00000000
,
00000000
00000000
00000000
00000000
,
00000000
00000000
00000000
00000000
,
00000000
00000000
00000000
00000000
,
00000000
00000000
00000000
00000000
,
00000000
00000000
00000000
00000000
,
00000000
00000000
00000000
00000000
,
00002000
00003000
00200000
00300000
00020000
00030000
00002000
00003000
,
00001100
00000000
00000000
00000000
00000010
00000000
00000010
00000001
00000000
00000001
00000100
00000000
00000110
00000000
00000000
00000000
,
00001000
00010000
00001000
00010000
00001000
00000000
00001000
00010000
00000000
00010000
00100000
00000000
01100000
00000000
00000000
00000000
,
10010000
00000000
00000000
00000000
00100000
00000000
00100000
10000000
00000000
10000000
01000000
00000000
01100000
00000000
00000000
00000000
,
00010000
00001000
00010000
00001000
00010000
00000000
00010000
00001000
00000000
00001000
00000100
00000000
00000110
00000000
00000000
00000000
,
00001001
00000001
00000010
00001000
00010000
00100000
10000000
00010000
,
10010000
10000000
01000000
00010000
00001000
00000100
00000001
00001000
,
00000001
00000100
00000001
00000000
00001000
00000010
00001000
00000000
00000100
00010000
00000100
00010000
00001000
00010000
00001000
00010000
,
00002000
00000000
00003000
00000000
00020000
00000000
00030000
00000000
02000000
00000000
03000000
00000000
10000000
01000000
00100000
00010000
,
10000000
00000000
00100000
10000000
00010000
00000000
01000000
00000000
00100000
00000000
01000000
00001000
00010000
00000000
00001000
00000000
,
00010000
00000000
00000100
00001000
00000010
00000000
00000100
00000000
00000001
00000000
00001000
00000000
00001001
00000000
00001100
00000000
,
00000100
00000000
00000010
00000001
00001000
00000000
00000010
00000000
00000100
00000000
00000001
00001000
00000100
00000000
00010000
00000000
,
00002000
00000000
00000000
00000000
00013000
00001000
00010000
00000000
00001000
01000000
00010000
00000000
10000000
00100000
10000000
00100000
,
10000000
00000000
01000000
10000000
00100000
00000000
01000000
00000000
00010000
00000000
00100000
01000000
10000000
00000000
01000000
00000000
,
00010000
00000000
00001000
00100000
00010000
00000000
01000000
00000000
00001000
00000000
00010000
00000000
00010100
00000000
00001100
00000000
,
00001000
00000010
00000100
00000001
00000010
00001000
00000010
00000001
,
00000100
00000010
00000100
00000000
00000010
00001000
00000010
00000000
00010000
00001000
00010000
00001000
00100000
00010000
00100000
01000000
,
10000000
00000000
10010000
00000000
01000000
00010000
00001000
00011000
,
00000000
00000000
00001000
00000010
00000001
00000000
00000001
00000000
00000200
00000000
00000000
00000000
00000310
00000100
00000010
00000100
,
00000020
00000000
00000000
00000230
00000000
00000000
00002300
00000000
00000000
00013000
00100000
00010000
,
00002000
00000000
00000000
00013000
01000000
00100000
00010000
01000000
01000000
00001000
00010000
00010000
,
00000100
00001000
00000100
00000010
00000001
00000010
00000200
00000000
00000000
00000310
00000000
00001000
,
00011000
00000000
00000000
00001000
00000000
01000000
01100000
00000000
00000000
00100000
00000000
00010000
,
00011000
00000000
00000000
00001001
00000000
00000000
00000001
00000100
00000010
00001000
00010000
01000000
,
00200000
00000000
20300000
00000000
,
30020000
00000000
00000000
00000000
,
00000000
00000000
00032000
00000000
,
00003020
00000000
00000000
00000000
,
00000230
00000000
00000000
00000000
,
00000310
00010000
00001000
00000000
00010000
00000010
00001000
00000000
,
00000100
00010000
00001000
00000000
01000000
00001000
00010000
00000000
,
00000010
00010000
00001000
00000000
00100000
00010000
01000000
00000000
,
02100000
00000000
00000000
00000000
00000000
00000000
00000000
00000000
10000000
00000000
00000000
00100000
00000000
00000000
03001000
00000000
,
00022000
00033000
00000100
00000220
,
00000000
00000000
00000000
00000330
00000000
00000000
00000001
00000000
00000100
00000000
00001000
00000000
,
00022000
00000000
00033000
00000000
00010000
01000000
02200000
00000000
,
00000000
00000000
03300000
00000000
20020000
00000000
00000000
30030000
,
10000000
01000000
10000000
01000000
00100000
00010000
00001000
00000100
,
00000010
00000001
00000010
00000001
00000100
00000010
00001000
00010000
,
01000000
00100000
01000000
00000000
00100000
10000000
00100000
00000000
10000000
01000000
00100000
01000000
00100000
00001000
00010000
00001000
,
00020000
00000000
00001000
00000000
00001000
00000000
00031000
00000000
00001000
00010000
00001000
00000000
00010000
00000100
00001000
00000100
,
00000010
00000000
00000000
00001100
00000000
00000000
00010010
00000000
00000000
00001100
00000000
00000000
00010010
00000000
00001000
00000000
,
00000200
00000000
00000000
00000000
00001300
00000000
00000000
00010100
00000000
00000000
00001010
00000000
00000100
00000000
00010000
00000000
,
00001000
00000000
00000000
00100000
00010000
00100000
00010000
10000000
01000000
00000000
00000000
00100000
00010000
00100000
00010000
10000000
,
01000000
00000000
00000000
00010000
00000000
00000000
00001000
00000000
00100000
00010000
00100000
00000000
00010000
01000000
00010000
00000000
,
00100000
00000000
00000000
01010000
00000000
00000000
00101000
00000000
00000000
01010000
00000000
00000000
00101000
00000000
00010000
00000000
,
02000000
00000000
00000000
00000000
03010000
00000000
00000000
01001000
00000000
00000000
00110000
00000000
01000000
00000000
00001000
00000000
,
00010000
00000000
00000000
00000010
00001000
00000010
00001000
00000001
00000100
00000000
00000000
00000010
00001000
00000010
00001000
00000001
,
00000100
00000000
00000000
00001000
00000000
00000000
00010000
00000000
00001000
00010000
00001000
00010000
00000100
00001000
00000100
00001000
,
00000001
00000000
00000100
00000010
00000100
00000000
00000010
00001000
00000010
00000000
00010000
00001000
00010000
00000000
00001000
00000000
,
00200000
00000000
00000000
00000000
00310000
00000000
01000000
00010000
01000000
00000000
00100000
10000000
00100000
00000000
10000000
01000000
,
20000000
00000000
00000000
30010000
00100000
00001000
00100000
00001000
00010000
00000000
00000000
00000100
00001000
00000010
00001000
00000010
,
00000100
00000000
00000000
00000001
00000000
00000000
00000010
00000000
00001000
00010000
00001000
00000000
00100000
00010000
00100000
00010000
,
10000000
00000000
00100000
01000000
00100000
00000000
01000000
00010000
01000000
00000000
00001000
00010000
00001000
00000000
00010000
00000000
,
00000200
00000000
00000000
00000000
00001300
00000000
00000010
00001000
00000010
00000000
00000100
00000001
00000100
00000000
00000001
00000010
,
00000002
00000000
00000000
00001003
00000100
00010000
00000100
00010000
00001000
00000000
00000000
00100000
00010000
01000000
00010000
01000000
,
00200000
00000000
00000000
00000000
00310000
00000000
00022000
00033000
,
00001100
00000000
00000010
00000011
00000000
00000001
00000100
00001000
,
00011000
00000000
00100000
01100000
00000000
10000000
01000000
00010000
,
00011000
00000000
00000010
00000110
00000000
00000001
00000010
00000100
,
00001000
00000000
00000010
00001000
00000010
00000000
00010000
00001000
00000000
00001000
00010000
00000000
00002000
00000000
00003000
00000000
,
00100000
00100000
00010000
00010000
10000000
10000000
01000000
01000000
,
00010000
00010000
00001000
00001000
00000010
00000010
00000220
00000330
,
00001001
00000000
00000100
00010100
00000000
00001000
01001000
00010000
,
01000000
00000000
00100000
00000000
10000000
00010000
10000000
00000000
00100000
00000000
00010000
00000000
00001000
00000000
00000100
00000001
,
00000000
00000000
00000000
00000000
;
#NOTES:
     dance-double:
     :
     Challenge:
     17:
     :
00000000
00000000
00000000
00000000
,
00000000
00000000
00000000
00000000
,
00000000
00000000
00000000
00000000
,
00000000
00000000
00000000
00000000
,
00000000
00000000
00000000
00000000
,
00000000
00000000
00000000
00000000
,
00000000
00000000
00000000
00000000
,
00000000
00000000
00000000
00000000
,
00000000
00000000
00000000
00000000
,
20000000
32000000
03200000
00320000
00032000
00003200
00000320
00000032
,
00001003
00000000
00000000
00000000
00000010
00000000
00000100
00000010
00000000
00000010
00000100
00000000
00001001
00000000
00000000
00000000
,
00000001
00000010
00000100
00001000
00010000
00000000
00100000
01000000
00000000
01000000
00100000
00000000
01100000
00000000
00000000
00000000
,
10010000
00000000
00000000
00000000
00100000
00000000
01000000
00100000
00000000
00100000
01000000
00000000
10010000
00000000
00000000
00000000
,
10000000
01000000
00100000
00010000
00001000
00000000
00000100
00000010
00000000
00000010
00000100
00000000
00001001
00000000
00000000
00000000
,
00000010
00000100
00000001
00000000
00000010
00000100
00001000
00000000
00000010
00000100
00001000
00000000
00010000
00100000
01000000
00000000
,
00010000
00100000
01000000
00000000
10000000
00100000
01000000
00000000
00100000
01000000
00010000
00000000
00001000
00000010
00000100
00000000
,
00000001
00000010
00000001
00000010
00000100
00001000
00000100
00010000
00001000
00100000
00010000
00100000
01000000
10000000
01000000
10000000
,
01000000
00000000
00000000
00000000
01000000
00000000
00000000
00000000
01000000
00000000
00000000
00000000
01000000
00100000
00010000
00000000
,
10010000
00100000
01100000
00010000
00110000
00100000
00011000
00001000
,
00010010
00000000
00001000
00000000
00001010
00000000
00000100
00000000
00000101
00000000
00000010
00001000
00000100
00000000
00000110
00000000
,
00000011
00001000
00001100
00000100
00011000
00001000
01010000
01000000
,
01100000
00000000
00000000
00000000
10000000
00100000
00010000
00100000
10000000
01000000
00010000
00001000
00010000
00010000
00001000
00001000
,
00010000
00000100
00001100
00000010
00000011
00001000
00001010
00000100
,
00011000
00100000
00110000
01000000
11000000
00100000
00110000
00001000
,
00011000
00000100
00010100
00000100
00011000
01000000
01001000
01000000
,
00001000
00010000
00001000
00010000
00000010
00001000
00000010
00001000
00000001
00000010
00001000
00000010
00000001
00001000
00000100
00010000
,
00011000
00000000
01100000
00000000
20000000
32000000
03010000
00011000
,
00000000
00000000
00001000
00000001
00001000
00000000
00001000
00000000
00000220
00000000
00000330
00000000
00001000
00000010
00001000
00000010
,
00001100
00000000
00000000
00000101
00000000
00000000
00000110
00000000
00000000
00000001
00000100
00001000
,
00011000
00000000
00000000
01000000
00010000
00100000
01100000
01000000
10000000
10010000
00010000
00100000
,
00101000
00001000
00010000
00000010
00001000
00000100
00000002
00000000
00000000
00000103
00000000
00001000
,
00010100
00000000
00000000
01000000
00000000
00010000
01001000
00000000
00000000
00010000
00000000
10000000
,
01100000
00000000
00000000
10010000
00000000
00000000
10000000
00100000
00010000
00001000
00000100
00000001
,
00000020
00000030
00002000
00003000
,
00020000
00000000
00000000
00000000
,
00000000
00000000
00000000
00030000
,
00100000
10000000
00100000
00000000
10000000
01000000
10000000
00000000
00010000
00100000
00010000
00000000
01000000
00010000
01000000
00000000
,
00001000
00010000
00001000
00000000
00010000
00000010
00010000
00000000
00000100
00001000
00000100
00000000
00000010
00000001
00000010
00000000
,
00000001
00000100
00000010
00000100
00000001
00001000
00000010
00000000
00001000
00000100
00010000
00000100
00001000
00000100
00010000
00000000
,
00001000
00100000
00010000
01000000
00010000
00100000
01000000
00000000
10000000
00100000
01000000
00010000
10000000
01000000
00100000
00000000
,
00001000
00010000
00000100
00001000
00000010
00000100
00000010
00000000
00000100
00000001
00000010
00000100
00001000
00000100
00010000
00000000
,
00022000
00000000
00000000
00000000
00000000
00000000
00000000
00033000
,
02200000
03300000
10000000
02200000
,
00000000
00000000
00000000
03300000
00000000
00000000
00011000
00000000
00000110
00000000
00001001
00000000
,
00000220
00000000
00000330
00000000
00001000
00010000
00022000
00000000
,
00000000
00033000
02200000
03300000
,
10000000
01000000
10000000
00000000
10000000
00100000
10000000
00000000
10000000
01000000
00100000
00000000
00100000
00001000
00010000
00000000
,
00000100
00001000
00000100
00000000
00000100
00000010
00000100
00000000
00000100
00001000
00000001
00000000
00000001
00000100
00000010
00000000
,
00001000
00000010
00001000
00000010
00010000
00001000
00010000
00001000
01000000
00010000
01000000
00010000
10000000
01000000
10000000
01000000
,
00200000
00000000
01000000
00000000
01000000
00000000
01000000
00000000
01300000
00100000
01000000
00000000
10000000
01000000
10000000
01000000
,
00100000
00000000
00010000
00110000
00000000
00000000
00001000
00000000
00000100
00000110
00000000
00000000
00001001
00000000
00000110
00000000
,
00001001
00000000
00000000
00000000
00000101
00000000
00001000
00001010
00000000
00000000
00010000
00000000
01010000
00000000
10100000
00000000
,
10010000
00000000
00000000
10000000
01000000
00100000
00100000
00100000
00010000
00000000
00000000
00001000
00000100
00000010
00000010
00000010
,
00000001
00000000
00000000
00000100
00000000
00000000
00000110
00000000
00000001
00000100
00000001
00000100
00000010
00001000
00000010
00001000
,
00000010
00000000
00001000
00001010
00000000
00000000
00010000
00000000
01000000
01100000
00000000
00000000
10010000
00000000
01100000
00000000
,
10010000
00000000
00000000
00000000
11000000
00000000
00010000
00110000
00000000
00000000
00001000
00000000
00001100
00000000
00000011
00000000
,
00001001
00000000
00000000
00000001
00000010
00000100
00000100
00000100
00001000
00000000
00000000
00010000
00100000
01000000
01000000
01000000
,
10000000
00000000
00000000
00100000
00000000
00000000
01100000
00000000
10000000
00100000
10000000
00100000
01000000
00010000
01000000
00010000
,
10000000
00000000
01000000
00010000
00001000
00000000
00001000
00000010
00000001
00000000
00000100
00000010
00001000
00000000
00000100
00000010
,
00000001
00000000
00000100
00001000
00010000
00000000
00010000
00100000
10000000
00000000
01000000
00100000
00010000
00000000
01000000
00100000
,
10000000
00000000
00000000
01000000
00010000
00001000
00001000
00001000
00010000
00000000
00000000
00000100
00010000
00001000
00001000
00001000
,
00010000
00000000
00000000
00000100
00000000
00000000
00010000
00000000
00001000
00010000
00000100
00000010
00001000
00000010
00000100
00001000
,
00000001
00000000
00000010
00001000
00010000
00000000
00010000
01000000
10000000
00000000
00100000
01000000
00010000
00000000
00100000
01000000
,
10000000
00000000
00100000
00010000
00001000
00000000
00001000
00000100
00000001
00000000
00000010
00000100
00001000
00000000
00000010
00000100
,
00000001
00000000
00000000
00000010
00001000
00010000
00010000
00010000
00001000
00000000
00000000
00100000
00001000
00010000
00010000
00010000
,
00002000
00000000
02003000
13000000
,
10100000
00000000
00000000
01010000
00000000
00000000
00001010
00000000
,
00000101
00000000
00000000
00000011
00000000
00000000
00001100
00000000
,
00110000
00000000
00000000
11000000
00000000
00000000
10010000
00000000
,
10000000
01000000
10000000
01000000
00010000
00000000
00010000
00001000
00000000
00001000
00000010
00000000
00001001
00000000
00000000
00000000
,
00000001
00000100
00000010
00000100
00000001
00000100
00000010
00001000
00000100
00010000
00001000
00100000
00010000
01000000
00100000
00000000
,
10000000
01000000
00100000
01000000
10000000
01000000
00100000
00010000
01000000
00001000
00010000
00000100
00002000
00000000
00003000
00000000
,
00000110
00000000
00000001
00000100
00001000
00000000
00011000
00000000
00010000
00100000
10000000
00000000
01100000
00000000
10010000
00000000
,
00100000
10000000
01000000
10000000
00100000
00010000
00001000
00000100
00000001
00000010
00000001
00000100
00001000
00010000
00001000
00001000
,
00000000
00000000
00000000
00000000
;
