
//----- song ID: cart2 -----//
#TITLE:CARTOON HEROES (20th Anniversary Mix);
#ARTIST:nc ft.Jasmine And DARIO TODA;
#BANNER:CARTOON HEROES (20th Anniversary Mix).png;
#BACKGROUND:CARTOON HEROES (20th Anniversary Mix)-bg.png;
#CDTITLE:./CDTitles/DDR A20.png;
#MUSIC:CARTOON HEROES (20th Anniversary Mix).ogg;
#SAMPLESTART:55.035;
#SAMPLELENGTH:15;
#BPMS:0=170;
#STAGE:16;
#NOTES:
     dance-single:
     :
     Beginner:
     4:
     :
0000
0000
0000
0000
,
0000
0000
0000
0000
,
0000
0000
0000
0000
,
0000
0000
0000
0000
,
0000
0000
0000
0000
,
0001
0000
1000
0000
,
0001
0000
0000
0000
,
1000
0000
0001
0000
,
1001
0000
0000
0000
,
0001
0000
0010
0000
,
0001
0000
0001
0000
,
0001
0000
0100
0000
,
0001
0000
0001
0000
,
1000
0000
0010
0000
,
1000
0000
1000
0000
,
1000
0000
0100
0000
,
1000
0000
0000
0000
,
0001
0000
0010
0000
,
0001
0000
0001
0000
,
0001
0000
0100
0000
,
0001
0000
0001
0000
,
1000
0000
0010
0000
,
1000
0000
0000
0000
,
0001
0001
0001
0000
,
0010
0000
0100
0000
,
0001
0001
0001
0000
,
0100
0000
0010
0000
,
0001
0001
0001
0000
,
0010
0000
0000
0000
,
1001
0000
0000
0000
,
1001
0000
0000
0000
,
1000
1000
1000
0000
,
0010
0000
0100
0000
,
1000
1000
1000
0000
,
0100
0000
0010
0000
,
1000
1000
1000
0000
,
0010
0000
0100
0000
,
0001
0000
1000
0000
,
0001
0000
1000
0000
,
0001
0000
0100
0000
,
0001
0001
0001
0000
,
0001
0000
0010
0000
,
0001
0001
0001
0000
,
1000
0000
0100
0000
,
1000
1000
1000
0000
,
1000
0000
0010
0000
,
2000
0000
3000
0000
,
0001
0001
0001
0000
,
1000
1000
1000
0000
,
0100
0000
0001
0000
,
0010
0000
0001
0000
,
1000
1000
1000
0000
,
0001
0001
0001
0000
,
0100
0000
1000
0000
,
0020
0000
0030
0000
,
0001
0001
0001
0000
,
1000
1000
1000
0000
,
0001
0000
1000
0000
,
1001
0000
0000
0000
,
1001
0000
0000
0000
,
2002
0000
0000
0000
,
3003
0000
0000
0000
,
0001
0000
0010
0000
,
0100
0100
0100
0000
,
0001
0000
0100
0000
,
0010
0010
0010
0000
,
1000
0000
0010
0000
,
0100
0100
0100
0000
,
1000
0000
0100
0000
,
0010
0010
0010
0000
,
1001
0000
0000
0000
,
0000
0000
0000
0000
;
#NOTES:
     dance-single:
     :
     Easy:
     9:
     :
0000
0000
0000
0000
,
0000
0000
0000
0000
,
0000
0000
0000
0000
,
0000
0000
0000
0000
,
0000
0000
0000
0000
,
0100
0100
0100
0010
,
1000
1000
1000
0001
,
0010
0010
0010
0100
,
2002
0000
0000
3003
,
0100
0010
0100
0010
,
1000
0001
0000
1001
,
0100
0010
0100
0010
,
0001
1000
0000
1001
,
0010
0100
0010
0100
,
1000
0001
0000
1001
,
0001
0100
0010
1000
,
0001
0010
0100
1000
,
0001
1000
0001
1000
,
0100
0010
0000
0110
,
0001
1000
0001
1000
,
0010
0100
0000
0110
,
0100
0010
0010
0000
,
0100
0010
0010
0000
,
0001
0101
0110
1010
,
1000
0000
0100
0010
0000
0001
1000
0000
,
1000
1100
0110
0011
,
0001
0000
0100
0010
0000
1000
0001
0000
,
0010
0000
0011
0000
1001
0000
1000
0001
,
0000
0000
1000
0010
0000
1000
0100
0000
,
0010
0000
0001
0000
0011
0000
0100
1000
,
0000
0100
0000
1100
0000
0010
0001
0000
,
0001
0011
0110
1100
,
1000
0000
0010
0100
0000
0001
1000
0000
,
1000
0000
1010
0000
0110
0000
0100
0001
,
0000
0001
1000
0010
0000
0000
0100
0000
,
0002
0000
1003
0000
1001
0000
0000
2000
,
0000
0001
3001
0000
1001
0000
1000
0000
,
0100
0000
0010
0000
0110
0000
0100
1000
,
0000
0001
0001
0000
1000
0000
1001
0000
,
0001
0100
0010
1000
0001
0000
0001
0000
,
1000
0001
1000
1000
,
0010
0001
1000
0100
0010
0000
0010
0000
,
0001
0010
0100
1000
,
1000
0100
0010
0001
1000
0000
1000
0000
,
0100
0010
0100
0010
,
0100
0101
0100
0101
,
1001
0000
0000
1001
,
0010
0001
0010
0100
1000
0000
1000
0000
,
0010
1000
0010
0100
0001
0000
0001
0000
,
1000
0100
0001
0010
,
0001
0100
1000
0010
,
0100
0001
0100
0010
1000
0000
1000
0000
,
0100
1000
0100
0010
0001
0000
0001
0000
,
0001
0100
1000
0010
,
1000
0100
0001
0010
,
0010
0001
0010
0100
1000
0000
0001
0000
,
0010
1000
0010
0100
0001
0000
1000
0000
,
1000
0100
0010
0100
,
0001
0001
0010
0010
,
1000
1000
0001
0001
,
1000
0001
1000
0000
0001
1000
0001
0000
,
2002
0000
0000
3003
,
0001
1000
0001
0010
0100
0000
0100
0000
,
1000
0010
0100
0001
,
1000
0001
1000
0010
0100
0000
0100
0000
,
0001
0010
0100
1000
,
0001
0010
0001
1000
0100
0000
0100
0000
,
1000
0001
0100
0010
,
1000
0010
1000
0001
0100
0000
0010
0000
,
0100
0010
0100
0000
0001
0010
0001
1000
,
0020
0000
0000
0000
,
0000
0000
0000
0000
,
0030
0000
0000
0000
,
0000
0000
0000
0000
;
#NOTES:
     dance-single:
     :
     Medium:
     14:
     :
0000
0000
0000
0000
,
0000
0000
0000
0000
,
0000
0000
0000
0000
,
0000
0000
0000
0000
,
0000
0000
0000
0000
,
0100
0000
0100
0000
0001
1000
0001
0010
,
0100
0000
0100
0000
1000
0001
1000
0010
,
0100
0010
0100
0000
0001
0010
0001
1000
,
0020
0000
0000
0030
,
0100
1010
1001
0011
,
0001
0000
1000
0020
0000
0100
0100
0030
,
0010
0101
1001
1100
,
1000
0000
0001
0200
0000
0010
0010
0300
,
0100
0000
1010
0000
1001
0000
0010
0100
,
0000
0000
0010
1000
0000
0100
0010
0001
,
1010
0000
0110
0000
0101
0000
1000
1010
,
0000
1001
0000
1100
0000
0010
0001
0010
,
0100
1000
0100
0000
1001
0000
0101
0000
,
0010
1000
0001
0100
0000
0010
1000
0000
,
0100
0100
0011
0000
1001
0000
1100
0010
,
0001
0000
0100
0010
0000
1000
0001
0100
,
0010
0000
1010
0000
0101
0000
1000
0100
,
0000
0000
0010
0000
0001
0000
0000
0000
1000
0100
1000
0000
0001
0000
1000
0000
,
0100
0000
0010
0000
0001
0000
0000
0000
1000
0000
0010
0000
1000
0000
0000
0010
,
1000
0000
0000
1000
0001
0000
0020
0000
0000
0000
0100
0000
0100
0000
0030
0000
,
0010
0000
0100
0000
1000
0000
0000
0000
0001
0000
0100
0000
0001
0000
0000
0100
,
0001
0000
0000
0001
1000
0000
0200
0000
0000
0000
0010
0000
0010
0000
0300
0000
,
0100
0010
0001
0000
1000
0010
0100
0001
,
0100
0000
0010
1000
0000
0100
0100
0000
,
0010
1000
0000
0000
1000
0001
0000
0000
0001
0010
0000
0000
0100
0000
1000
0000
,
0000
1001
0000
0101
0000
0010
1000
0010
,
0100
0001
0101
1000
1001
0100
1100
0000
,
0010
0001
1000
0100
0000
0010
0001
0001
,
0100
0100
1010
1000
1001
0001
0101
0010
,
1000
0100
0001
0100
1000
0010
1000
0100
,
0010
0001
0000
0000
0001
0010
0000
0000
0010
0100
0000
0000
0100
0000
0010
0000
,
0001
0100
1000
0100
0001
0010
0001
0100
,
0010
1000
0000
0000
1000
0010
0000
0000
0010
0100
0000
0000
0101
0000
1010
0000
,
0000
0000
1000
0000
0100
0000
0010
0000
0001
0100
0001
0000
1001
0000
0000
0000
,
1000
0100
1000
0010
0200
0000
0301
0010
,
0001
0100
1000
0100
0001
0010
0001
0100
,
0010
1000
0100
1000
0010
0001
0010
1000
,
0100
0010
0000
0000
0010
0001
0000
0000
0001
1000
0000
0000
1000
0010
0000
0000
,
0100
0001
0010
0001
0200
0000
0301
1000
,
0100
0010
0001
0100
0010
1000
0100
0001
,
0100
1000
0010
0100
0001
0010
0100
0000
,
2100
0000
3001
0012
0000
1003
1001
0000
,
0001
0100
1000
0100
0001
0010
0100
1000
,
0010
0100
0001
0100
1000
0100
0001
0010
,
0100
1000
0000
0000
1000
0001
0000
0000
0001
0100
0000
0000
0100
0010
0000
0000
,
0010
0001
0000
0000
0001
0010
0000
0000
0010
1000
0000
0000
1000
0001
0000
0000
,
0001
0100
1000
0010
1000
0100
0010
1000
,
1000
0100
0001
0010
0001
0100
0010
0001
,
0001
0100
0000
0000
0100
1000
0000
0000
1000
0100
0000
0000
0100
0001
0000
0000
,
0011
0110
1100
1001
,
1000
0010
0001
0100
0001
0010
0100
0001
,
0001
0010
1000
0001
1000
0010
0100
1000
,
1000
0010
0000
0000
0010
0001
0000
0000
0001
0010
0000
0000
0010
1000
0000
0000
,
1000
0100
0000
0100
0010
0000
0002
0000
1000
0000
0000
0000
1003
0000
0000
0000
,
0001
0100
0000
0100
0010
0000
2000
0000
0001
0000
0000
0000
3001
0000
0000
0000
,
1000
0100
0000
0100
0010
0000
0010
0001
0000
0001
0100
0000
0010
0000
0010
0000
,
2002
0000
0000
3003
,
0010
0001
0010
0100
1000
0000
1000
0000
,
0010
1000
0010
0100
0001
0000
0001
0000
,
0100
0001
0100
0010
1000
0000
1000
0000
,
0100
1000
0100
0010
0001
0000
0001
0000
,
0110
1100
1001
1010
,
0110
0101
1001
1100
,
0010
0010
0110
0110
,
1000
0001
1000
0000
0001
1000
0001
0000
,
2002
0000
0000
0000
,
0000
0000
0000
0000
,
3003
0000
0000
0000
,
0000
0000
0000
0000
;
#NOTES:
     dance-single:
     :
     Hard:
     16:
     :
0000
0000
0000
0000
,
0000
0000
0000
0000
,
0000
0000
0000
0000
,
0000
0000
0000
0000
,
0000
0000
0000
0000
,
0100
0001
1000
0100
0010
0001
1000
0100
,
0010
0001
0100
0010
1000
0001
0100
0010
,
1000
0010
0100
0001
1000
0100
0010
0100
,
2002
0000
0000
3003
,
0100
0000
0000
0000
1010
0000
0000
0000
1001
0000
0000
0000
0011
0000
0000
0010
,
0001
0000
0000
0001
1000
0000
1020
0000
0000
0000
0100
0000
0100
0000
0130
0000
,
0010
0000
0000
0000
0101
0000
0000
0000
1001
0000
0000
0000
1100
0000
0000
0100
,
1000
0000
0000
1000
0001
0000
0201
0000
0000
0000
0010
0000
0010
0000
0310
0000
,
0100
0000
1010
0000
1001
0000
0010
0100
,
0100
0000
0010
1000
0000
0100
0010
0001
,
1000
0010
0000
0000
0010
0100
0000
0000
0100
0001
0000
0000
1001
0000
1010
0000
,
0000
1001
0000
1100
0000
0010
0001
0010
,
0100
1000
1100
0000
1001
0000
0101
0000
,
0010
1000
0001
0100
0000
0010
1000
1000
,
0100
0100
0011
0000
1001
0000
1100
0010
,
0001
0000
0100
0010
0000
1000
0001
0100
,
0010
1000
0000
0000
1000
0010
0000
0000
0101
0000
0000
0000
1000
0000
0100
0000
,
0000
0000
0010
0000
0001
0000
0000
0000
1000
0100
1000
0000
0001
0000
1000
0000
,
1100
0000
0010
0000
0011
0000
0000
0000
1001
0000
0010
0000
1010
0000
0000
0010
,
1000
0000
0000
1000
0001
0000
0011
0000
0000
0000
0100
1000
0100
1000
0100
0000
,
0110
0000
0001
0000
0101
0000
0000
0000
1001
0000
0100
0000
0101
0000
0000
0100
,
0001
0000
0000
0001
1000
0000
1100
0000
0000
0000
0010
0001
0010
0001
0010
0000
,
0100
0000
1000
0000
1010
0000
0000
0000
1001
0000
0010
0000
0100
0000
0001
1000
,
0001
0000
0000
0000
1000
0000
0010
0000
0000
0000
0100
0010
0100
0010
0100
0000
,
0010
1000
0000
0000
1000
0001
0000
0000
0001
0010
0000
0000
0110
0000
1100
0000
,
0000
0000
1001
0000
0000
0000
0101
0000
0000
0000
0010
1000
0010
1000
0010
0000
,
0100
0000
0001
0000
0101
0000
1000
0000
1001
0000
0100
1000
0100
0000
0000
0000
,
0010
0000
0001
0000
1000
0000
0100
0000
0000
0000
0010
0000
0001
0010
0001
0000
,
0100
0010
0100
0000
1010
0000
1000
0000
1001
0000
0001
0000
0101
0000
0010
1000
,
0010
0000
1000
0000
0100
0000
0001
0000
0100
0000
1000
0010
1000
0000
0100
0000
,
0010
0001
0010
0000
0001
0010
0001
0000
1000
0100
1000
0000
0110
0000
0010
0000
,
0001
0100
1000
0100
0001
0010
0001
0100
,
0010
1000
0010
0000
0100
0001
0100
0000
0010
0100
0010
0000
0101
0000
1010
0000
,
0000
0000
1000
0000
0100
0000
0010
0000
0001
0100
0001
0000
1001
0000
0000
0000
,
1000
0000
0100
0000
1000
0000
0010
0000
0100
0001
0100
0000
0001
0010
0001
0000
,
1000
0100
0001
0100
1000
0010
1010
0100
,
0010
0000
1000
0000
0100
0000
1000
0000
0010
0001
0010
0000
1000
0010
1000
0000
,
0100
0010
0000
0000
0010
0001
0000
0000
0001
1000
0000
0000
1000
0010
0000
0000
,
0100
0000
0001
0000
0010
0000
0001
0000
0100
0010
0100
0000
0001
1000
0001
0000
,
0010
0100
1000
0010
0100
0001
0011
0100
,
0010
0000
0001
0000
0100
0000
0010
0000
1000
0100
1000
0000
0001
0010
0001
0000
,
0012
0000
0000
0000
1003
0000
2100
0000
0000
0000
3001
1000
0001
0000
0000
0000
,
0001
0100
0001
0100
1000
0000
0100
0000
0001
0010
0100
0000
1100
0000
0000
0000
,
0010
0100
0001
0100
0010
0000
0100
0000
1000
0100
0001
0000
0011
0000
0000
0000
,
0100
1000
0100
0000
1000
0001
1000
0000
0001
0100
0001
0000
0100
0010
0100
0000
,
0010
0001
0010
0000
0001
0010
0001
0000
0010
1000
0010
0000
1000
0001
1000
0000
,
0001
0100
0001
0100
1000
0000
0001
0000
1000
0100
0010
0000
1010
0000
0000
0000
,
1000
0100
1000
0100
0001
0000
1000
0000
0001
0100
0010
0000
0011
0000
0000
0000
,
0001
0100
0001
0000
0100
1000
0100
0000
1000
0100
1000
0000
0100
0001
0100
0000
,
0001
0100
1010
0000
1000
0100
0011
0000
,
1000
0000
0001
0100
0001
0100
0010
0000
0100
0001
0100
0001
0010
0000
0000
0000
,
0001
0000
1000
0010
1000
0010
0100
0000
0010
1000
0010
1000
0100
0000
0000
0000
,
1000
0010
0000
0000
0010
0001
0000
0000
0001
0010
0000
0000
0010
1000
0000
0000
,
1000
0100
1000
0100
0010
0000
0002
0000
1000
0000
1000
0000
1003
0000
0000
0000
,
0001
0100
0001
0100
0010
0000
2000
0000
0001
0000
0001
0000
3001
0000
0000
0000
,
1000
0100
0000
0100
0010
0000
0010
0001
0000
0001
0100
0000
0010
0000
0010
0000
,
1001
0000
0000
0000
1001
0000
0000
0000
1001
0000
0010
0100
0010
0000
0000
0000
,
1000
0000
0001
0100
0010
0100
0001
0100
0010
0000
1000
0000
0100
0000
0010
0000
,
0011
0100
1100
1000
1001
0010
1010
0000
,
0001
0000
1000
0010
0100
0010
1000
0010
0100
0000
0001
0000
0010
0000
0100
0000
,
1100
0010
0011
0001
1001
0100
0101
0000
,
1000
0000
0001
0100
1000
0100
0001
0100
1000
0000
0100
0000
0010
0000
1000
0000
,
1100
0100
0110
0010
0011
0001
1001
0100
,
0010
1000
0001
0000
0010
0100
1000
0000
0001
0010
0001
0010
0100
1000
0100
1000
,
0010
0100
0000
0001
0010
0100
0000
1000
0100
0010
0001
0100
0010
1000
0010
0100
,
0002
0000
0000
0000
,
0000
0000
0000
0000
,
0003
0000
0000
0000
,
0000
0000
0000
0000
;
#NOTES:
     dance-single:
     :
     Challenge:
     18:
     :
0000
0000
0000
0000
,
0000
0000
0000
0000
,
0000
0000
0000
0000
,
0000
0000
0000
0000
,
0000
0000
0000
0000
,
0001
0010
MMMM
0001
0100
1000
MMMM
0001
,
0010
1000
MMMM
0010
0001
0100
MMMM
1000
,
0010
0100
0001
0000
0010
0100
1000
0000
0010
0100
0010
0100
0010
0000
0000
0000
,
2002
0000
0000
0000
0000
3003
MMMM
0000
,
1010
0000
0100
0000
1100
0000
0000
0000
0011
0000
0100
0000
0101
0000
0000
0001
,
0100
0000
0000
1000
0100
0000
0102
0000
0000
0000
0010
0000
0013
0000
MMMM
0000
,
1100
0000
0010
0000
1010
0000
0000
0000
0101
0000
0010
0000
0011
0000
0000
0001
,
0010
0000
0000
1000
0010
0000
0012
0000
0000
0000
0100
0000
0103
0000
MMMM
0000
,
0101
0001
0011
0000
1100
1000
0010
1010
,
MMMM
0000
1010
0000
0001
0000
1001
0000
MMMM
0000
1000
0001
1000
0001
1000
0000
,
0001
0010
0100
0000
1000
0010
0100
0000
0001
0100
0010
0000
1010
0000
1001
0000
,
MMMM
0000
0110
0000
MMMM
0000
1001
0000
MMMM
0000
0010
0100
0010
0000
0000
0000
,
1000
0010
1000
0000
1010
0000
0001
0000
0001
0010
0001
0000
0011
0000
1000
0000
,
1000
0010
1000
0010
0100
0000
0210
0000
0000
0000
1300
0100
0001
0000
0000
0000
,
0010
0001
0100
0001
0010
0000
0110
0000
0100
1000
0010
1000
0100
0000
0001
0100
,
2000
0000
0010
0010
0000
0100
3100
MMMM
,
0001
0010
1000
0000
0001
0100
1000
0000
0001
0010
1000
0000
0001
0100
1000
0100
,
0001
0000
MMMM
0000
1001
0000
0000
0000
0001
1000
0001
1000
0002
0000
0000
0000
,
1003
0000
0010
0100
0001
0000
0010
0100
1000
0000
0001
0010
0100
0000
1000
0010
,
0100
0000
0001
0010
0001
1000
0100
0000
1000
0010
1000
0010
1000
0100
0010
0001
,
0010
0000
0001
1000
0100
0000
1000
0001
0100
0000
0010
1000
0001
0000
0010
0100
,
0010
0000
0001
0100
0001
1000
0010
0000
0100
0010
0100
0010
1000
0001
0010
0100
,
0010
0000
0001
0100
0010
0000
0001
0010
0100
0000
0010
0100
1000
0000
0100
0001
,
1000
0000
0100
0001
0100
0010
0100
0000
1000
0001
1000
0001
0010
0100
1000
0100
,
1000
0000
0010
1000
0100
0000
0010
0001
0100
0000
0010
1000
0100
0000
0110
0000
,
MMMM
0000
0011
0000
MMMM
0000
1100
0000
MMMM
0000
1000
0001
1000
0001
1000
0000
,
0001
0010
0001
0010
0100
0000
MMMM
0000
1000
0010
1000
0010
0100
0000
MMMM
0000
,
0001
0100
0010
0100
0001
0000
1000
0100
0010
0100
1000
0000
1001
0000
MMMM
0000
,
1000
0001
0100
0000
0001
0010
0001
0010
0100
0000
MMMM
0000
0001
0010
0100
1000
,
0001
0000
0100
1000
0100
0000
MMMM
0000
1000
0010
1000
0010
0100
0001
0100
0001
,
1000
MMMM
0110
MMMM
0001
MMMM
0110
1001
,
MMMM
0000
1001
0000
0110
0000
MMMM
0000
1000
0000
1000
0000
0001
0000
0001
0100
,
0010
MMMM
1001
MMMM
0100
MMMM
1001
1001
,
MMMM
0110
0110
MMMM
2002
3003
MMMM
0000
,
1000
0000
0001
0010
0001
0000
1000
0000
0100
0010
0001
0100
0010
0000
1000
0000
,
0010
0100
0010
0100
MMMM
0000
0100
0010
0100
0010
MMMM
0000
0110
0000
1001
0000
,
0001
0100
0001
0000
1000
0100
1000
0000
0001
0100
0000
1000
0001
0010
1000
0000
,
0001
0010
MMMM
0000
1000
0010
MMMM
0000
0001
0100
MMMM
0000
1000
0100
MMMM
0000
,
0001
0000
1000
0100
1000
0000
0001
0000
0010
0100
1000
0010
0100
0000
0001
0000
,
0100
0010
0100
0010
MMMM
0000
0010
0100
0010
0100
MMMM
0000
0110
0000
1001
0000
,
1000
0010
1000
0000
0001
0010
0001
0000
1000
0010
0001
1000
0100
0000
0001
0000
,
0011
MMMM
0110
1100
MMMM
0010
0110
0000
,
1000
0001
1000
0001
0100
0010
0100
0010
1000
0001
0100
0010
1000
0000
MMMM
0000
,
0001
1000
0001
1000
0100
0010
0100
0010
0001
1000
0100
0010
0001
0000
MMMM
0000
,
1000
0010
1000
0010
0100
0001
0010
0001
1000
0100
1000
0100
0010
0001
0100
0001
,
0010
1000
0010
1000
0001
0100
0001
0100
1000
0010
0100
0001
1000
0000
MMMM
0000
,
0001
1000
0001
1000
0010
0100
0010
0100
0001
1000
0010
0100
0001
0000
MMMM
0000
,
1000
0001
1000
0001
0010
0100
0010
0100
1000
0001
0010
0100
1000
0000
MMMM
0000
,
0001
0100
0001
0100
0010
1000
0100
1000
0001
0010
0001
0010
0100
1000
0010
1000
,
0100
0001
0100
0001
1000
0010
1000
0010
0001
0100
0010
1000
0002
0000
0003
0000
,
MMMM
MMMM
MMMM
0000
0001
0100
0010
0100
1000
0100
0010
0100
0001
1000
0001
0000
,
MMMM
0000
MMMM
0000
1000
0100
0010
0100
0001
0100
0010
0100
1000
0001
1000
0000
,
0001
0010
MMMM
0000
0010
1000
MMMM
0000
0001
0100
MMMM
0000
0100
1000
MMMM
0000
,
0001
0010
0100
1000
0001
0010
0100
1000
0002
0000
1000
0000
1003
0000
MMMM
0000
,
1000
0010
0100
0001
1000
0010
0100
0001
2000
0000
0001
0000
3001
0000
MMMM
0000
,
1000
0100
1000
0001
0100
0001
1000
0010
1000
0001
0010
0001
1000
0000
0001
0000
,
1001
0000
MMMM
0000
1001
0000
MMMM
0000
1001
0000
MMMM
MMMM
MMMM
MMMM
MMMM
0000
,
1001
0000
0010
1000
0100
0010
0001
0100
0020
0000
0100
0000
0130
0000
MMMM
0000
,
1010
1000
0101
0001
MMMM
0011
MMMM
1100
,
1001
0000
0100
0001
0010
0100
1000
0010
0200
0000
0010
0000
0310
0000
MMMM
0000
,
0101
0001
1010
1000
MMMM
1100
MMMM
0011
,
1001
0000
1000
0100
0001
1000
0010
0001
2000
0000
0010
0000
3100
0000
MMMM
0000
,
0011
0001
0101
1010
MMMM
0101
MMMM
1010
,
1000
0010
0100
0010
1000
0001
0100
0001
1000
0100
0010
0001
1000
0001
0010
0100
,
1000
0001
MMMM
0010
1000
0001
MMMM
0100
0010
0001
0100
0010
1000
0100
0010
0001
,
2000
0000
0000
0000
,
0000
0000
0000
0000
,
3000
0000
0000
0000
,
0000
0000
0000
0000
;
#NOTES:
     dance-double:
     :
     Easy:
     10:
     :
00000000
00000000
00000000
00000000
,
00000000
00000000
00000000
00000000
,
00000000
00000000
00000000
00000000
,
00000000
00000000
00000000
00000000
,
00000000
00000000
00000000
00000000
,
10000000
00000000
10000000
01000000
,
00010000
00000000
00010000
00001000
,
00000100
00000000
00000001
00001000
,
00000200
00000000
00000000
00000300
,
00001000
00010000
00100000
10000000
,
00100000
00010000
00001000
00000100
,
00001000
00010000
01000000
10000000
,
01000000
00010000
00001000
00000010
,
00001000
00010000
01000000
00010000
,
00001000
00000010
00000100
00001000
,
00000010
00000010
00001001
00000000
,
00000100
00000100
00001000
00011000
,
00010000
00001000
00000100
00000001
,
00000100
00001000
00010000
00100000
,
00010000
00001000
00000010
00000001
,
00000010
00001000
00010000
01000000
,
00010000
00001000
00000010
00001000
,
00010000
01000000
00100000
10010000
,
01000000
00110000
10010000
11000000
,
10000000
00100000
00010000
00001000
,
00000100
00001010
00001001
00000101
,
00000001
00000010
00001000
00010000
,
00100000
10100000
10010000
01010000
,
10000000
00100000
01000000
00001000
,
00010000
00000000
00010010
00000000
00001001
00000000
00000010
00000100
,
00000000
00010100
00000000
00011000
00000000
01000000
00100000
00000000
,
00010000
00001000
00000100
00000010
,
00001000
00000000
00010000
01000000
00000000
00100000
10000000
00000000
,
00100000
01000000
00010000
00001000
,
00000010
00000000
00000100
00000001
00000000
00001000
00000010
00000000
,
00000100
00000001
00001001
00000010
,
00001000
00010000
01100000
10010000
,
01000000
00010000
00001000
00011000
,
00000010
00000100
00000001
00000010
00001000
00000000
00011000
00000000
,
00010000
00100000
00010000
00000000
00100000
00000000
10100000
00000000
,
01000000
01010000
00100000
00101000
,
00000100
00000001
00000010
00001000
,
00010000
00011000
01000000
01100000
,
01000000
10000000
00100000
00000000
01000000
00000000
00101000
00000000
,
00010000
00010100
00001000
00000110
,
00001000
00000001
00000100
00001000
,
00000100
00000000
00001000
00010000
00000000
00000000
00011000
00000000
,
00010000
00100000
00010000
00001000
00000100
00000000
00000110
00000000
,
00000001
00000010
00000001
00000100
00001000
00000000
00011000
00000000
,
00010000
00100000
10000000
01000000
,
00010000
00001000
00010000
00011000
,
00001000
00000100
00010000
00001000
00100000
00000000
01100000
00000000
,
10000000
01000000
10000000
00100000
00010000
00000000
00011000
00000000
,
00001000
00000010
00000001
00000100
,
00001000
00010000
00001000
00011000
,
00100000
00010000
00001000
00000100
00000010
00000000
00001001
00000000
,
00000010
00001000
00010000
01000000
00100000
00000000
10010000
00000000
,
00010000
00001000
00000100
00000010
,
00001000
00001000
00000001
00000001
,
00000100
00000100
00001000
00001000
,
00010000
01000000
10000000
00010000
,
20020000
00000000
00000000
30030000
,
01000000
00000000
00100000
00000000
10000000
01000000
00010000
00000000
,
00001000
00000000
00010000
00000000
00000100
00000001
00000010
00000000
,
00000001
00000000
00000100
00000000
00001000
00010000
01000000
00000000
,
00010000
00000000
00001000
00000000
00000010
00000001
00000010
00000000
,
00000100
00000000
00000010
00000000
00000001
00000100
00001000
00000000
,
00010000
00000000
00001000
00000000
01000000
10000000
00100000
00000000
,
10000000
00000000
01000000
00000000
00010000
00001000
00000100
00000000
,
00001000
00000000
00010000
00000000
00100000
10000000
00100000
00010000
,
00002000
00000000
00000000
00000000
,
00000000
00000000
00000000
00000000
,
00003000
00000000
00000000
00000000
,
00000000
00000000
00000000
00000000
;
#NOTES:
     dance-double:
     :
     Medium:
     13:
     :
00000000
00000000
00000000
00000000
,
00000000
00000000
00000000
00000000
,
00000000
00000000
00000000
00000000
,
00000000
00000000
00000000
00000000
,
00000000
00000000
00000000
00000000
,
01000000
00000000
00100000
00000000
10000000
01000000
00010000
00000000
,
00001000
00000000
00010000
00000000
00000100
00000001
00000010
00000000
,
00001000
00000000
00000010
00000000
00000010
00000001
00000010
00001000
,
02000000
00000000
00000000
03000000
,
00100000
00000000
11000000
00000000
00100000
01000000
00010000
00000000
,
01010000
00000000
01000000
10000000
00000000
00100000
00010000
00001000
,
00000010
00000000
00000110
00000000
00010000
00000100
00000010
00000000
,
00001100
00000000
00001000
00000100
00000000
00000001
00000010
00001000
,
00010000
00000000
01010000
00000000
00100000
10000000
01000000
00100000
,
00000000
00000000
00001000
00010000
00000000
00001000
00000100
00000001
,
00000101
00000000
00001100
00000000
00011000
00000000
01000000
01000000
,
00000000
01100000
00000000
00110000
00000000
10000000
01000000
00010000
,
01000000
00000000
10010000
00000000
00100000
00010000
00001000
00000000
,
00010000
00000000
00001000
00000100
00000000
00000010
00001000
00000001
,
00000100
00000000
00001010
00000000
00000100
00000001
00000010
00000000
,
00001000
00000000
00010000
00001000
00000000
01000000
00100000
10000000
,
01000000
00010000
00001000
00000000
00011000
00000000
00010000
01000000
,
00000000
00010000
00001000
00000000
00000010
00000001
00001001
00000000
,
00000100
00000000
00000011
00000000
00000100
00000010
00001000
00000000
,
00001010
00000000
00000010
00000001
00000000
00000100
00001000
00010000
,
01000000
00000000
01100000
00000000
00001000
00100000
01000000
00000000
,
01100000
00000000
00010000
00100000
00000000
10000000
01000000
00010000
,
00001000
00000000
00001010
00000000
00000100
00000001
00000010
00000100
,
00000000
00000000
00010000
00001000
00000000
00010000
00100000
10000000
,
10000000
00100000
00000000
00000000
00100000
00010000
00000000
00000000
00010000
00001000
00000000
00000000
00000010
00000000
00000010
00000000
,
00000000
00000110
00000000
00001100
00000000
00000001
00000010
00001000
,
00000010
00000000
00000001
00000000
00000100
00001000
00010000
00000000
,
00001000
00000000
00010000
00100000
00000000
01000000
00010000
10000000
,
00100000
00000000
01000000
00010000
00100000
00000000
10000000
01000000
,
00000000
00010000
00001000
00010000
00000000
00000010
00000100
00000001
,
00000010
00001000
00010000
00000000
00011000
00000000
00001000
00000010
,
00000000
00001000
00010000
00000000
01000000
00100000
00010000
00000000
,
11000000
00000000
01100000
00000000
00101000
00000000
00010000
00000100
,
00000000
00000010
00000001
00000000
00001000
00000100
00000010
00000000
,
00000001
00000000
00000100
00000000
00001000
00000000
00010000
00000000
00001000
01000000
00000000
01000000
00100000
00000000
10000000
00000000
,
01000000
00010000
00001000
00010000
00000000
01000000
10000000
00100000
,
00000000
00010000
00001000
00000100
00000001
00000000
00000010
00000001
,
00000100
00001000
00000000
00000000
00001000
00010000
00000000
00000000
00010000
00100000
00000000
00000000
00100000
01000000
00000000
00000000
,
10000000
00000000
01000000
00000000
00010000
00000000
00100000
00000000
01000000
00010000
00000000
00010000
00001000
00000000
00001000
00000000
,
00000010
00000001
00000100
00001000
00000000
00000100
00000001
00000010
,
00000000
00000001
00000010
00001000
00010000
01000000
10000000
00100000
,
01000000
00000000
00010000
10000000
00000000
01000000
00100000
00000000
,
01000000
00000000
00010000
00000000
00001000
00000000
00000010
00000000
00000001
00001000
00000000
00000000
00000100
00000000
00000010
00000000
,
00000001
00000000
00000100
00000000
00001000
00000000
00010000
00000000
00001000
01000000
00000000
00000000
00100000
00000000
10000000
00000000
,
01000000
00100000
00000000
00000000
00100000
00001000
00000000
00000000
00001000
00010000
00000000
00000000
00010000
00000100
00000000
00000000
,
00000100
00000010
00000000
00000000
00000010
00000001
00000000
00000000
00000001
00000100
00000000
00000000
00000100
00001000
00000000
00000000
,
00001000
00000000
00000100
00000000
00000001
00000000
00000010
00000000
00000100
00000010
00000000
00000000
00000001
00000000
00000100
00000000
,
00001000
00000000
00010000
00000000
00001000
00000000
00000100
00000000
00000010
00001000
00000000
00000000
00000001
00000000
00000100
00000000
,
00000001
00000010
00000000
00000000
00000010
00001000
00000000
00000000
00001000
00010000
00000000
00000000
00010000
01000000
00000000
00000000
,
01000000
00100000
00000000
00000000
00100000
00001000
00000000
00000000
00001000
00010000
00000000
00000000
00010000
00000100
00000000
00000000
,
00000010
00000001
00000100
00001000
00010000
00100000
00010000
00001000
,
00000100
00001000
00010000
01000000
10000000
00100000
10000000
00000000
,
00100000
00010000
00000000
00000000
00010000
00001000
00000000
00000000
00001000
00000100
00000000
00000000
00000100
00000001
00000000
00000000
,
00001000
00001000
00001000
00000000
00001100
00000000
00010010
00000000
,
00001000
00001000
00001000
00000000
01001000
00000000
00110000
00000000
,
00100000
00001000
00000000
00001000
00010000
00000000
00010000
00000100
00000000
00000100
00000010
00000000
00000001
00000000
00000001
00000000
,
00000220
00000000
00000000
00000330
,
00000001
00000010
00000001
00000100
00001000
00000000
00011000
00000000
,
00110000
01100000
11000000
10010000
,
00100000
00010000
00001000
00000100
00000010
00000000
00001001
00000000
,
00000011
00001001
00010100
00001100
,
00001000
00000100
00010000
00001000
00100000
00000000
01100000
00000000
,
11000000
10100000
01010000
00011000
,
00000100
00000010
00000001
00000000
00000100
00000010
00010000
00000000
,
00001000
00010000
00001000
00000000
01000000
00100000
10000000
01000000
,
20020000
00000000
00000000
00000000
,
00000000
00000000
00000000
00000000
,
30030000
00000000
00000000
00000000
,
00000000
00000000
00000000
00000000
;
#NOTES:
     dance-double:
     :
     Hard:
     16:
     :
00000000
00000000
00000000
00000000
,
00000000
00000000
00000000
00000000
,
00000000
00000000
00000000
00000000
,
00000000
00000000
00000000
00000000
,
00000000
00000000
00000000
00000000
,
00010000
00100000
00001000
00010000
00001000
00000100
00000001
00001000
,
00000010
00001000
00000001
00000100
00000010
00010000
00001000
00000010
,
00000001
00000100
00001000
00010000
00001000
01000000
00100000
10000000
,
02000000
00000000
00000000
03000000
,
00100000
00000000
00000000
00000000
11000000
00000000
00000000
00000000
00100000
00000000
01000000
00000000
00010000
00000000
00000000
00001000
,
00010000
00000000
01000000
10000000
00000000
00100000
00010000
00001000
,
00000010
00000000
00000000
00000000
00000110
00000000
00000000
00000000
00010000
00000000
00000100
00000000
00000010
00000000
00000000
00000001
,
00000100
00000000
00001000
00000100
00000000
00000001
00000010
00001000
,
00010000
00000000
01010000
00000000
00100000
10000000
01000000
00100000
,
00000000
00000000
00001000
00010000
00000000
00001000
00000100
00000001
,
00000001
00000100
00000000
00000000
00000100
00001000
00000000
00000000
00001000
00010000
00000000
00000000
01000000
00000000
01000000
00000000
,
00000000
01100000
00000000
00110000
00000000
10000000
01000000
00010000
,
01000000
00000000
10010000
00000000
00100000
00010000
00001000
00000000
,
00010000
00000000
00001000
00000100
00000000
00000010
00001000
00000001
,
00000100
00000000
00001010
00000000
00000100
00000001
00000010
00000000
,
00001000
00000000
00010000
00001000
00000000
01000000
00100000
10000000
,
01000000
00010000
00001000
00000000
00011000
00000000
00010000
01000000
,
00000000
00000000
00010000
00000000
00001000
00000000
00000000
00000000
00000010
00000100
00000010
00000000
00000001
00000000
00001001
00000000
,
00000100
00000000
00000000
00000000
00000011
00000000
00000000
00000000
00000100
00000000
00000010
00000000
00001000
00000000
00000000
00010000
,
00001000
00000000
00000000
00000000
00000010
00000000
00000001
00000000
00000000
00000000
00000100
00001000
00000100
00000000
00001000
00010000
,
00001000
00000000
01000000
00000000
01100000
00000000
00000000
00000000
00001000
00000000
00100000
00000000
01000000
00000000
00000000
10000000
,
00100000
00000000
00000000
00000000
00010000
00000000
00100000
00000000
00000000
00000000
10000000
01000000
10000000
00000000
01000000
00010000
,
00001000
00000000
00000000
00000000
00001010
00000000
00000000
00000000
00000100
00000000
00000001
00000000
00000010
00000100
00000010
00000000
,
00000000
00000000
00000000
00000000
00010000
00000000
00001000
00000000
00000000
00000000
00010000
00100000
00010000
00000000
10000000
00000000
,
10000000
00100000
00000000
00000000
00100000
00010000
00000000
00000000
00010000
00001000
00000000
00000000
00000010
00000100
00000010
00000000
,
00000000
00000000
00000110
00000000
00000000
00000000
00001100
00000000
00000000
00000000
00000001
00000010
00001000
00000010
00000001
00000000
,
00000010
00000000
00001001
00000000
00000100
00001000
00010000
00000000
,
00001000
00000000
00000000
00000000
00010000
00000000
00100000
00000000
00000000
00000000
01000000
00010000
01000000
00000000
00100000
10000000
,
00100000
00000000
01010000
00010000
00100000
00000000
10000000
01000000
,
00000000
00000000
00010000
00001000
00010000
00001000
00010000
00000000
00000000
00000000
00000010
00000000
00000100
00000000
00000001
00000010
,
00000100
00000000
00010000
00001000
00010000
00000000
00000000
00000000
00011000
00000000
00000000
00000000
00001000
00000000
00000010
00000000
,
00000000
00001000
00010000
00000000
01000000
00100000
10010000
00000000
,
11000000
01000000
01100000
00100000
00101000
00001000
00010000
00000100
,
00000000
00000000
00000010
00000001
00000010
00000001
00000010
00000000
00000100
00001000
00000100
00000000
00000011
00000000
00000000
00000000
,
00000001
00000000
00000100
00000000
00001000
00000000
00010000
00000000
00001000
01000000
00001000
01000000
00100000
00000000
10000000
00000000
,
01000000
00010000
00001000
00010000
01000000
10000000
11000000
00100000
,
00000000
00000000
00010000
00000000
00001000
00000000
00000100
00000000
00000001
00000010
00000001
00000000
00000010
00000000
00000001
00000000
,
00000100
00001000
00000000
00000000
00001000
00010000
00000000
00000000
00010000
00100000
00000000
00000000
00100000
01000000
00000000
00000000
,
10000000
00000000
01000000
00000000
00010000
00000000
00100000
00000000
01000000
00010000
01000000
00010000
00001000
00000000
00000010
00000000
,
00000001
00000100
00001000
00000100
00000001
00000100
00000101
00000010
,
00000000
00000000
00000001
00000000
00000010
00000000
00001000
00000000
00010000
01000000
00010000
00000000
01000000
10000000
00100000
00000000
,
01010000
00000000
00000000
00000000
00010000
00000000
10010000
00000000
00000000
00000000
00100000
01000000
00100000
00000000
00000000
00000000
,
01000000
00010000
00000000
00010000
00001000
00000000
00000010
00000000
00000001
00001000
00000001
00000000
00000100
00000010
00000100
00000000
,
00000001
00000100
00000000
00000100
00001000
00000000
00010000
00000000
00001000
01000000
00001000
00000000
00010000
00001000
00010000
00000000
,
01000000
00100000
01000000
00000000
00100000
00001000
00100000
00000000
00001000
00010000
00001000
00000000
00010000
00000100
00010000
00000000
,
00000100
00000010
00000100
00000000
00000010
00000001
00000010
00000000
00000001
00000100
00000001
00000000
00000100
00001000
00000100
00000000
,
00001000
00000100
00000000
00000100
00000001
00000000
00000010
00000000
00000100
00000010
00000100
00000000
00000010
00000001
00000100
00000000
,
00001000
00010000
00000000
00010000
00001000
00000000
00000100
00000000
00000010
00001000
00000010
00000000
00000100
00000001
00000100
00000000
,
00000001
00000010
00000001
00000000
00000010
00001000
00000010
00000000
00001000
00010000
00001000
00000000
00010000
01000000
00010000
00000000
,
01000000
00100000
01000000
00000000
00100000
00001000
00100000
00000000
00001000
00010000
00001000
00000000
00010000
00000000
00000100
00000000
,
00000010
00000001
00000000
00000001
00000100
00000000
00001000
00000000
00010000
00100000
00010000
00100000
00010000
00000000
00001000
00000000
,
00000100
00001000
00000000
00001000
00010000
00000000
01000000
00000000
10000000
00100000
10000000
00100000
10000000
00000000
00100000
00000000
,
00100000
00010000
00000000
00000000
00010000
00001000
00000000
00000000
00001000
00000100
00000000
00000000
00000100
00000001
00000000
00000000
,
00001000
00000100
00001000
00000100
00000010
00000000
00000100
00000000
00001100
00000000
00000000
00000000
00010010
00000000
00000000
00000000
,
00001000
00010000
00001000
00010000
00001000
00000000
01000000
00000000
01001000
00000000
00000000
00000000
00110000
00000000
00000000
00000000
,
00100000
00001000
00000000
00001000
00010000
00000000
00010000
00000100
00000000
00000100
00000010
00000000
00000001
00000000
00000001
00000000
,
00000110
00000000
00000110
00000000
00000110
00000001
00001000
00000000
,
00000001
00000000
00000100
00000010
00001000
00000010
00000100
00000010
00001000
00000000
00000010
00000000
00000100
00000000
00001000
00000000
,
00010000
00100000
10000000
10100000
00010000
01010000
10010000
00000000
,
10000000
00000000
01000000
00100000
00010000
00100000
01000000
00100000
00010000
00000000
00100000
00000000
01000000
00000000
00010000
00000000
,
00001000
00000010
00000001
00000011
00001000
00001100
00001001
00000000
,
00000100
00000000
00010000
00000010
00001000
00000010
00010000
00000010
00001000
00000000
00000010
00000000
00000100
00000000
00001000
00000000
,
00010000
00100000
00010000
00001000
00010000
01000000
11000000
00000000
,
10000000
01000000
10000000
00000000
01000000
00100000
00010000
00000000
00100000
00001000
00010000
00001000
00010000
00000100
00001000
00000100
,
00000010
00000001
00000000
00000100
00000010
00001000
00000000
00000010
00000100
00001000
00000100
00001000
00010000
00100000
00010000
00100000
,
20000000
00000000
00000000
00000000
,
00000000
00000000
00000000
00000000
,
30000000
00000000
00000000
00000000
,
00000000
00000000
00000000
00000000
;
#NOTES:
     dance-double:
     :
     Challenge:
     18:
     :
00000000
00000000
00000000
00000000
,
00000000
00000000
00000000
00000000
,
00000000
00000000
00000000
00000000
,
00000000
00000000
00000000
00000000
,
00000000
00000000
00000000
00000000
,
10000000
01000000
MMMMMMMM
00100000
01000000
00010000
MMMMMMMM
01000000
,
00010000
00001000
MMMMMMMM
00000100
00000010
00000001
MMMMMMMM
00000001
,
00000100
00000010
00001000
00000000
00000010
00010000
00001000
00000000
00010000
00001000
00010000
00001000
00010000
00000000
00000000
00000000
,
00022000
00000000
00000000
00000000
00000000
00033000
MMMMMMMM
00000000
,
00011000
00000000
01000000
00000000
01010000
00000000
00000000
00000000
00110000
00000000
10000000
00000000
11000000
00000000
00000000
10000000
,
01000000
00000000
00000000
01000000
00010000
00000000
00012000
00000000
00000000
00000000
00000100
00000000
00003100
00000000
MMMMMMMM
00000000
,
00011000
00000000
00000100
00000000
00001100
00000000
00000000
00000000
00001010
00000000
00000001
00000000
00000101
00000000
00000000
00000001
,
00000100
00000000
00000000
00000100
00001000
00000000
00021000
00000000
00000000
00000000
01000000
00000000
01030000
00000000
MMMMMMMM
00000000
,
00011000
00001000
01000000
00010000
00110000
00100000
01000000
11000000
,
MMMMMMMM
00000000
10000000
00000000
01000000
00000000
00010000
00000000
MMMM1000
00000000
00010000
00001000
00010000
00001000
00010000
00000000
,
00001000
00000010
00000100
00000000
00001000
00000010
00000100
00000000
00001000
00000100
00000010
00000000
00001000
00000001
00001000
00000000
,
MMMMMMMM
00000000
00000101
00000000
MMMMMMMM
00000000
00001010
00000000
MMMMMMMM
00000000
01010000
00000000
00010000
10000000
00010000
00000000
,
10000000
01000000
10000000
00000000
11000000
00000000
01000000
00100000
00010000
00100000
00010000
00000000
00110000
00000000
00100000
00001000
,
00010000
00000000
00000010
00001000
00000010
00000000
00001020
00000000
00000000
00000000
00001030
00000100
00000001
00000000
00000000
00000000
,
00000100
00000010
00000100
00000010
00000001
00000000
00001001
00000000
00001000
00000100
00001000
00000100
00010000
00000000
00001000
01000000
,
00200000
00000000
00010000
00010000
00000000
10000000
10300000
MMMMMMMM
,
10000000
01000000
00010000
00000000
10000000
00100000
00010000
00000000
10000000
01000000
00010000
00000000
00001000
00000010
00000001
00000000
,
MMMMMMMM
00000000
00000001
00001000
00000001
00000000
00000000
00000000
00000100
00000010
00000100
00000010
00000200
00000000
00000000
00000000
,
00000301
00000000
00000010
00000100
00001000
00000000
00000010
00000100
00000001
00000000
00000010
00000100
00001000
00000000
00000010
00000100
,
00000001
00000000
00000100
00000000
00000110
00000000
00000010
00010000
00001000
00000000
00010000
00001000
00100000
00010000
00100000
00010000
,
01000000
00000000
00010000
00100000
01000000
00000000
10000000
00100000
01000000
00000000
00010000
00100000
01000000
00000000
10000000
00100000
,
01000000
00000000
00001000
00000000
00011000
00000000
00010000
00000100
00001000
00000000
00000010
00000100
00000010
00000100
00000001
00000100
,
00000010
00000000
00001000
00000001
00000100
00000000
00000001
00001000
00000100
00000000
00010000
00001000
00100000
00001000
00010000
00001000
,
01000000
00000000
00010000
01000000
00010000
01000000
00100000
00000000
10000000
01000000
00100000
00010000
01000000
00100000
01000000
00000000
,
00100000
00000000
00010000
00001000
00000100
00000000
00000010
00010000
00001000
00000000
00000010
00001000
00010000
00000000
00011000
00000000
,
MMMMMMMM
01100000
MMMMMMMM
00011000
MMMMMMMM
00000110
00000110
00000000
,
00000001
00000100
00000001
00000100
00000010
00000000
MMMMMMMM
00000000
00001000
00010000
00001000
00010000
00001000
00000000
MMMMMMMM
00000000
,
00010000
00100000
01000000
00000000
10000000
00010000
01000000
00010000
10000000
00000000
01000000
00100000
01000000
00000000
MMMMMMMM
00000000
,
00010000
00100000
01000000
00000000
00010000
00001000
00010000
00000100
00001000
00000000
MMMMMMMM
00000000
00001000
00000100
00000010
00000001
,
00001000
00000000
MMMM0001
00000100
00001000
00000000
0001MMMM
00100000
10000000
00000000
1000MMMM
01000000
00010000
00000000
MMMM1000
00000010
,
00000001
MMMMMMMM
00000110
MMMMMMMM
00011000
MMMMMMMM
00001000
00010000
,
MMMMMMMM
00000000
00100000
00000000
01100000
00000000
MMMMMMMM
00000000
10000000
00000000
10000000
00000000
00010000
00000000
00010000
00100000
,
00001000
0001MMMM
MMMM0100
0001MMMM
MMMM1000
0010MMMM
MMMM1000
0100MMMM
,
MMMM1000
0001MMMM
MMMM1000
MMMMMMMM
00022000
00033000
MMMMMMMM
00000000
,
00001000
00000000
01000000
00010000
01000000
00000000
00010000
00000000
00100000
01000000
10000000
01000000
00100000
00000000
00001000
00000000
,
00010000
00000010
00010000
00000000
00001000
00000000
00100000
01000000
00100000
00000000
00010000
00000000
00000010
00000100
00000010
00000000
,
00000001
00000100
00000001
00000100
00000010
00001000
00000010
00001000
00000100
00010000
00000100
00010000
00001000
00010000
00001000
00000000
,
0010MMMM
MMMM1000
0001MMMM
MMMM0100
0001MMMM
MMMM1000
0100MMMM
MMMM1000
,
00010000
00000000
00000100
00001000
00000100
00000000
00001000
00000000
00000010
00000100
00000001
00000100
00000010
00000000
00010000
00000000
,
00001000
00100000
00001000
00000000
00010000
00000000
00000010
00000100
00000010
00000000
00001000
00000000
00100000
01000000
00100000
00000000
,
10000000
01000000
10000000
01000000
00100000
00010000
00100000
00010000
01000000
00001000
01000000
00001000
00010000
00001000
00010000
00000000
,
MMMM0010
0001MMMM
MMMM1000
00011000
MMMMMMMM
00011000
00011000
MMMMMMMM
,
00001000
00100000
00001000
00100000
00010000
01000000
00100000
01000000
00100000
10000000
00010000
10000000
01000000
00000000
MMMMMMMM
00000000
,
01000000
10000000
01000000
00100000
00010000
00100000
00001000
00010000
00001000
00010000
00000010
00001000
00000010
00000000
MMMMMMMM
00000000
,
00000001
00000100
00000010
00000100
00001000
00000100
00000010
00010000
00001000
00010000
00000100
00010000
00001000
00100000
00010000
01000000
,
00010000
00100000
01000000
00010000
01000000
00100000
00010000
01000000
00100000
10000000
01000000
00000000
00100000
00000000
MMMMMMMM
00000000
,
00010000
00000010
00010000
00000010
00001000
00000100
00000010
00000100
00000010
00000001
00001000
00000001
00000100
00000000
MMMMMMMM
00000000
,
00000100
00000001
00000100
00000010
00001000
00000010
00010000
00001000
00010000
00001000
00100000
00010000
00100000
00000000
MMMMMMMM
00000000
,
10000000
01000000
00100000
01000000
00010000
01000000
00100000
00001000
00010000
00001000
01000000
00001000
00010000
00000010
00001000
00000100
,
00001000
00000010
00000100
00001000
00000100
00000010
00001000
00000100
00000010
00000001
00000100
00000010
00002000
00000000
00003000
00000000
,
MMMMMMMM
MMMMMMMM
MMMMMMMM
00000000
00000001
00000100
00001000
00000000
01000000
00100000
10000000
01000000
00100000
01000000
00100000
00000000
,
MMMMMMMM
00000000
MMMMMMMM
00000000
10000000
01000000
00010000
00000000
00000100
00000010
00000001
00000100
00000010
00000100
00000010
00000000
,
MMMM0100
0001MMMM
MMMM1000
0010MMMM
0100MMMM
MMMM1000
0001MMMM
MMMM0010
,
00001000
00000001
00000100
00001000
00010000
00000000
00100000
10000000
00020000
00000000
10000000
00000000
10030000
00000000
MMMMMMMM
00000000
,
10000000
01000000
00010000
00001000
00000010
00000000
00000001
00001000
00000200
00000000
00000010
00000000
00000310
00000000
MMMMMMMM
00000000
,
00000010
00000001
00000100
00000010
00001000
00000100
00010000
00001000
00100000
00010000
01000000
00100000
10000000
01000000
00010000
00000000
,
MMMM1000
00000000
0001MMMM
00000000
MMMM1000
00000000
0001MMMM
00000000
MMMM1000
00000000
MMMMMMMM
MMMMMMMM
MMMMMMMM
MMMMMMMM
MMMMMMMM
00000000
,
00011000
00000000
00010000
00001000
00000010
00000001
00001000
00000100
00000020
00000000
00000001
00000000
00000031
00000000
MMMMMMMM
00000000
,
00000101
00000000
00000100
00001000
00010000
00000000
00100000
10000000
00010000
00000000
MMMMMMMM
00000000
01100000
00000000
MMMMMMMM
00000000
,
00011000
00000000
00001000
00010000
00100000
10000000
00010000
01000000
00200000
00000000
10000000
00000000
10300000
00000000
MMMMMMMM
00000000
,
11000000
00000000
01000000
00010000
00001000
00000000
00000010
00000001
00001000
00000000
MMMMMMMM
00000000
00000110
00000000
MMMMMMMM
00000000
,
00001001
00000000
00000001
00000010
00000001
00000100
00000010
00000100
00000010
00000000
00000100
00001000
00010000
00000000
MMMMMMMM
00000000
,
01100000
10000000
00010000
10010000
MMMMMMMM
01100000
MMMMMMMM
00011000
,
00001000
00000010
00000001
00000000
00000001
00000100
00001000
00000000
00010000
00100000
10000000
00000000
10000000
01000000
00010000
00000000
,
00001000
00000010
MMMMMMMM
00000010
00000001
00000100
MMMMMMMM
00000100
00001000
00010000
00100000
01000000
00100000
10000000
00010000
00000000
,
20020000
00000000
00000000
00000000
,
00000000
00000000
00000000
00000000
,
30030000
00000000
00000000
00000000
,
00000000
00000000
00000000
00000000
;
