
//----- song ID: botr -----//
#TITLE:Bounce Trippy;
#ARTIST:Dustvoxx;
#BANNER:Bounce Trippy.png;
#BACKGROUND:Bounce Trippy-bg.png;
#CDTITLE:./CDTitles/DDR A20.png;
#MUSIC:Bounce Trippy.ogg;
#SAMPLESTART:84.326;
#SAMPLELENGTH:15;
#BPMS:0=185;
#NOTES:
     dance-single:
     :
     Beginner:
     4:
     :
0000
0000
0000
0000
,
0000
0000
0000
0000
,
0000
0000
0000
0000
,
0000
0000
0000
0000
,
0000
0000
0000
0000
,
0001
0000
0001
0000
,
0100
0000
0100
0000
,
1000
0000
1000
0000
,
1001
0000
0000
0000
,
1000
0000
0100
0000
,
1000
0000
0010
0000
,
1000
0000
0100
0000
,
1000
1000
1000
0000
,
0001
0000
0100
0000
,
0001
0000
0010
0000
,
0001
0000
0100
0000
,
0001
0001
0001
0000
,
0001
0000
0100
0000
,
0010
0000
0100
0000
,
0001
0000
0100
0000
,
1000
0000
0000
0000
,
1000
0000
0100
0000
,
0010
0000
0100
0000
,
1000
0000
0100
0000
,
0001
0001
0001
0000
,
0001
0000
0001
0000
,
0010
0000
0010
0000
,
0100
0000
0100
0000
,
1000
0000
0000
0000
,
0001
0000
0001
0000
,
0100
0000
0100
0000
,
0010
0000
0010
0000
,
1000
0000
0000
0000
,
1000
0000
1000
0000
,
0100
0000
0100
0000
,
0010
0000
0010
0000
,
0001
0000
0000
0000
,
1000
0000
1000
0000
,
0001
0000
0001
0000
,
2002
0000
0000
0000
,
3003
0000
0000
0000
,
0010
0000
0010
0000
,
0010
0000
0000
0000
,
0100
0000
0100
0000
,
0100
0000
0000
0000
,
0010
0000
0010
0000
,
0010
0000
0000
0000
,
0100
0000
0100
0000
,
0100
0000
1001
0000
,
1001
0000
0000
0000
,
1001
0000
0000
0000
,
0001
0001
0001
0000
,
1000
1000
1000
0000
,
1001
0000
0000
0000
,
1001
0000
0000
0000
,
0010
0010
0010
0000
,
0100
0100
0100
0000
,
0001
0010
0001
0000
,
0100
0000
0100
0000
,
1000
0010
1000
0000
,
0100
0000
0100
0000
,
0001
0100
0001
0000
,
0010
0000
0010
0000
,
1000
0100
1000
0000
,
0010
0000
0010
0000
,
1000
0000
0010
0000
,
0001
0001
0001
0000
,
0001
0000
0010
0000
,
1000
1000
1000
0000
,
1000
0000
0100
0000
,
0001
0001
0001
0000
,
0001
0000
0100
0000
,
1000
1000
1000
0000
,
1000
0000
0100
0000
,
0010
0010
0001
0000
,
0001
0000
0100
0000
,
0010
0010
1000
0000
,
1000
0000
0100
0000
,
0010
0010
0100
0000
,
0010
0000
0001
0000
,
1000
1000
0001
0000
,
1001
0000
0000
0000
,
0000
0000
0000
0000
;
#NOTES:
     dance-single:
     :
     Easy:
     8:
     :
0000
0000
0000
0000
,
0000
0000
0000
0000
,
0000
0000
0000
0000
,
0000
0000
0000
0000
,
0000
0000
0000
0000
,
0001
0010
0100
0010
,
0001
1000
0100
0010
,
0001
0100
0010
1000
,
2002
0000
0000
3003
,
1001
1001
0100
0100
,
0010
1000
0010
0100
,
1001
1001
0100
0100
,
0010
0001
0200
0300
,
1001
1001
0100
0100
,
0001
0010
0100
1000
,
1001
1001
0100
0100
,
0220
0000
0000
0330
,
0110
0110
0001
0001
,
1000
0000
0010
0000
0100
0001
0100
0000
,
0110
0110
1000
1000
,
0001
1000
0001
0000
2002
0000
3003
0000
,
0110
0110
0001
0001
,
0100
0010
1000
0100
,
1001
0000
0110
0000
,
1001
0110
1001
0000
,
0001
0100
1000
0100
,
0001
0100
1000
0100
,
0001
0100
1000
0100
,
0001
0001
0002
0003
,
1000
0100
0001
0100
,
1000
0100
0001
0100
,
1000
0010
1000
0001
,
1000
1000
1000
0000
,
1000
0010
0001
0010
,
1000
0010
0001
0010
,
1000
0010
0001
0010
,
1000
1000
2000
3000
,
0001
0010
1000
0010
,
0001
0010
1000
0010
,
2002
0000
0000
0000
,
3003
0000
0000
0000
,
0001
0000
0001
0100
,
0000
0100
1000
0000
,
1000
0010
1000
0010
,
0001
0010
0001
0000
,
0001
0000
0001
0100
,
0000
0100
1000
0000
,
1000
0010
1000
0010
,
0001
0010
1000
0000
,
1000
1000
0100
0000
,
1000
1000
0100
0000
,
0001
0010
0001
0010
,
0001
0010
0001
0000
,
1000
1000
0100
0100
,
1000
1000
0100
0100
,
0010
0001
0010
0001
,
0010
0001
2002
3003
,
0001
0100
0001
1000
,
0100
0000
0010
0000
0001
1000
0001
0000
,
1000
0010
1000
0001
,
0100
0010
0100
0000
1001
0000
0000
0000
,
1000
1000
0100
0010
,
0001
0000
0100
0000
0001
1000
0001
0000
,
0100
1000
0100
0001
,
2002
0000
0000
3003
,
0010
0100
0001
1000
,
0001
1000
1001
0000
,
1000
0100
0010
0001
,
1000
0001
1001
0000
,
0100
1000
0001
0010
,
0001
1000
1001
0000
,
0110
0000
1001
0000
,
0010
0010
0010
0000
0010
0000
0000
0000
,
1000
0100
0010
0001
,
1001
0110
1001
0000
,
0001
0100
0010
1000
,
1001
0110
1001
0000
,
0001
0010
1000
0010
,
1001
0110
1001
0000
,
0001
1000
0001
0000
1000
0001
1000
0000
,
1001
0110
1001
0110
,
0000
0000
0000
0000
;
#NOTES:
     dance-single:
     :
     Medium:
     11:
     :
0000
0000
0000
0000
,
0000
0000
0000
0000
,
0000
0000
0000
0000
,
0000
0000
0000
0000
,
0000
0000
0000
0000
,
1000
0010
1000
0000
0001
0100
0001
0000
,
1000
0100
1000
0000
0001
0010
0001
0000
,
1000
0001
1000
0001
0010
0100
0010
0000
,
2002
0000
0000
3003
,
0011
0000
1100
0000
0010
1000
0100
0000
,
1000
0001
0100
0000
0001
1000
0100
0000
,
1010
0000
0101
0000
0010
0001
0100
0000
,
0001
1000
0001
1000
0002
0000
1003
0000
,
1001
0000
0110
0000
0100
0010
1000
0000
,
0100
0010
0001
0000
0010
0100
1000
0000
,
0110
0000
1001
0000
0010
0100
0001
0000
,
2000
3200
0320
0032
,
1003
0000
1010
0000
0100
0001
0100
0000
,
0001
0010
0001
0010
0001
0000
1000
0000
,
0100
0000
0011
0000
0100
1000
0100
0000
,
1000
0010
1000
0001
2000
0000
3001
0000
,
0010
0000
1001
0000
0100
0010
0100
0000
,
0001
1000
0001
0000
1000
0001
1000
0000
,
1001
0000
0110
0000
,
1001
0110
1001
0000
,
0001
1000
0100
1000
,
0001
0000
1000
0000
0010
1000
0010
0000
,
1000
0001
1000
0100
,
1000
0001
2002
3003
,
0001
1000
0100
1000
,
0001
0000
1000
0000
0010
0100
0010
0000
,
1000
0100
0110
0100
,
0010
0001
0010
0001
0010
0000
0010
0000
,
0001
0010
1000
0010
,
0001
0000
0100
0000
0001
1000
0001
0000
,
1000
0010
0001
0010
,
1000
0001
1000
0001
1000
0000
1001
0000
,
1000
0100
0010
0001
,
0100
0000
0010
0000
1000
0010
1000
0000
,
0001
0000
0010
0100
0010
0000
0010
0000
,
2002
0000
0000
3003
,
0001
0010
0000
0010
0100
0000
1000
0001
,
0000
1001
0000
0001
0100
0000
0110
0000
,
0010
1000
0010
0100
,
0001
0010
0100
1000
,
1000
0100
0000
0100
0010
0000
0001
1000
,
0000
1001
0000
1000
0010
0000
0110
0000
,
0100
0001
0100
1000
,
0100
0100
0110
0000
,
0001
1000
0001
1000
,
0001
1000
0001
1000
,
0010
0100
0010
0100
0010
0100
0010
0000
,
1001
0110
1001
0000
,
1000
0100
1000
0000
1000
0100
0010
0000
,
0001
0100
0001
0000
0001
0100
0010
0000
,
0010
0100
0010
0100
0010
0100
0010
0000
,
1001
0110
1001
0000
,
1010
0000
0101
0000
0001
0010
0001
0000
,
0011
0000
1100
0000
1000
0010
1000
0000
,
0100
1000
0001
0000
0100
0001
1000
0000
,
1001
0000
0110
0000
1001
0000
0100
0100
,
0001
0010
0001
0010
0001
0010
0001
0000
,
1000
0010
1000
0010
1000
0010
1000
0000
,
0001
1000
0001
1000
0001
1000
0001
0000
,
2002
0000
0000
3003
,
0001
0100
1000
0000
1000
0100
0001
0000
,
0011
1001
2200
3300
,
1000
0100
0001
0000
0001
0100
1000
0000
,
1010
1001
0202
0303
,
0010
1000
0100
0000
0010
0001
0100
0000
,
0110
1010
2002
3003
,
0110
0000
1001
0000
,
0010
0010
0010
0010
0010
0000
1001
0000
,
0001
1000
0010
0000
0100
0010
1000
0000
,
0001
0010
1000
0010
0002
0000
0003
0000
,
1000
0001
0010
0000
0100
0010
0001
0000
,
1000
0010
0001
0010
1000
0000
1001
0000
,
1000
0010
1000
0010
0100
0001
0100
0001
,
0010
0001
0010
0001
1000
0100
1000
0100
,
0010
0001
1000
0000
0010
1000
0001
0000
,
0010
0100
1000
0100
0010
0001
1000
0001
,
0000
0000
0000
0000
;
#NOTES:
     dance-single:
     :
     Hard:
     14:
     :
0000
0000
0000
0000
,
0000
0000
0000
0000
,
0000
0000
0000
0000
,
0000
0000
0000
0000
,
0000
0000
0000
0000
,
1000
0010
1000
0000
1000
0100
0010
0000
,
0001
0010
0001
0000
0001
0100
0010
0000
,
1000
0100
0010
0001
0010
0100
1000
0002
,
2000
0000
0000
3003
,
0010
0000
0000
0000
1001
0000
0000
0000
0100
0000
0000
0100
0000
0000
0100
0000
,
0001
0010
0100
1000
0001
0010
0001
0000
,
0100
0000
0000
0000
1001
0000
0000
0000
0010
0000
0000
0010
0000
0000
0010
0000
,
1000
0000
0100
0000
1000
0000
0100
0000
0010
0000
0010
0000
0001
1000
0100
0010
,
0001
0000
0000
0000
0110
0000
0000
0000
1000
0000
0000
1000
0000
0000
1000
0000
,
0010
0100
0001
0010
0100
0010
0100
0000
,
1000
0000
0000
0000
0110
0000
0000
0000
0001
0000
0000
0001
0000
0000
0001
0000
,
1000
0010
1000
0010
1000
0010
0100
0001
0100
0002
0000
0000
,
0013
0000
0000
0000
1100
0000
0000
0000
0010
0000
0000
0010
0000
0000
0010
0000
,
1000
0001
0010
0001
0100
1000
0100
0000
,
0001
0000
0000
0000
0011
0000
0000
0000
0100
0000
0000
0100
0000
0000
0100
0000
,
1000
0000
0010
0000
0001
0000
0010
0000
2000
0000
0000
0000
3001
0010
0100
1000
,
0001
0000
0000
0000
1100
0000
0000
0000
0001
0000
0000
0001
0000
0000
0001
0000
,
0010
0100
1000
0010
0100
0001
0100
0000
,
0001
0000
0100
0000
1000
0000
0100
0000
0001
0000
0000
0000
0001
1000
0001
1000
,
0001
0000
0001
0000
0001
0000
0001
0000
0002
0000
0000
0000
1003
0001
1000
0001
,
1000
0000
0010
0000
1000
0000
0000
0010
0001
0000
0010
0000
0001
0000
0001
0000
,
0100
0010
1000
0010
0100
0100
0200
0000
,
0301
0000
0100
0000
0001
0000
0000
0100
1000
0000
0100
0000
1000
0000
1000
0000
,
0010
0000
0100
0000
0001
0000
0100
0000
0001
0010
0100
0000
1001
0000
0000
0000
,
0010
0000
0001
0000
0100
0000
0000
0100
1000
0000
0010
0000
1000
0000
1000
0000
,
0010
0001
0010
0010
1000
0001
1000
0000
,
0011
1100
0010
1100
,
0010
0000
0010
0000
0010
0100
0000
0010
0100
0000
0100
0000
0100
0000
0000
0000
,
0001
0000
0100
0000
0001
0000
0000
0100
1000
0000
0100
0000
1000
0000
1000
0000
,
0010
0100
0001
0100
0010
0010
0020
0000
,
1030
0000
0010
0000
1000
0000
0000
0010
0001
0000
0010
0000
0001
0000
0001
0000
,
0100
0010
1000
0010
1000
0100
0001
0000
,
0100
0000
1000
0000
0010
0000
0000
0010
0001
0000
0100
0000
0001
0000
0001
0000
,
0100
1000
0100
0001
0010
0100
0010
0000
,
0110
0000
0001
0010
0100
0010
0100
0000
,
2002
0000
0000
3003
,
0010
0000
0100
0000
0000
0000
0010
1000
0100
0000
0010
0000
0100
0000
0010
0000
,
0000
0000
0110
0000
0000
0000
0010
0001
0100
0000
0010
0000
0100
0000
0000
0000
,
0001
0001
0100
1000
0100
0001
0100
0001
,
1000
1000
0100
0001
0100
1000
0100
0010
,
0001
0000
1000
0000
0000
0000
0100
1000
0010
0000
0100
0000
0010
0000
0100
0000
,
0000
0000
0110
0000
0000
0000
0100
0001
0010
0000
0100
0000
0010
0000
0000
0000
,
0001
0001
0100
1000
0100
0001
0100
0001
,
1000
0000
0100
0010
0001
0000
0100
0010
1000
0000
0000
0000
0000
0000
0000
0000
,
1000
0010
0100
0100
0001
0100
0010
0010
,
1000
0001
0010
0010
0100
1000
0001
1000
,
0001
0000
1000
0100
1000
0000
0001
0100
0001
0000
1000
0000
0100
0000
0010
0000
,
0001
0001
0010
0001
1001
0000
0100
0100
,
0010
1000
0001
0001
0010
0001
0100
0100
,
0010
0100
0010
0010
1000
0010
1000
0001
,
1000
0000
0001
0010
0001
0000
1000
0010
1000
0000
0001
0000
0010
0000
0100
0000
,
1000
0000
0000
0000
0100
0000
0000
0000
0010
0000
0000
0000
0100
0000
0000
0000
0010
0000
0000
0000
0001
0000
0000
0000
1000
0000
0000
0001
0000
0000
1000
0000
0000
0000
0000
0000
0010
0000
0000
0000
0000
0000
0100
0000
0000
0000
0000
0000
,
0001
0000
0010
0000
0100
0000
1000
0000
0010
0000
0100
0000
0001
0100
0010
0000
,
1000
0000
0001
0000
0100
0000
0010
0000
1000
0000
0100
0000
1000
0001
1000
0001
,
1000
0000
0010
0000
0100
0000
0001
0000
1000
0000
0001
0000
1000
0100
1000
0000
,
0010
0100
0010
0100
0010
0100
0010
0010
,
1000
0100
1000
0000
0001
0000
0100
0000
0001
0000
1000
0000
0100
0000
0010
0000
,
0001
1000
0010
0000
0100
0000
0010
0000
1000
0000
0001
0000
1000
0001
1000
0000
,
0001
0100
0010
1000
0001
0100
0010
1000
,
0002
0000
2000
3003
,
0010
0000
1000
0000
0010
0000
0000
0100
1000
0000
0010
0000
1000
0000
1000
0001
,
1000
0000
0100
0000
0001
0000
0100
0000
2000
0000
0000
0000
3001
1000
0001
0000
,
0010
0000
0001
0000
0010
0000
0000
0100
0001
0000
0010
0000
0001
0000
0001
0000
,
0100
0000
0100
0000
0010
0000
1000
0000
0100
0010
0100
0000
0010
0000
0000
0000
,
0010
0000
0001
0000
0010
0000
0000
0100
0001
0000
0010
0000
0001
0000
0001
1000
,
0001
0000
0100
0000
1000
0000
0100
0000
0002
0000
0000
0000
1003
0001
1000
0000
,
0010
0000
1000
0000
0010
0000
0000
0100
1000
0000
0010
0000
1000
0000
1000
0000
,
0100
0100
0100
0100
0100
0100
0100
0000
,
0010
0000
0001
0000
0010
0000
0000
1000
0100
0000
1000
0000
0100
0000
1000
0100
,
1000
0000
0010
0000
0001
0000
0010
0000
2000
0000
0000
0000
3001
0100
0001
0100
,
0001
0000
0100
0000
0001
0000
0000
0010
1000
0000
0010
0000
1000
0000
1000
0000
,
0100
0100
0010
0001
0100
0010
1001
0000
,
0010
0000
1000
0000
0010
0000
0000
0001
0100
0000
0001
0000
0100
0000
0001
0100
,
0001
0000
0010
0000
1000
0000
0010
0000
0002
0000
0000
0000
1003
0100
1000
0100
,
1000
0100
1001
0000
0001
0010
1001
0000
,
0100
0100
0010
1000
0100
0100
0010
0001
,
0000
0000
0000
0000
;
#NOTES:
     dance-double:
     :
     Easy:
     8:
     :
00000000
00000000
00000000
00000000
,
00000000
00000000
00000000
00000000
,
00000000
00000000
00000000
00000000
,
00000000
00000000
00000000
00000000
,
00000000
00000000
00000000
00000000
,
00000001
00000010
00000001
00000010
,
00000100
00001000
00000100
00001000
,
00000010
00010000
00001000
00010000
,
00022000
00000000
00000000
00033000
,
00100000
00010000
01000000
01000000
,
00100000
10000000
01000000
00100000
,
00010000
01000000
00001000
00001000
,
00010000
00001000
00020000
00030000
,
00000100
00001000
00000010
00000010
,
00000100
00000001
00000100
00000010
,
00001000
00000100
00010000
00010000
,
00022000
00000000
00000000
00033000
,
00100000
00010000
01000000
01000000
,
00100000
00000000
10000000
00000000
00010000
10000000
00010000
00000000
,
01000000
00010000
00100000
00100000
,
00001000
00010000
00001000
00000000
00022000
00000000
00033000
00000000
,
00000100
00001000
00000010
00000010
,
00000100
00000001
00001000
00000100
,
00000110
00000000
00001010
00000000
,
00011000
00011000
00011000
00000000
,
00010000
01000000
10000000
01000000
,
00010000
00000000
00011000
00000000
,
00001000
00000100
00000001
00000100
,
00001000
00001000
00002000
00003000
,
00010000
00100000
10000000
00100000
,
00010000
00000000
00011000
00000000
,
00001000
00000010
00000001
00000010
,
00001000
00001000
00001000
00000000
,
00010000
00100000
00010000
00100000
,
10000000
01000000
10000000
01000000
,
00010000
00001000
00010000
00001000
,
00000010
00000001
00000020
00000030
,
00000010
00000001
00000010
00000001
,
00000100
00001000
00000100
00001000
,
00022000
00000000
00000000
00000000
,
00033000
00000000
00000000
00000000
,
01000000
00000000
00100000
00000000
,
01000000
00000000
00000000
00000000
,
00000100
00000010
00000100
00000010
,
00000100
00000000
00000000
00000000
,
00100000
00000000
01000000
00000000
,
00100000
00000000
00000000
00000000
,
00000010
00000100
00000010
00000100
,
00000010
00000000
00011000
00000000
,
00100000
00100000
10000000
00000000
,
10000000
10000000
01000000
00000000
,
00010000
00001000
00010000
00001000
,
00010000
00001000
00010000
00000000
,
00000010
00000010
00000001
00000000
,
00000001
00000001
00000100
00000000
,
00001000
00010000
00001000
00010000
,
00001000
00010000
00011000
00000000
,
00010000
00100000
10000000
01000000
,
00010000
00001000
00000010
00000001
,
00000100
00001000
00010000
00100000
,
10000000
01000000
00010000
00001000
,
00010000
01000000
10000000
00100000
,
00010000
00001000
00000100
00000001
,
00000010
00001000
00010000
00001000
,
00022000
00000000
00000000
00033000
,
00010000
00100000
00010000
00001000
,
00010000
00010000
00010000
00000000
,
00001000
00000010
00001000
00010000
,
00001000
00010000
00001000
00000000
,
00010000
01000000
00010000
00001000
,
00010000
00010000
00010000
00000000
,
00011000
00000000
00001100
00000000
,
00000010
00000010
00000010
00000000
00000010
00000000
00000000
00000000
,
00000001
00000100
00000010
00001000
,
00001100
00001100
00011000
00000000
,
00100000
00010000
10000000
01000000
,
01100000
01100000
00110000
00000000
,
10000000
11000000
01000000
01010000
,
00011000
00011000
00011000
00000000
,
00000010
00000011
00000001
00000101
,
00000010
00000100
00000010
00000000
00001010
00000000
00001001
00000000
,
00000000
00000000
00000000
00000000
;
#NOTES:
     dance-double:
     :
     Medium:
     11:
     :
00000000
00000000
00000000
00000000
,
00000000
00000000
00000000
00000000
,
00000000
00000000
00000000
00000000
,
00000000
00000000
00000000
00000000
,
00000000
00000000
00000000
00000000
,
00000001
00000010
00000001
00000000
00001000
00000010
00001000
00000000
,
00000100
00010000
00001000
00000000
00010000
00001000
00010000
00000000
,
00001000
00100000
00010000
00000000
10000000
01000000
00100000
00000000
,
20020000
00000000
00000000
30030000
,
10000000
00000000
01100000
00000000
00010000
00100000
00010000
00000000
,
01000000
00100000
00010000
00000000
00001000
00010000
00001000
00000000
,
00000100
00000000
00001001
00000000
00000010
00001000
00000010
00000000
,
00000100
00000001
00000100
00000010
00000200
00000000
00000300
00000000
,
00000010
00000000
00001001
00000000
00000100
00001000
00000100
00000000
,
00010000
00001000
00010000
00000000
00001000
00100000
00010000
00000000
,
00100000
00000000
10010000
00000000
01000000
10000000
00010000
00000000
,
20000000
32000000
03200000
00320000
,
00031000
00000000
00001100
00000000
00000010
00000001
00000010
00000000
,
00000001
00001000
00000001
00001000
00000001
00000000
00000100
00000000
,
00000010
00000000
00001100
00000000
00010000
00001000
00010000
00000000
,
01000000
10000000
00010000
10000000
02000000
00000000
03000000
00000000
,
00100000
00000000
11000000
00000000
00010000
00100000
00010000
00000000
,
01000000
00001000
01000000
00000000
00001000
00010000
00001000
00000000
,
00011000
00000000
00001010
00000000
,
00001001
00000011
00000110
00000000
,
00000001
00000100
00000010
00010000
,
00001000
00000000
01000000
00000000
00100000
10000000
00100000
00000000
,
10000000
01000000
00100000
00001000
,
00010000
00000100
00000220
00000330
,
00000001
00000010
00000100
00010000
,
00001000
00000000
00100000
00000000
01000000
10000000
01000000
00000000
,
10000000
00100000
00010000
00100000
,
00010000
00001000
00010000
00001000
00020000
00000000
00030000
00000000
,
00001000
00000100
00000001
00000100
,
00001000
00000000
00010000
00000000
00000100
00000010
00000100
00000000
,
00010000
00001000
00100000
00010000
,
01000000
00100000
01000000
00000000
00100000
00000000
10010000
00000000
,
01000000
00010000
00001000
00010000
,
01000000
00100000
01000000
00000000
00010000
00001000
00010000
00000000
,
00000100
00000000
00000010
00000001
00000010
00000000
00000100
00000000
,
00002002
00000000
00000000
00003003
,
00000010
00000100
00000000
00000010
00010000
00000000
00001000
00010000
,
00000000
00011000
00000000
00001000
00100000
00000000
00010000
00000000
,
01000000
00001000
00010000
00001000
,
00100000
01000000
10000000
00000000
,
00100000
01000000
00000000
00100000
00001000
00000000
00010000
00001000
,
00000000
00011000
00000000
00010000
00000010
00000000
00001000
00000000
,
00000100
00010000
00001000
00010000
,
00000010
00000100
00000001
00000000
,
00000001
00000100
00000010
00000100
,
00001000
00010000
00001000
00000000
,
00010000
00001000
00010000
00001000
00010000
00001000
00010000
00000000
,
00011000
00011000
00011000
00000000
,
00001000
00010000
01000000
00100000
,
01000000
10000000
01000000
00000000
,
00100000
01000000
00100000
01000000
00100000
01000000
00100000
00000000
,
00020000
20030000
32000000
03200000
,
00301000
00000000
00010000
00000000
00000100
00001000
00000010
00000000
,
00000100
00000000
00000001
00000000
00000010
00000100
00001000
00000000
,
00000010
00000000
00000100
00000000
00001000
00010000
00001000
00000000
,
00010000
00100000
00010000
00000000
00100000
10000000
01000000
00000000
,
00100000
00010000
00100000
00010000
00100000
00001000
00100000
00000000
,
00001000
00010000
00001000
00010000
00000100
00010000
00000100
00000000
,
00001000
00000010
00001000
00000010
00001000
00000001
00001000
00000000
,
00002002
00000000
00000000
00003003
,
00000001
00000010
00000100
00000000
00001000
00000010
00000100
00000000
,
00001100
00011000
00220000
00330000
,
00100000
00010000
01000000
00000000
00100000
10000000
01000000
00000000
,
00010000
00001000
00100000
00001000
00020000
00000000
00030000
00000000
,
00001000
00010000
00000100
00000000
00001000
00000010
00000100
00000000
,
00000101
00000110
00002020
00003030
,
00011000
00000000
00110000
00000000
,
01000000
01000000
01000000
00000000
02000000
00000000
03000000
00000000
,
10000000
01000000
00100000
00000000
00010000
01000000
00100000
00000000
,
00010000
00001000
00010000
00001000
00020000
00000000
00030000
00000000
,
00001000
00000010
00000100
00000000
00001000
00000010
00000100
00000000
,
00000001
00000100
00000001
00000100
00001000
00000000
00011000
00000000
,
00010000
00100000
00010000
00100000
10000000
01000000
00100000
00010000
,
01000000
00010000
01000000
00010000
00100000
00001000
00010000
00000100
,
00001000
00000010
00000100
00000000
00000001
00000010
00000100
00000000
,
00001000
00000010
00010000
00001000
01000000
00010000
10000000
00100000
,
00000000
00000000
00000000
00000000
;
#NOTES:
     dance-double:
     :
     Hard:
     14:
     :
00000000
00000000
00000000
00000000
,
00000000
00000000
00000000
00000000
,
00000000
00000000
00000000
00000000
,
00000000
00000000
00000000
00000000
,
00000000
00000000
00000000
00000000
,
10000000
01000000
10000000
01000000
00100000
00010000
01000000
00010000
,
00100000
00001000
00010000
00001000
00000010
00000100
00001000
00000001
,
00000100
00000001
00000010
00000100
00001000
00000100
00010000
00000000
,
00022000
00000000
00000000
00033000
,
00100000
00000000
00000000
00000000
00010000
00000000
00000000
00000000
10000000
00000000
00000000
10000000
00000000
00000000
10000000
00000000
,
00100000
01000000
00100000
00000000
10000000
01000000
00010000
00000000
,
00001000
00000000
00000000
00000000
00010000
00000000
00000000
00000000
00000100
00000000
00000000
00000100
00000000
00000000
00000100
00000000
,
00001000
00000000
00000100
00000000
00001000
00000000
00000100
00000000
00000020
00000000
00000000
00000000
00000031
00001000
00000001
00001000
,
00000001
00000000
00000000
00000000
00000100
00000000
00000000
00000000
00000010
00000000
00000000
00000010
00000000
00000000
00000010
00000000
,
00001000
00000100
00010000
00001000
00010000
00100000
01000000
00000000
,
00100000
00000000
00000000
00000000
10000000
00000000
00000000
00000000
01000000
00000000
00000000
01000000
00000000
00000000
01000000
00000000
,
10000000
00000000
10000000
01000000
00000000
01000000
00100000
00000000
00100000
00002000
00000000
00000000
,
00013000
00000000
00000000
00000000
00000100
00000000
00000000
00000000
00000010
00000000
00000000
00000010
00000000
00000000
00000010
00000000
,
00000100
00001000
00000010
00000001
00000010
00001000
00000100
00000000
,
00010000
00000000
00000000
00000000
00001000
00000000
00000000
00000000
00010000
00000000
00000000
00010000
00000000
00000000
00010000
00000000
,
01000000
00000000
10000000
00000000
01000000
00000000
00000000
00000000
20000000
00000000
00000000
00000000
30010000
10000000
00010000
10000000
,
00010000
00000000
00000000
00000000
00100000
00000000
00000000
00000000
00001000
00000000
00000000
00001000
00000000
00000000
00001000
00000000
,
00010000
00000100
00001000
00000010
00000100
00000001
00001000
00000000
,
00000001
00000000
00000000
00000000
00000110
00000000
00000000
00000000
00001000
00000000
00000000
00000000
00000100
00010000
00000100
00000000
,
00010000
00010000
00010000
00010000
00020000
00000000
00030000
00000000
,
01000000
00000000
10000000
00000000
01000000
00000000
00000000
10000000
00100000
00000000
10000000
00000000
00100000
00000000
00000000
00000000
,
01000000
00001000
00010000
00001000
00020000
00000000
00030000
00000000
,
00000100
00000000
00001000
00000000
00000100
00000000
00000000
00001000
00000010
00000000
00001000
00000000
00000010
00000000
00000000
00000000
,
00000100
00000000
00000001
00000000
00000010
00000000
00000001
00000000
00001000
00000100
00000010
00000000
00001001
00000000
00000000
00000000
,
00000010
00000000
00000100
00000000
00001000
00000000
00000000
00000100
00010000
00000000
00001000
00000000
00010000
00000000
00000000
00000000
,
00001000
00100000
00010000
00100000
00010000
00000000
10010000
00000000
,
11000000
01100000
00001000
00011000
,
00010000
00000000
00010000
00000000
00010000
00001000
00000000
00010000
00001000
00000000
00001000
00000000
00001000
00000000
00000000
00000000
,
00000010
00000000
00000001
00000000
00000010
00000000
00000000
00000001
00000100
00000000
00000001
00000000
00000100
00000000
00000000
00000000
,
00000010
00010000
00001000
00010000
00002000
00000000
00003000
00000000
,
00100000
00000000
00010000
00000000
00100000
00000000
00000000
00010000
01000000
00000000
00010000
00000000
01000000
00000000
00000000
00000000
,
00100000
10000000
01000000
10000000
00010000
00100000
10010000
00000000
,
01000000
00000000
00100000
00000000
00010000
00000000
00000000
00100000
00001000
00000000
00010000
00000000
00001000
00000000
00000000
00000000
,
00010000
00000100
00001000
00000100
00001000
00000000
00001001
00000000
,
00000011
00000000
00000010
00000100
00001000
00010000
00001000
00000000
,
00022000
00000000
00000000
00033000
,
00020000
01000000
00000000
10000000
,
00000000
00100000
00000000
01000000
,
00032000
00000100
00000001
00000000
,
00000000
00000001
00000010
00000000
,
00023000
00100000
00000000
01000000
,
00000000
10000000
00000000
00100000
,
00032000
00000010
00000100
00000000
,
00000001
00003100
00011000
00000000
,
00100000
00001000
00100000
00010000
00100000
00001000
00100000
00010000
,
10000000
01000000
00100000
01000000
10000000
01000000
00100000
00000000
,
00001000
00000000
00010000
00001000
00010000
00000000
00001000
00010000
00001000
00000000
00010000
00000000
00000100
00000000
00001000
00000000
,
00000010
00000010
00000100
00000010
00000110
00000000
00000001
00000001
,
00000010
00000100
00001000
00000100
00000010
00000100
00001000
00000000
,
00000100
00010000
00001000
00010000
00000100
00010000
00001000
00000000
,
00010000
00000000
00001000
00010000
00001000
00000000
00010000
00001000
00010000
00000000
00001000
00000000
00100000
00000000
00000000
00000000
,
00010000
00000000
00000000
00000000
00100000
00000000
00000000
00000000
01000000
00000000
00000000
00000000
00100000
00000000
00000000
00000000
01000000
00000000
00000000
00000000
10000000
00000000
00000000
00000000
00010000
00000000
00000000
10000000
00000000
00000000
00010000
00000000
00000000
00000000
00000000
00000000
10000000
00000000
00000000
00000000
00000000
00000000
00100000
00000000
00000000
00000000
00000000
00000000
,
10000000
00000000
01000000
00000000
00100000
00000000
00001000
00000000
00010000
00000000
00000100
00000000
00001000
00000010
00001000
00000000
,
00000001
00000000
00000010
00000000
00000100
00000000
00001000
00000000
00000010
00000000
00000100
00000000
00001000
00010000
00001000
00010000
,
00001000
00000000
00010000
00000000
00100000
00000000
01000000
00000000
00010000
00000000
00100000
00000000
01000000
10000000
01000000
00000000
,
00100000
00010000
00100000
00010000
00001000
00000100
00001000
00000100
,
00000010
00000001
00000010
00000000
00000100
00000000
00001000
00000000
00000001
00000000
00000100
00000000
00000010
00000000
00001000
00000000
,
00000010
00010000
00000010
00000000
00010000
00000000
00001000
00000000
01000000
00000000
00010000
00000000
00100000
00010000
00100000
00000000
,
01000000
10000000
01000000
00100000
00010000
00100000
00001000
00020000
,
00002000
00000000
00000000
00033000
,
00000100
00000000
00000001
00000000
00000100
00000000
00000000
00000010
00001000
00000000
00000100
00000000
00000010
00000000
00000001
00001000
,
00000001
00000000
00000100
00000000
00001000
00000000
00010000
00000000
00200000
00000000
00000000
00000000
01300000
00100000
01000000
00000000
,
00100000
00000000
10000000
00000000
01000000
00000000
00000000
00010000
01000000
00000000
00100000
00000000
00001000
00000000
00010000
00000000
,
00000100
00000000
00000100
00000000
00001000
00000000
00000010
00000000
00000100
00000001
00000100
00000000
00000010
00000000
00000000
00000000
,
00001000
00000000
00000100
00000000
00000010
00000000
00000000
00000001
00000010
00000000
00000100
00000000
00001000
00000000
00000010
00001000
,
00000010
00010000
00001000
00100000
00020000
00000000
10030000
00000000
,
01100000
00001000
00011000
00000100
,
00000010
00000010
00000010
00000010
00000010
00000010
00000010
00000000
,
00000001
00000000
00000100
00000000
00000001
00000000
00000000
00000010
00000100
00000000
00001000
00000000
00000100
00000000
00010000
00001000
,
00010000
00000000
00001000
00000000
00100000
00000000
00010000
00000000
02000000
00000000
00000000
00000000
03100000
10000000
00100000
10000000
,
00100000
00000000
10000000
00000000
01000000
00000000
00000000
00100000
00010000
00000000
00100000
00000000
01000000
00000000
00010000
00000000
,
00001000
00001000
00000010
00000010
00000001
00001000
00001001
00000000
,
00000010
00000000
00000001
00000000
00000010
00000000
00000000
00000001
00000100
00000000
00000001
00000000
00000100
00000000
00001000
00010000
,
00001000
00000000
00010000
00000000
00100000
00000000
10000000
00000000
00200000
00000000
00000000
00000000
10300000
00010000
10000000
00000000
,
00100000
10010000
01000000
00011000
,
00010000
00001000
00010000
00000100
00001000
00000100
00000010
00000001
,
00000000
00000000
00000000
00000000
;
