
//----- song ID: biii -----//
#TITLE:び;
#ARTIST:立秋 feat.ちょこ;
#TITLETRANSLIT:Bi;
#ARTISTTRANSLIT:Rissyuu feat. Choko;
#BANNER:Bi.png;
#BACKGROUND:Bi-bg.png;
#CDTITLE:./CDTitles/SDVX VIVID WAVE.png;
#MUSIC:Bi.ogg;
#SAMPLESTART:88.668;
#SAMPLELENGTH:15;
#BPMS:0=169;
#NOTES:
     dance-single:
     :
     Beginner:
     5:
     :
0000
0000
0000
0000
,
0000
0000
0000
0000
,
0000
0000
0000
0000
,
0010
0000
0010
0000
,
1000
0000
1000
0001
,
0000
0001
0000
0010
,
0000
0000
0010
0000
0000
0100
0000
0000
,
0000
0100
0000
0000
0000
1000
0000
0000
,
0000
1000
0000
0001
0000
0000
0000
0001
,
0000
0000
0000
0100
0000
0000
0000
0100
,
0000
0000
0000
0010
0000
0000
0000
0010
,
0000
0000
0000
0100
0000
0000
0000
0100
,
0000
0000
0000
2002
0000
0000
0000
3003
,
0000
0000
0000
0001
0000
0000
0000
1000
,
0000
1000
0000
1000
0000
1000
0000
0001
,
0000
0000
0000
0010
0000
0000
0000
2002
,
0000
3003
0000
1000
0000
0000
0000
0000
,
0000
0000
0000
0100
0000
0000
0000
0000
,
0000
0000
0000
0010
0000
0000
0000
0000
,
0000
0000
0000
0001
0000
0001
0000
0001
,
0000
0000
0000
1000
0000
1000
0000
1000
,
0000
0000
0000
0010
0000
0010
0000
0010
,
0000
0000
0000
0100
0000
0100
0000
0100
,
0000
0000
0000
0001
0000
0000
0000
0001
,
0000
1000
0000
1000
,
0000
0001
0000
0000
0000
0001
0000
0000
,
0000
0000
1000
1000
,
2000
0000
0000
3000
,
0000
0000
0000
0002
,
0000
0000
0000
0000
,
0000
0003
0000
2000
,
0000
0000
0000
0000
,
0000
3000
0000
0020
,
0000
0000
0000
0000
,
0000
0030
0000
0200
,
0000
0000
0000
0000
,
0300
0000
0010
0010
,
0010
0000
0100
0100
,
0100
0000
0001
0001
,
0001
0000
1000
1000
,
1000
0000
0010
0010
,
0010
0000
0100
0100
,
0100
0000
0001
0000
,
1000
0000
0001
0000
,
1000
0000
0010
0000
,
0010
0010
0100
0000
,
0100
0100
0001
0000
,
0001
0001
1000
0000
,
1000
0002
0000
0003
,
0000
2000
0000
0000
0000
3000
0000
0002
,
0000
0003
2000
3000
,
0001
0000
0000
1000
0000
0002
0000
0000
,
0000
0000
0000
0003
,
0000
0000
1001
0000
,
0000
0000
0001
0001
,
0001
0001
0001
0001
,
0001
0001
1000
1000
,
1000
1000
1000
1000
,
1000
1000
0010
0010
,
0010
0010
0010
0010
,
0010
0010
0100
0100
,
0100
0100
0100
0100
,
0100
0000
0001
0000
,
0010
0000
1000
0000
,
0010
0000
0001
0000
,
0100
0000
1000
0000
,
0100
0000
0001
0000
,
1000
0000
0001
0000
,
1000
0000
0010
0000
,
0100
0000
0020
0000
,
0030
0000
0100
0100
,
0100
0000
0001
1000
,
0001
0000
1000
0001
,
1000
0000
0010
0100
,
0010
0000
0010
0010
,
0010
0000
1000
0001
,
1000
0000
0001
1000
,
0001
0000
0100
0010
,
0100
0000
0020
0000
,
0000
0000
0000
0030
0000
0000
0000
0000
,
0000
0000
0000
0000
0000
0000
0000
0000
0000
0000
0000
1001
0000
0000
0000
0000
,
0000
0000
0000
0000
;
#NOTES:
     dance-single:
     :
     Easy:
     9:
     :
0000
0000
0000
0000
,
0000
0000
0000
0000
,
0000
0000
0000
0000
,
1000
0000
0100
0000
0010
0001
0010
0000
,
0100
0000
1000
0000
0001
0100
0001
0000
,
0010
0000
0100
0010
0100
0000
0010
0000
,
0001
0000
1000
0001
1000
0010
0000
0010
,
0000
0100
0010
0100
0000
0001
0000
1000
,
0000
0001
1000
0001
0000
0010
0000
0100
,
1000
0100
0000
1000
0000
0010
0000
0100
,
0001
0100
0000
0010
0000
0100
0000
0010
,
0000
0100
0000
0001
0000
1000
0000
0001
,
0000
1000
0000
0002
0000
0000
0000
0000
,
0000
1003
0000
0100
0100
0100
0000
0010
,
0000
1000
0000
0001
0000
0100
0000
0010
,
0100
0010
0000
0200
0000
0000
0000
0320
,
0000
1030
0000
0020
0000
0000
0000
0230
,
0000
0000
0000
0302
0000
0000
0000
2003
,
0000
0000
0000
3010
0100
0000
0100
0010
,
0000
1001
0000
0010
0000
1000
0000
0010
,
0000
1000
0000
0001
0000
0100
0000
0001
,
0100
0001
0000
0010
0000
0001
0000
0010
,
0000
0001
0000
1000
0000
0100
0000
1000
,
0100
1000
0000
0010
0000
1000
0000
0100
,
0000
0010
0001
0000
0100
0000
0010
0000
,
1000
0100
0000
0010
0000
0001
0000
1000
,
0001
2000
0000
0000
3002
0000
0023
0000
,
0200
0000
0330
0020
,
0000
0000
0000
0000
0000
0000
0000
0000
0030
0000
0000
0000
0100
0000
0000
0100
,
0000
0000
0100
0000
0000
0100
0000
0000
0100
0000
0000
0100
0000
0000
0100
0000
,
0000
0100
0000
0000
0100
0000
0000
0100
0000
0000
0100
0000
0010
0000
0000
0010
,
0000
0000
0010
0000
0000
0010
0000
0000
0010
0000
0000
0010
0000
0000
0010
0000
,
0000
0010
0000
0000
0010
0000
0000
0010
0000
0000
0010
0000
0001
0000
0000
0001
,
0000
0000
0001
0000
0000
0001
0000
0000
0001
0000
0000
0001
0000
0000
0001
0000
,
0000
0001
0000
0000
0001
0000
0000
0001
0000
0000
0001
0000
1000
0000
0000
1000
,
0000
0000
1000
0000
0000
1000
0000
0000
1000
0000
0000
1000
0000
0000
2000
0000
,
0000
0000
3001
0100
,
0001
0100
0001
0000
0010
0000
0100
0000
,
0010
0100
0010
0000
0100
0000
1000
0000
,
0100
1000
0100
0000
1000
0000
0001
0000
,
1000
0001
1000
0000
0010
0000
0010
0000
,
0010
0010
0100
0001
,
1000
0010
0100
0100
,
0010
0010
0200
0000
,
0310
0010
1000
0100
,
1000
0100
0001
0000
0100
0000
1000
0000
,
0001
0100
1000
0000
0100
0000
0001
0000
,
1000
0100
0001
0000
0100
0000
0010
0000
,
0100
0010
0100
0000
0010
0000
0100
0000
,
0010
0100
0000
0010
0000
0100
0010
0100
,
0000
0001
0000
0010
0100
0000
0010
0000
,
0001
0000
1000
0000
0001
0100
0020
0000
,
0000
0000
0000
0200
,
0000
0330
0100
0100
,
0100
0100
0010
0100
,
0010
0100
0001
1000
,
0001
1000
0010
0100
,
0001
1000
0100
0010
,
0001
1000
0001
0100
,
0010
1000
0100
0010
,
0001
1000
0010
0100
,
0010
0000
0100
0000
0001
1000
0001
1000
,
0002
0000
1003
0010
,
0100
0001
0001
0010
,
0100
1000
0010
0100
,
0010
1000
0001
0010
,
0100
1000
0001
0001
,
1000
1000
0010
1000
,
0001
0000
0000
0000
0100
0000
0000
0000
0010
0000
0000
0010
0000
0000
0010
0000
,
0000
0010
0000
0000
0010
0000
0010
0000
0200
0000
0000
0000
0000
0000
0000
0000
,
0000
0300
0010
1000
,
0100
1001
0100
0010
,
0001
1001
0100
0010
,
0001
1001
0100
0010
,
1000
1001
0200
0000
,
0000
0300
0001
0010
,
0100
1000
0010
0100
,
0001
0010
0200
0000
,
0010
0010
0320
0000
,
0000
0000
0000
0230
0000
0000
0000
0000
,
0000
0000
0000
0000
0000
0000
0000
0000
0000
0000
0000
0310
0000
0000
0000
0000
,
0000
0000
0000
0000
;
#NOTES:
     dance-single:
     :
     Medium:
     12:
     :
0000
0000
0000
0000
,
0000
0000
0000
0000
,
0000
0000
0000
0000
,
0001
0100
0010
1000
0100
0010
0001
1000
,
0010
0100
0001
0010
0100
1000
0100
0010
,
0001
1000
0010
0100
0010
1000
0001
0010
,
0100
0010
0001
0100
0001
0010
0010
0001
,
0001
0100
0010
1000
0100
1000
1000
0100
,
0100
1000
0100
0010
0001
1000
0010
0100
,
0001
0000
0010
0000
0100
0000
1000
0000
1000
0000
0001
0000
0001
0000
0100
0010
,
0000
0100
0010
0000
1000
0000
0100
0000
0000
0000
0100
0000
0000
0000
0010
0000
,
0001
0010
0000
0100
0000
0100
0000
1000
,
0100
1000
0000
0002
0000
0000
0000
0000
,
0000
1003
0000
0010
0100
0010
0000
0110
,
0000
1001
0000
0110
0000
1001
0000
0001
,
0100
0010
1000
0200
0000
0000
0000
0310
,
0000
0001
0100
0001
0010
0000
0100
0000
,
1000
0000
0010
0100
0001
0010
0100
1000
,
0010
0100
0001
1000
0001
0000
0010
0100
,
0000
0100
0000
0000
0100
0000
1000
0000
0100
0000
1000
0000
0100
0000
0010
0000
,
0001
0010
0001
0100
0010
0100
0010
1000
,
0001
1000
0000
0001
0100
0001
0100
0010
,
1000
0010
1000
0100
0010
0100
0010
0001
,
1000
0000
0001
0000
0000
0000
0011
0000
0000
0100
0000
0000
0010
0000
0000
0100
,
0000
0000
1000
0000
1100
0000
0000
0001
0000
0000
0100
0000
0000
0001
0000
0000
,
0100
0000
0101
0000
0000
0010
0000
0000
1000
0000
0000
0001
0000
0000
0100
0000
,
0010
0200
0000
0000
0320
0000
2030
0000
,
0002
0000
0000
0000
0000
0000
0000
0000
3003
0000
0000
0000
0100
0000
0000
0001
,
0000
0000
0010
0000
0000
0100
0000
0000
1000
0000
0001
0000
0100
0000
0000
0010
,
0000
0000
1000
0000
0000
0001
0000
0000
0010
0000
0000
0100
0000
0000
1000
0000
,
0000
0001
0000
0000
0100
0000
0010
0000
1000
0000
0001
0000
0100
0000
0000
0010
,
0000
0000
1000
0000
0000
0001
0000
0000
0010
0000
0000
0100
0000
0000
1000
0000
,
0000
0001
0000
0000
0100
0000
0010
0000
1000
0000
0001
0000
0010
0000
0000
0100
,
0000
0000
1000
0000
0000
0010
0000
0000
0100
0000
0000
0001
0000
0000
0010
0000
,
0000
0100
0000
0000
0010
0000
0100
0000
0010
0000
0001
0000
1000
0000
0000
0100
,
0000
0000
0010
0000
0000
0001
0000
0000
1000
0000
0000
0100
0000
0000
0010
0000
,
0100
1000
0010
0000
0100
1000
0100
0001
,
0100
1000
0100
0001
0100
1000
0100
0001
,
0010
0100
1000
0000
0001
0100
1000
0100
,
0001
0100
1000
0100
0001
0100
1000
0100
,
0001
0100
1000
0100
0020
0000
0000
0000
,
0000
0000
0000
0000
0130
0001
0100
0001
,
0010
0000
0001
0000
0100
0000
0001
0000
0010
0000
0000
0100
0000
0000
1000
0000
,
0000
0010
0000
0000
1000
0000
0100
0000
0020
0000
0000
0000
0000
0000
0000
0000
,
0130
0000
0010
0000
0001
1000
0000
1000
0001
0000
0000
0000
1000
0000
0000
0000
,
0010
0100
0010
0100
0001
0000
0001
0000
,
0010
0100
0010
0100
1000
0000
1000
0000
,
0001
1000
0001
1000
0001
0000
0001
0000
,
0100
0000
0100
0000
0010
0000
0000
0100
0000
0000
0010
0000
0000
0100
0000
0000
,
0010
0000
1000
0000
0000
0001
0000
0000
1000
0000
0000
0001
0000
0000
1000
0000
,
0010
0100
0001
0010
0001
0010
0100
1000
,
0100
0010
0001
0100
1000
0100
0002
0000
,
0000
0000
0000
2000
,
0000
0000
0000
0000
3003
0000
0000
0000
0001
0000
0000
1000
0000
0000
0001
0000
,
0000
1000
0000
0000
0001
0000
1000
0000
0001
0000
1000
0000
0001
0000
1000
0000
,
0001
1000
0001
1000
0010
0100
0010
0100
,
0010
0100
0010
0100
0010
1000
0001
0100
,
0010
1000
0001
0100
0010
1000
0100
0010
,
0001
1000
0100
0010
0001
0100
0001
0010
,
0001
0100
0001
0010
0100
1000
0010
1000
,
0100
1000
0010
1000
0100
0010
0001
1000
,
0010
0100
0001
1000
0100
0010
0001
0100
,
0020
0000
0000
0000
0130
1000
0100
0001
,
0100
1000
0100
0001
0010
1000
0010
0001
,
0100
1000
0100
0000
0010
1000
0010
0001
,
0010
1000
0010
0001
0010
1000
0100
0001
,
0100
1000
0010
0000
0001
0100
0010
1000
,
0001
0100
0010
1000
0100
0010
0001
1000
,
0100
0000
0010
0000
0001
0000
1000
0000
0010
0000
0000
0100
0000
0000
0010
0000
,
0000
1000
0000
0000
0001
0000
0010
0000
0100
0000
1000
0000
0001
0000
0100
0000
,
0010
0000
0010
0010
0100
0010
0100
0001
,
1000
0010
0100
0001
0010
0100
1000
0001
,
0010
0100
1000
0010
0100
0001
1000
0010
,
0100
0001
1000
0010
0100
0001
0010
0100
,
1000
0001
0010
0100
2000
0000
0000
0000
,
0000
0000
3000
0000
0001
0100
0010
1000
,
0001
0000
0010
0000
0100
0000
1000
0000
0001
0010
0000
0001
0010
0000
0100
1000
,
0000
0100
1000
0000
0100
0000
0010
0000
0002
0000
0000
0000
0000
0000
0000
0000
,
1003
0000
0010
0000
1000
0010
0000
1000
0020
0000
0000
0000
0000
0000
0000
0000
,
0230
0000
0000
0000
0000
0000
0310
0000
0000
0010
0000
0000
0010
0000
0000
0010
,
0000
0000
0010
0000
0200
0000
0000
0000
0000
0000
0000
0310
0000
0000
0000
0000
,
0000
0000
0000
0000
;
#NOTES:
     dance-single:
     :
     Hard:
     17:
     :
0000
0000
0000
0000
,
0000
0000
0000
0000
,
0000
0000
0000
0000
,
1000
0000
0100
0000
1000
0000
0010
0000
1000
0100
0000
0010
0000
0001
1000
0100
,
1000
0000
0100
0000
0010
0000
0001
0000
0010
0001
0000
1000
0100
0000
1000
0000
,
0010
0000
0100
0000
0010
1000
0000
0001
0100
0000
0010
0000
1000
0000
1000
0000
,
0001
0000
0001
0000
1000
0100
0000
0010
0001
0000
0010
0000
0001
0000
0010
0000
,
0001
0000
0010
0100
0000
1000
0000
0100
1000
0100
1000
0000
0100
0000
1000
0000
,
0010
0000
1000
0010
0000
1000
0010
0000
0100
0000
0001
0000
1000
0000
0001
0100
,
0000
0010
1000
0000
0100
0000
1000
0000
0100
0000
0010
0000
0001
0000
1000
0100
,
0000
0010
0001
0000
1000
0100
0010
0000
0000
0000
0010
0000
0000
0000
0100
0000
,
0000
0100
0000
1000
0000
1000
0000
0001
,
0000
0001
0000
0200
0000
0000
0000
0300
,
0000
1001
0000
0010
0000
0100
0000
1100
,
0000
0011
0000
1010
0000
0101
0000
1000
,
0100
0000
0010
0000
0001
0000
1000
0001
2000
0000
0000
0000
0000
0000
3002
0000
,
0000
1003
0010
1000
2000
0000
3200
0000
,
0310
0001
1000
0010
0100
0001
0100
1000
,
0100
0001
0010
0100
0110
0000
0010
0011
,
0000
0010
0000
0000
0100
0000
1000
0100
1000
0000
0010
0100
0010
0000
0100
0001
,
0100
0000
0001
0010
0001
0000
1000
0100
1000
0000
0001
0100
0001
0000
1010
0000
,
1100
0000
0101
0000
0000
0000
0001
0010
0001
0000
0100
0010
0100
0000
0010
1000
,
0010
0000
1000
0100
1000
0000
0001
0010
0001
0000
1000
0010
1000
0000
0101
0000
,
0011
0000
1010
0000
0000
0000
1010
0000
0100
0010
1000
0000
0100
0000
0010
0001
,
0010
0000
0001
0000
1000
0000
0001
0000
1000
0000
0010
1000
0010
0000
0100
0000
,
0001
0000
1000
0010
1000
0010
1000
0000
0100
0000
0010
0000
0001
0000
1000
0000
,
0010
0100
0020
0000
0000
0000
0000
0000
2030
0000
0000
0000
3200
0000
0000
0000
,
0020
0000
0000
0000
0000
0000
0000
0000
0330
0000
0000
0000
0001
0000
0000
0010
,
0000
0000
1000
0000
0000
0100
0000
0000
0001
0000
1000
0000
0001
0010
0000
0001
,
0010
0000
0001
0100
0000
0001
0100
0000
0010
1000
0000
0010
1000
0000
0100
1000
,
0000
0100
1000
0000
0001
0010
0000
0001
0010
0000
0001
0010
0100
1000
0000
0100
,
1000
0000
0010
1000
0000
0010
1000
0000
0100
0010
0000
0100
0010
0000
0100
1000
,
0000
0100
1000
0000
0010
1000
0000
0010
1000
0000
0010
1000
0010
0100
0000
0010
,
0100
0000
0001
0010
0000
0001
0010
0000
0100
0010
0000
0100
0010
0000
0100
1000
,
0000
0100
1000
0000
0001
0010
0000
0001
0010
0000
0001
0010
0001
1000
0000
0001
,
0100
0000
0010
0100
0000
0001
0010
0000
0100
1000
0000
0001
0100
0010
1000
0000
,
0100
0000
0010
0000
0002
0000
0000
0000
1003
0100
0000
0010
0001
0000
1000
0100
,
0000
0010
0001
0000
1000
0100
0000
0010
0001
0000
1000
0100
0000
0010
0001
0000
,
1000
0100
0000
0010
0001
0000
0010
0001
1000
0010
0000
0100
0001
0000
1000
0010
,
0000
0100
0001
0000
1000
0010
0000
0100
0001
0000
1000
0010
0000
0100
0001
0000
,
1000
0010
0000
0100
0001
1000
0010
0000
0200
0000
0000
0000
0000
0000
0000
0000
,
0000
0001
0000
0000
0001
0000
0301
1000
0100
0000
0010
0100
0000
1000
0010
0000
,
0100
0010
0000
1000
0001
0000
0010
0100
1000
0100
0000
0010
0001
0000
1000
0100
,
0000
0000
0000
0010
0000
0000
0100
0000
0000
0000
0000
0000
1000
0000
0000
0000
0000
0000
0001
0000
0000
0000
0000
0000
0100
0000
0000
0000
0010
0000
0000
0000
1000
0000
0000
0000
0001
0000
0000
0000
0010
0000
0000
0000
0100
0000
0000
0000
,
1000
0000
0001
0000
1000
0001
0000
0001
1000
0000
0100
0000
0010
0000
0010
0000
,
0001
0100
0010
0010
1000
0100
0010
0010
,
0001
1000
0010
0010
0100
0001
1000
0100
,
0010
0001
1000
1000
0001
0100
0010
1000
,
0001
0000
1000
0000
0110
0000
0000
1000
0000
0000
0100
0000
0010
0000
0001
0000
,
0010
0000
0011
0000
0000
0001
0000
0000
1000
0000
0010
0000
0100
0000
0110
0000
,
0000
0001
0000
0000
0010
0000
0100
0000
0110
0000
1000
0000
0001
0000
1000
0000
,
1001
0000
0000
0100
0000
0000
0110
0000
0000
0010
0000
0000
0100
0000
0000
0001
0000
0000
1000
0000
0100
0000
0010
0000
,
0001
1000
0100
0010
0001
0100
0010
1000
0001
2000
0000
0000
,
0000
0000
0000
0000
0000
0000
0000
0000
0001
0000
0000
0001
0000
0000
0001
0000
,
0000
0001
0000
0000
0001
0000
0001
0000
3001
0100
0001
0100
0001
0100
0001
0100
,
0010
1000
0010
1000
0010
1000
0010
1000
0001
1000
0001
1000
0001
1000
0001
1000
,
0001
0010
0001
0010
0001
0010
0001
0010
0100
1000
0100
1000
0100
1000
0100
1000
,
0100
0010
0100
0010
0100
0010
0100
0010
0001
0010
0001
0010
0001
0010
0001
0010
,
0001
0100
0001
0100
0001
0100
0001
0100
0010
1000
0010
1000
0010
1000
0010
1000
,
0001
1000
0001
1000
0001
1000
0001
1000
0001
0010
0001
0010
0001
0010
0001
0010
,
0100
1000
0100
1000
0100
1000
0100
1000
0100
0010
0100
0010
0100
0010
0100
0010
,
0001
0010
0001
0010
0001
0010
0001
1000
0100
0010
0001
0000
0100
0000
0010
0000
,
0200
0000
0000
0000
0310
1000
0010
1000
0001
0000
0010
0001
0000
1000
0100
0000
,
1000
0100
0000
0010
0001
0000
1000
0100
0000
0010
0001
0000
1000
0100
0000
0010
,
0001
0000
1000
0100
0000
0010
0001
0100
0010
0000
1000
0010
0000
1000
0010
0000
,
0100
0001
0000
0100
0001
0000
1000
0010
0000
0100
0001
0000
1000
0010
0000
0100
,
0001
0000
1000
0010
0000
0100
0001
0010
0100
0000
0010
0001
0000
0010
0100
0000
,
0010
0001
0000
0010
0100
0000
1000
0010
0000
0100
0010
0000
1000
0010
0000
0100
,
0010
0000
1000
0010
0000
0100
0001
1000
0100
1000
0000
0001
0100
0000
0010
1000
,
0000
0100
0010
0000
0001
1000
0000
1000
0001
1000
0001
1000
0001
1000
0001
1000
,
0001
0000
1000
0000
0000
0000
0000
0010
0100
0000
0010
0001
0000
0010
0100
0000
,
0010
1000
0000
0010
0100
0000
0010
0001
0000
0010
0100
0000
0010
1000
0000
0001
,
0100
0000
0010
1000
0000
0100
0010
0001
1000
0000
0100
1000
0000
0100
0010
0000
,
0100
0001
0000
0100
0010
0000
0100
1000
0000
0100
0010
0000
0100
0001
0000
0100
,
0010
0000
0001
0100
0000
0010
1000
0000
0002
0000
0000
0000
0000
0000
0000
0000
,
0000
1000
0000
0000
1000
0000
1003
0000
0001
0000
0100
0010
0000
1000
0001
0000
,
0010
0100
0000
0010
0001
0000
0010
0100
1000
0010
0000
0100
0001
0000
1000
0100
,
0000
0000
0000
0001
0000
0000
0100
0000
0000
0000
0000
0000
1000
0000
0000
0010
0000
0000
0100
0000
0000
0001
0000
0000
0010
0000
0000
0000
0001
0000
0000
0000
1000
0000
0000
0000
0100
0000
0000
0000
0010
0000
0000
0000
0001
0000
0000
0000
,
1000
0000
0001
0000
1000
0001
0000
0001
2000
0000
0000
0000
0000
0000
0000
0000
,
3001
0100
0001
0100
0010
1000
0010
0000
0000
1100
0000
0000
0010
0000
0000
0101
,
0000
0000
0010
0000
0001
0010
0100
1000
0002
0000
0000
1003
0000
0000
0000
0000
,
0000
0000
0000
0000
;
#NOTES:
     dance-single:
     :
     Challenge:
     18:
     :
0000
0000
0000
0000
,
0000
0000
0000
0000
,
0000
0000
0000
0000
,
1000
0000
0001
0000
0100
0000
0010
0000
1000
0010
0000
0010
0000
0010
0100
0001
,
0100
0000
0001
0000
0010
0000
0100
0000
1000
0100
0000
0100
0010
0000
0001
0000
,
0100
0000
0010
0000
0100
0001
0000
1000
0010
0000
0100
0000
0001
0100
0001
0000
,
1000
0100
1000
0000
0001
0100
0000
0100
0010
0000
0010
0000
1010
0000
0100
0000
,
0101
0000
0100
0010
0000
1000
0000
0010
1000
0100
0010
0000
0011
0000
0100
0000
,
1100
0000
1000
0010
0000
1000
0001
0000
1001
0000
1000
0000
1001
0000
0001
0100
,
0000
0100
0001
0000
0001
0000
1000
0010
1000
0000
0001
0010
0001
0000
1000
0100
,
0000
0010
0001
0000
1000
0100
0001
0000
0000
0000
0001
0000
0000
0100
0010
0000
,
0001
0000
0100
0000
0010
0000
1000
0000
0000
0000
1000
0000
0000
0001
0100
0000
,
0010
1000
0100
0010
0000
0100
0000
0010
,
0000
2002
3003
0001
0010
0110
0000
1010
,
1010
1100
1100
0110
0110
0011
0011
0001
,
0100
0000
1000
0000
0100
0000
0010
0100
0020
0000
0000
0000
0000
0000
0130
0000
,
0000
0001
0010
0001
0200
0000
0320
0000
,
1030
0100
0010
1000
0010
0001
0100
1000
,
0100
0100
0010
0010
0110
0000
1000
1100
,
0000
0010
0000
0000
0110
0000
1000
0100
1000
0100
0010
0001
0010
0001
1000
0100
,
1000
0100
0010
0001
0010
0001
1000
0100
0010
0001
1000
0100
0010
0001
1000
0000
,
1001
0000
0110
0000
0000
0000
0001
0100
0001
0100
0010
1000
0010
1000
0001
0100
,
0001
0100
0010
1000
0010
1000
0001
0100
0010
1000
0001
0100
0010
1000
0001
0000
,
1001
0000
0110
0000
0000
0000
0110
0000
0001
0100
0010
1000
0001
0000
1000
0000
,
0001
0000
0100
0000
0010
0100
0010
0100
0001
0000
1000
0100
1000
0000
0010
0000
,
0100
0000
0001
0100
0010
1000
0100
0000
0010
0000
0100
0000
1000
0000
0001
0000
,
0100
0010
0200
0000
0000
0000
0000
0000
0320
0000
0000
0000
2030
0000
0000
0000
,
0002
0000
0000
0000
0000
0000
0000
0000
3003
0000
0000
0000
1010
0000
0000
0101
,
0000
0000
0011
0000
0000
0101
0000
0000
1100
0000
1001
0000
0001
0010
0000
0010
,
0100
0000
0100
1000
0000
1000
0010
0000
0010
0100
0000
0100
0010
0000
0010
1000
,
0000
1000
0001
0000
0001
0010
0000
0010
0100
0000
0100
0010
0001
1000
0000
1000
,
0010
0000
0010
0100
0000
0100
0001
0000
0001
0010
0000
0010
0100
0000
0100
1000
,
0000
1000
0001
0000
0001
0100
0000
0100
0010
0000
0100
0001
0010
0100
0000
0100
,
1000
0000
1000
0010
0000
0010
0001
0000
1000
0100
0000
0100
0001
0000
0001
0010
,
0000
0010
0100
0000
0100
0010
0000
0010
0001
0000
1000
0010
0100
0010
0000
1000
,
0010
0000
0001
0010
0000
1000
0100
0000
0001
0100
0000
1000
0010
0100
0001
0000
,
0010
0000
0100
0000
1002
0000
0000
0000
0013
0200
0000
1300
0020
0000
0031
0020
,
0000
1030
0200
0000
0301
0200
0000
1300
0020
0000
0031
2000
0000
3100
0002
0000
,
0013
2000
0000
3001
0200
0000
0301
1000
0010
0002
0000
1003
0020
0000
0031
0020
,
0000
0031
2000
0000
3001
0020
0000
1030
0200
0000
0301
0200
0000
0310
0002
0000
,
1003
0200
0000
0301
0100
0000
1000
0010
0100
0100
0000
0001
0001
0000
1000
1000
,
0000
0100
0100
0000
0010
0010
0000
0100
0020
0000
0031
0200
0000
1300
0200
0000
,
0310
0002
0000
1003
0002
0000
0013
1000
0001
0020
0000
1030
0020
0000
0031
0200
,
0000
0000
0000
1300
0000
0000
0100
0000
0000
0000
0000
0000
0100
0000
0000
0000
0000
0000
0100
0000
0000
0000
0000
0000
0001
0000
0000
0000
0010
0000
0000
0000
1000
0000
0000
0000
0001
0000
0000
0000
0100
0000
0000
0000
1000
0000
0000
0000
,
0010
0000
0010
0000
0100
0010
0000
0010
0100
0000
0010
1000
0010
1000
0001
0100
,
0010
0000
1000
0000
0001
0000
1000
0000
0100
0010
0001
0000
0100
0010
1000
0000
,
0001
1000
0001
1000
0001
0000
1000
0000
0100
0010
0001
0000
0100
0010
1000
0000
,
0100
0010
0100
0010
0100
0000
0010
0000
0100
0010
0001
1000
0100
0010
0001
1000
,
0100
0000
0100
0000
0010
0001
0000
1000
0100
0000
0010
0001
0100
0010
1000
0001
,
1000
0000
0010
0000
0100
0001
0000
1000
0010
0100
0001
0010
0100
0000
0110
0000
,
0100
0010
0001
0100
0010
1000
0010
0000
0110
0000
0100
0001
1000
0100
0010
0000
,
0110
0000
0000
0001
0000
0000
0110
0000
0000
1000
0000
0000
0010
0000
0000
0100
0000
0000
0001
0000
0010
0000
1000
0000
,
0001
0100
1000
0001
1000
0010
0001
1000
0100
0001
0000
0000
,
0000
0000
0000
0000
0000
0000
0000
0000
0100
0000
0000
0100
0000
0000
0100
0000
,
0000
0100
0000
0000
0100
0000
0100
0100
0100
0100
0100
0100
0100
0100
0100
0100
,
0100
0100
0100
0100
0100
0100
0100
0100
0100
0100
0100
0100
0100
0100
0100
0100
,
0100
0100
0100
0100
0100
0100
0100
0100
0100
0100
0100
0100
0100
0100
0100
0100
,
0100
0100
0100
0100
0100
0100
0100
0100
0100
0100
0100
0100
0100
0100
0100
0100
,
0100
0100
0100
0100
0100
0100
0100
0100
0100
0100
0100
0100
0100
0100
0100
0100
,
0100
0100
0100
0100
0100
0100
0100
0100
0100
0100
0100
0100
0100
0100
0100
0100
,
0100
0100
0100
0100
0100
0100
0100
0100
0100
0100
0100
0100
0100
0100
0100
0100
,
0100
0100
0100
0100
0100
0100
0100
0100
0100
0100
0100
0000
0100
0000
0100
0000
,
0100
0000
0000
0000
0010
0010
0010
0100
0001
0000
0001
0100
0000
0100
0010
0000
,
0010
1000
0000
1000
0100
0000
0100
0010
0000
0010
0001
0000
0001
0100
0000
0100
,
0010
0000
0010
1000
0000
1000
0100
0001
0100
0000
0100
0010
0000
0010
0001
0000
,
0001
0100
0000
0100
1000
0000
1000
0100
0000
0100
0001
0000
0001
0010
0000
0010
,
0100
0000
0100
1000
0000
1000
0010
0001
0010
0000
0010
0100
0000
0100
0010
0000
,
0010
1000
0000
1000
0100
0000
0100
0010
0000
0010
0001
0000
0001
1000
0000
1000
,
0001
0000
0100
0010
0000
0010
1000
0100
0001
0100
0000
0100
1000
0000
1000
0010
,
0000
0010
0001
0000
0010
0000
0010
0000
0100
0100
1000
0100
0100
0001
0100
0100
,
1000
0100
0100
0000
0000
0000
0000
1000
1000
0000
0001
0001
0000
0010
0010
0000
,
0100
0100
0000
1000
1000
0000
0010
0010
0000
0100
0100
0000
0001
0001
0000
1000
,
1000
0000
0010
0010
0000
0100
0100
0001
0001
0000
1000
1000
0000
0001
0001
0000
,
0010
0010
0000
0100
0100
0000
1000
1000
0000
0001
0001
0000
0100
0100
0000
0010
,
0010
0000
1000
1000
0000
0001
0001
0000
0010
0020
0000
0130
0200
0000
1300
2000
,
0000
3001
0002
0000
0103
0200
0000
0010
0320
0000
0100
0100
0000
0100
0100
0000
,
0100
0100
0000
0100
0130
0000
0001
0010
0100
0020
0000
0100
0100
0000
0100
0100
,
0000
0000
0000
0100
0000
0000
0100
0000
0000
0000
0000
0000
0100
0000
0000
0000
0000
0000
0100
0000
0000
0030
0000
0000
0100
0000
0000
0000
1000
0000
0000
0000
0100
0000
0000
0000
0010
0000
0000
0000
0001
0000
0000
0000
1000
0000
0000
0000
,
0001
0000
1000
0000
0001
1000
0000
0001
2000
0000
0000
0000
0000
0000
0000
0000
,
3001
0001
0100
0100
0010
0010
1000
0000
0000
1000
0000
0000
0001
0000
0000
0001
,
0000
0000
1000
0000
0001
0001
1000
1000
0002
0000
0000
1003
0000
0000
0000
0000
,
0000
0000
0000
0000
;
#NOTES:
     dance-double:
     :
     Easy:
     9:
     :
00000000
00000000
00000000
00000000
,
00000000
00000000
00000000
00000000
,
00000000
00000000
00000000
00000000
,
00000001
00000000
00000100
00000000
00000010
00001000
00000100
00000000
,
00010000
00000000
00001000
00000000
00010000
00001000
00100000
00000000
,
01000000
00000000
00100000
01000000
10000000
00000000
00100000
00000000
,
01000000
00000000
00010000
10000000
00010000
01000000
00000000
01000000
,
00000000
00100000
01000000
00010000
00000000
00100000
00000000
01000000
,
00000000
00010000
00001000
00010000
00000000
00000100
00000000
00001000
,
00000010
00000100
00000000
00000001
00000000
00000010
00000000
00000100
,
00001000
00000100
00000000
00001000
00000000
00000001
00000000
00000100
,
00000000
00000001
00000000
00001000
00000000
00000100
00000000
00001000
,
00000000
00000100
00000000
00020000
00000000
00000000
00000000
00000000
,
00000000
00031000
00000000
00010000
00001000
00010000
00000000
01000000
,
00000000
10000000
00000000
00100000
00000000
01000000
00000000
00010000
,
10000000
00010000
00000000
00200000
00000000
00000000
00000000
00302000
,
00000000
00013000
00000000
00002000
00000000
00000000
00000000
00023000
,
00000000
00000000
00000000
00030200
00000000
00000000
00000000
00000320
,
00000000
00000000
00000000
00000130
00000010
00000000
00000001
00001000
,
00000000
00001001
00000000
00000001
00000000
00000100
00000000
00001000
,
00000000
00010000
00000000
01000000
00000000
10000000
00000000
01000000
,
10000000
01000000
00000000
10000000
00000000
00100000
00000000
00010000
,
00000000
00001000
00000000
00000010
00000000
00000001
00000000
00000010
,
00000001
00000010
00000000
00000001
00000000
00000100
00000000
00000010
,
00000000
00001000
00000100
00000000
00010000
00000000
00001000
00000000
,
00100000
00010000
00000000
01000000
00000000
00100000
00000000
10000000
,
00010000
20000000
00000000
00000000
30020000
00000000
00230000
00000000
,
00002000
00000000
00303000
00020000
,
00000000
00000000
00000000
00000000
00000000
00000000
00000000
00000000
00030000
00000000
00000000
00000000
00001000
00000000
00000000
00001000
,
00000000
00000000
00001000
00000000
00000000
00001000
00000000
00000000
00001000
00000000
00000000
00001000
00000000
00000000
00001000
00000000
,
00000000
00001000
00000000
00000000
00001000
00000000
00000000
00001000
00000000
00000000
00001000
00000000
00010000
00000000
00000000
00010000
,
00000000
00000000
00010000
00000000
00000000
00010000
00000000
00000000
00010000
00000000
00000000
00010000
00000000
00000000
00010000
00000000
,
00000000
00010000
00000000
00000000
00010000
00000000
00000000
00010000
00000000
00000000
00010000
00000000
00000100
00000000
00000000
00000100
,
00000000
00000000
00000100
00000000
00000000
00000100
00000000
00000000
00000100
00000000
00000000
00000100
00000000
00000000
00000100
00000000
,
00000000
00000100
00000000
00000000
00000100
00000000
00000000
00000100
00000000
00000000
00000100
00000000
00000010
00000000
00000000
00000010
,
00000000
00000000
00000010
00000000
00000000
00000010
00000000
00000000
00000010
00000000
00000000
00000010
00000000
00000000
00000020
00000000
,
00000000
00000000
00000130
00000010
,
00000001
00000100
00000001
00000000
00000100
00000000
00000010
00000000
,
00001000
00000100
00010000
00000000
00001000
00000000
00010000
00000000
,
00001000
00100000
00010000
00000000
10000000
00000000
00010000
00000000
,
10000000
00100000
01000000
00000000
00010000
00000000
00010000
00000000
,
10000000
10000000
00010000
00100000
,
00001000
00010000
00000100
00000100
,
00000010
00000010
00000200
00000000
,
00000310
00000010
00000001
00001000
,
00000001
00000100
00001000
00000000
00010000
00000000
00001000
00000000
,
00010000
00001000
00100000
00000000
00010000
00000000
01000000
00000000
,
00010000
01000000
10000000
00000000
01000000
00000000
00100000
00000000
,
01000000
00010000
00100000
00000000
00001000
00000000
00010000
00000000
,
00001000
00010000
00000000
00000100
00000000
00000010
00000100
00000010
,
00000000
00000001
00000000
00001000
00000100
00000000
00010000
00000000
,
00001000
00000000
01000000
00000000
00010000
01000000
00200000
00000000
,
00000000
00000000
00000000
02000000
,
00000000
03300000
00100000
00100000
,
00100000
00100000
10000000
01000000
,
10000000
01000000
00100000
00010000
,
00100000
00010000
00001000
00000100
,
00001000
00000100
00000010
00000001
,
00000010
00000001
00000100
00000010
,
00000100
00000010
00001000
00000100
,
00001000
00000100
00010000
00001000
,
00010000
00000000
00001000
00000000
00100000
00010000
00100000
00010000
,
00200000
00000000
01300000
10000000
,
00100000
01000000
01000000
00010000
,
00100000
00001000
00001000
00010000
,
00001000
00000100
00000010
00000010
,
00000100
00000001
00000010
00000010
,
00000100
00000100
00001000
00000100
,
00010000
00000000
00000000
00000000
00001000
00000000
00000000
00000000
00010000
00000000
00000000
00010000
00000000
00000000
00010000
00000000
,
00000000
00010000
00000000
00000000
00010000
00000000
00010000
00000000
00002000
00000000
00000000
00000000
00000000
00000000
00000000
00000000
,
00000000
00003000
00001000
00010000
,
00100000
10000000
01000000
00010000
,
00001000
00000100
00000001
00000010
,
00000100
00000010
00000001
00000100
,
00001000
00010000
00022000
00000000
,
00000000
00033000
00010000
01000000
,
10000000
00100000
01000000
00010000
,
00100000
00001000
00020000
00000000
,
00001000
00001000
00032000
00000000
,
00000000
00000000
00000000
00023000
00000000
00000000
00000000
00000000
,
00000000
00000000
00000000
00000000
00000000
00000000
00000000
00000000
00000000
00000000
00000000
00031000
00000000
00000000
00000000
00000000
,
00000000
00000000
00000000
00000000
;
#NOTES:
     dance-double:
     :
     Medium:
     12:
     :
00000000
00000000
00000000
00000000
,
00000000
00000000
00000000
00000000
,
00000000
00000000
00000000
00000000
,
10000000
01000000
00100000
00010000
01000000
00100000
10000000
01000000
,
00010000
00001000
00010000
00001000
00000010
00000100
00001000
00000001
,
00001000
00000001
00000100
00000010
00001000
00000001
00000100
00001000
,
00010000
00100000
01000000
00100000
10000000
00010000
00010000
00100000
,
00100000
01000000
10000000
00100000
01000000
00001000
00001000
00010000
,
00010000
00001000
00000010
00000001
00000100
00000001
00000100
00000010
,
00001000
00000000
00000100
00000000
00010000
00000000
00001000
00000000
00001000
00000000
00010000
00000000
00010000
00000000
00001000
00010000
,
00000000
00001000
00010000
00000000
00001000
00000000
00100000
00000000
00000000
00000000
00100000
00000000
00000000
00000000
01000000
00000000
,
10000000
01000000
00000000
00100000
00000000
00100000
00000000
00001000
,
00010000
00001000
00000000
00020000
00000000
00000000
00000000
00000000
,
00000000
00031000
00000000
00001000
00010000
01000000
00000000
11000000
,
00000000
01010000
00000000
00110000
00000000
10100000
00000000
00100000
,
10000000
00010000
00100000
00002000
00000000
00000000
00000000
00013000
,
00000000
00001000
00010000
00000100
00000010
00000000
00000001
00000000
,
00000100
00000000
00000010
00000100
00000001
00000100
00001000
00010000
,
00100000
01000000
00010000
00100000
01000000
00000000
00100000
01000000
,
00000000
01000000
00000000
00000000
01000000
00000000
10000000
00000000
01000000
00000000
10000000
00000000
01000000
00000000
00010000
00000000
,
00001000
00010000
00001000
00000010
00000001
00000010
00000001
00000010
,
00000100
00000010
00000000
00000001
00000100
00000001
00000100
00001000
,
00010000
00001000
00010000
00100000
01000000
00100000
01000000
00010000
,
10000000
00000000
00010000
00000000
00000000
00000000
10100000
00000000
00000000
01000000
00000000
00000000
00010000
00000000
00000000
00100000
,
00000000
00000000
00001000
00000000
00011000
00000000
00000000
00010000
00000000
00000000
00000100
00000000
00000000
00001000
00000000
00000000
,
00000010
00000000
00000110
00000000
00000000
00000100
00000000
00000000
00000001
00000000
00000000
00000010
00000000
00000000
00000100
00000000
,
00000010
00000200
00000000
00000000
00000320
00000000
00000032
00000000
,
00002000
00000000
00000000
00000000
00000000
00000000
00000000
00000000
00003003
00000000
00000000
00000000
00000001
00000000
00000000
00000100
,
00000000
00000000
00000010
00000000
00000000
00001000
00000000
00000000
00000100
00000000
00010000
00000000
00001000
00000000
00000000
00010000
,
00000000
00000000
00000100
00000000
00000000
00000010
00000000
00000000
00000001
00000000
00000000
00000100
00000000
00000000
00001000
00000000
,
00000000
00010000
00000000
00000000
00001000
00000000
00010000
00000000
00001000
00000000
00010000
00000000
00001000
00000000
00000000
00010000
,
00000000
00000000
00100000
00000000
00000000
10000000
00000000
00000000
01000000
00000000
00000000
00010000
00000000
00000000
00001000
00000000
,
00000000
00000100
00000000
00000000
00001000
00000000
00010000
00000000
00001000
00000000
00010000
00000000
00001000
00000000
00000000
00010000
,
00000000
00000000
00100000
00000000
00000000
10000000
00000000
00000000
00100000
00000000
00000000
00010000
00000000
00000000
00001000
00000000
,
00000000
00000100
00000000
00000000
00000001
00000000
00001000
00000000
00000001
00000000
00001000
00000000
00000001
00000000
00000000
00000010
,
00000000
00000000
00001000
00000000
00000000
00010000
00000000
00000000
01000000
00000000
00000000
10000000
00000000
00000000
00010000
00000000
,
10000000
00010000
10000000
00000000
00100000
10000000
01000000
10000000
,
00100000
10000000
01000000
10000000
00100000
10000000
01000000
00010000
,
00001000
00010000
00001000
00000000
00001000
00010000
01000000
00010000
,
00001000
00000100
00001000
00010000
01000000
00010000
00001000
00000100
,
00001000
00010000
01000000
00010000
00002000
00000000
00000000
00000000
,
00000000
00000000
00000000
00000000
00013000
00000100
00000010
00000001
,
00000100
00000000
00000001
00000000
00000010
00000000
00000001
00000000
00000100
00000000
00000000
00000010
00000000
00000000
00001000
00000000
,
00000000
00000100
00000000
00000000
00010000
00000000
00001000
00000000
00020000
00000000
00000000
00000000
00000000
00000000
00000000
00000000
,
00031000
00000000
00010000
00000000
00001000
00010000
00000000
00010000
00001000
00000000
00000000
00000000
00010000
00000000
00000000
00000000
,
00001000
00010000
00001000
00010000
01000000
00000000
00100000
00000000
,
00010000
10000000
00010000
10000000
00100000
00000000
00100000
00000000
,
01000000
00001000
01000000
00001000
00010000
00000000
00010000
00000000
,
00001000
00000000
00001000
00000000
00010000
00000000
00000000
00000100
00000000
00000000
00000010
00000000
00000000
00000100
00000000
00000000
,
00000010
00000000
00000001
00000000
00000000
00001000
00000000
00000000
00000001
00000000
00000000
00001000
00000000
00000000
00000010
00000000
,
00000100
00000001
00000010
00000010
00000100
00001000
00000100
00000100
,
00010000
00001000
00001000
01000000
01000000
00100000
02000000
00000000
,
00000000
00000000
00000000
00020000
,
00000000
00000000
00000000
00000000
03030000
00000000
00000000
00000000
00010000
00000000
00000000
10000000
00000000
00000000
00010000
00000000
,
00000000
10000000
00000000
00000000
00010000
00000000
10000000
00000000
00100000
00000000
01000000
00000000
00100000
00000000
01000000
00000000
,
00100000
01000000
00100000
01000000
00001000
00010000
00001000
00010000
,
00001000
00010000
00001000
00010000
00000100
00010000
00000100
00010000
,
00000100
00010000
00000100
00010000
00000010
00001000
00000010
00001000
,
00000010
00001000
00000001
00000100
00001000
00010000
00001000
00010000
,
00001000
00010000
00001000
00010000
01000000
00100000
01000000
00100000
,
01000000
00100000
01000000
00100000
00010000
01000000
00100000
10000000
,
00010000
00100000
01000000
10000000
01000000
00010000
00001000
00100000
,
00020000
00000000
00000000
00000000
01030000
00100000
10000000
00100000
,
00010000
00100000
10000000
00100000
00010000
00001000
00010000
00001000
,
00000010
00000001
00000010
00000000
00000100
00000010
00000001
00000010
,
00001000
00000010
00000001
00000010
00001000
00010000
00001000
00010000
,
00100000
10000000
00100000
00000000
10000000
01000000
00010000
01000000
,
10000000
01000000
00010000
00001000
00010000
00001000
00000010
00000001
,
00001000
00000000
00000010
00000000
00000100
00000000
00000001
00000000
00000010
00000000
00000000
00000100
00000000
00000000
00001000
00000000
,
00000000
00000001
00000000
00000000
00000100
00000000
00000010
00000000
00000100
00000000
00000001
00000000
00000100
00000000
00001000
00000000
,
00010000
00000000
00001000
00001000
00010000
00001000
00010000
00100000
,
10000000
00010000
00100000
01000000
10000000
00100000
01000000
00010000
,
00100000
00001000
00010000
00001000
00010000
00000010
00001000
00000100
,
00000010
00000001
00000100
00000010
00001000
00000001
00000010
00000100
,
00001000
00000010
00010000
00001000
00020000
00000000
00000000
00000000
,
00000000
00000000
00030000
00000000
00001000
00010000
00100000
10000000
,
00010000
00000000
00100000
00000000
01000000
00000000
10000000
00000000
00010000
00100000
00000000
00010000
00100000
00000000
00001000
00010000
,
00000000
00001000
00010000
00000000
00001000
00000000
00010000
00000000
00000200
00000000
00000000
00000000
00000000
00000000
00000000
00000000
,
00000310
00000000
00000100
00000000
00000010
00000100
00000000
00000010
00000200
00000000
00000000
00000000
00000000
00000000
00000000
00000000
,
00000320
00000000
00000000
00000000
00000000
00000000
00000130
00000000
00000000
00000100
00000000
00000000
00000100
00000000
00000000
00000100
,
00000000
00000000
00000100
00000000
00002000
00000000
00000000
00000000
00000000
00000000
00000000
00003001
00000000
00000000
00000000
00000000
,
00000000
00000000
00000000
00000000
;
#NOTES:
     dance-double:
     :
     Hard:
     17:
     :
00000000
00000000
00000000
00000000
,
00000000
00000000
00000000
00000000
,
00000000
00000000
00000000
00000000
,
10000000
00000000
00100000
00000000
01000000
00000000
00010000
00000000
00100000
00010000
00000000
00100000
00000000
00001000
00010000
00001000
,
00010000
00000000
00001000
00000000
00000100
00000000
00000010
00000000
00001000
00000010
00000000
00001000
00000010
00000000
00000100
00000000
,
00000001
00000000
00000010
00000000
00000100
00000010
00000000
00000001
00001000
00000000
00000100
00000000
00000010
00000000
00000010
00000000
,
00000100
00000000
00000100
00000000
00001000
00000100
00000000
00010000
00001000
00000000
00100000
00000000
00010000
00000000
01000000
00000000
,
00100000
00000000
01000000
00100000
00000000
10000000
00000000
00100000
10000000
00100000
10000000
00000000
01000000
00000000
10000000
00000000
,
01000000
00000000
00100000
00010000
00000000
00100000
00010000
00000000
10000000
00000000
01000000
00000000
00010000
00000000
00001000
00010000
,
00000000
00001000
00010000
00000000
00001000
00000000
00000100
00000000
00000001
00000000
00000010
00000000
00000100
00000000
00001000
00000100
,
00000000
00000010
00000001
00000000
00001000
00000001
00001000
00000000
00000000
00000000
00000001
00000000
00000000
00000000
00000100
00000000
,
00000000
00001000
00000000
00010000
00000000
01000000
00000000
00010000
,
00000000
00001000
00000000
00020000
00000000
00000000
00000000
00030000
,
00000000
00011000
00000000
00110000
00000000
00110000
00000000
11000000
,
00000000
11000000
00000000
00101000
00000000
00101000
00000000
00001000
,
00010000
00000000
00001000
00000000
00000010
00000000
00000100
00000010
00000200
00000000
00000000
00000000
00000000
00000000
00000320
00000000
,
00000000
00000031
00000100
00000001
00000200
00000000
00000320
00000000
,
00000130
00000001
00000010
00001000
00010000
00001000
00000100
00001000
,
00010000
00100000
10000000
00100000
01100000
00000000
01000000
01010000
,
00000000
01000000
00000000
00000000
00100000
00000000
10000000
01000000
10000000
00000000
01000000
00100000
01000000
00000000
00100000
00010000
,
00100000
00000000
00001000
00010000
00001000
00000000
00010000
00001000
00010000
00000000
00000100
00001000
00000100
00000000
00000010
00000000
,
00000001
00000000
00000011
00000000
00000000
00000000
00000001
00000100
00000001
00000000
00000100
00000010
00000100
00000000
00000010
00001000
,
00000010
00000000
00010000
00001000
00010000
00000000
00001000
00010000
00001000
00000000
01000000
00010000
01000000
00000000
00100000
00000000
,
10000000
00000000
10100000
00000000
00000000
00000000
10100000
00000000
00100000
01000000
00010000
00000000
00100000
00000000
00001000
00010000
,
00001000
00000000
00010000
00000000
00001000
00000000
00010000
00000000
00000010
00000000
00000100
00000010
00000100
00000000
00000001
00000000
,
00000100
00000000
00000010
00001000
00000010
00001000
00000010
00000000
00000100
00000000
00000001
00000000
00000100
00000000
00001000
00000000
,
00010000
00001000
00020000
00000000
00000000
00000000
00000000
00000000
00032000
00000000
00000000
00000000
00023000
00000000
00000000
00000000
,
00002000
00000000
00000000
00000000
00000000
00000000
00000000
00000000
00033000
00000000
00000000
00000000
00001000
00000000
00000000
00010000
,
00000000
00000000
01000000
00000000
00000000
10000000
00000000
00000000
00100000
00000000
01100000
00000000
10000000
00100000
00000000
10000000
,
00100000
00000000
01000000
00100000
00000000
01000000
00100000
00000000
01000000
00010000
00000000
01000000
00010000
00000000
00100000
00001000
,
00000000
00100000
00001000
00000000
00010000
00000100
00000000
00010000
00000100
00000000
00001000
00000100
00000010
00000001
00000000
00000010
,
00000001
00000000
00000010
00000100
00000000
00000010
00000100
00000000
00001000
00000100
00000000
00001000
00000100
00000000
00010000
00001000
,
00000000
00010000
00001000
00000000
01000000
00010000
00000000
01000000
00010000
00000000
10000000
01000000
00100000
00010000
00000000
00100000
,
00010000
00000000
10000000
01000000
00000000
00100000
01000000
00000000
00010000
00001000
00000000
00010000
00000100
00000000
00001000
00000100
,
00000000
00000010
00000001
00000000
00000010
00000100
00000000
00001000
00000100
00000000
00000010
00000001
00000100
00000010
00000000
00001000
,
00000010
00000000
00010000
00001000
00000000
00100000
00010000
00000000
01000000
00010000
00000000
10000000
00100000
01000000
00010000
00000000
,
00100000
00000000
01000000
00000000
20000000
00000000
00000000
00000000
31000000
00100000
00000000
00010000
01000000
00000000
00100000
10000000
,
00000000
01000000
00100000
00000000
00001000
00010000
00000000
00000100
00001000
00000000
00000100
00000010
00000000
00000001
00000100
00000000
,
00000010
00001000
00000000
00000001
00000100
00000000
00000010
00000100
00000001
00000010
00000000
00000001
00000100
00000000
00000001
00000010
,
00000000
00000100
00001000
00000000
00000010
00001000
00000000
00000100
00010000
00000000
00001000
00010000
00000000
00001000
01000000
00000000
,
00100000
10000000
00000000
00100000
10000000
00100000
01000000
00000000
00200000
00000000
00000000
00000000
00000000
00000000
00000000
00000000
,
00000000
01000000
00000000
00000000
01000000
00000000
01300000
00010000
10000000
00000000
01000000
10000000
00000000
01000000
00100000
00000000
,
01000000
00010000
00000000
00001000
00010000
00000000
00001000
00010000
00001000
00010000
00000000
00001000
00000100
00000000
00000001
00000010
,
00000000
00000000
00000000
00000100
00000000
00000000
00001000
00000000
00000000
00000000
00000000
00000000
00000001
00000000
00000000
00000000
00000000
00000000
00000100
00000000
00000000
00000000
00000000
00000000
00000001
00000000
00000000
00000000
00000100
00000000
00000000
00000000
00000010
00000000
00000000
00000000
00001000
00000000
00000000
00000000
00000001
00000000
00000000
00000000
00000010
00000000
00000000
00000000
,
00000100
00000000
00000100
00000000
00000010
00000100
00000000
00000100
00000010
00000000
00000001
00000000
00000010
00000000
00000000
00000000
,
00000001
00000100
00001000
00000000
00000100
00000010
00001000
00000000
,
00000100
00010000
00001000
00000000
00010000
00001000
00100000
00000000
,
01000000
10000000
00010000
00000000
00010000
01000000
00100000
10000000
,
00010000
00000000
10000000
00000000
10010000
00000000
00000000
00100000
00000000
00000000
01000000
00000000
00010000
00000000
00100000
00000000
,
00001000
00000000
00011000
00000000
00000000
00010000
00000000
00000000
00000100
00000000
00000010
00000000
00000001
00000000
00001001
00000000
,
00000000
00000010
00000000
00000000
00000100
00000000
00000010
00000000
00000110
00000000
00001000
00000000
00000100
00000000
00010000
00000000
,
00011000
00000000
00000000
00001000
00000000
00000000
00110000
00000000
00000000
00100000
00000000
00000000
01000000
00000000
00000000
10000000
00000000
00000000
00010000
00000000
01000000
00000000
00100000
00000000
,
10000000
00010000
00100000
01000000
10000000
01000000
00010000
00001000
00010000
00002000
00000000
00000000
,
00000000
00000000
00000000
00000000
00000000
00000000
00000000
00000000
00013000
00000000
00000000
00001000
00000000
00000000
00010000
00000000
,
00000000
00001000
00000000
00000000
00010000
00000000
00001000
00000000
00010000
00001000
00010000
00001000
00010000
00001000
00010000
00001000
,
00010000
00001000
00010000
00001000
00010000
00001000
00010000
00001000
00100000
00010000
00100000
00010000
00100000
00010000
00100000
00010000
,
00100000
00010000
00100000
00010000
00100000
00010000
00100000
00010000
00100000
00001000
00100000
00001000
00100000
00001000
00100000
00001000
,
00100000
00001000
00100000
00001000
00100000
00001000
00100000
00001000
00010000
00000100
00010000
00000100
00010000
00000100
00010000
00000100
,
00010000
00000100
00010000
00000100
00010000
00000100
00010000
00000100
00001000
00000001
00001000
00000001
00001000
00000001
00001000
00000001
,
00001000
00000001
00001000
00000001
00001000
00000001
00001000
00000001
00000010
00000001
00000010
00000001
00000010
00000001
00000010
00000001
,
00000010
00000001
00000010
00000001
00000010
00000001
00000010
00000001
00001000
00000100
00001000
00000100
00001000
00000100
00001000
00000100
,
00001000
00000100
00001000
00000100
00001000
00000100
00001000
00000100
00000010
00000001
00001000
00000000
00000010
00000000
00000100
00000000
,
00000020
00000000
00000000
00000000
00001030
00000001
00001000
00000001
00001000
00000000
00001000
00000010
00000000
00000100
00000001
00000000
,
00001000
00000010
00000000
00000100
00000001
00000000
00001000
00000100
00000000
00001000
00000010
00000000
00010000
00001000
00000000
00100000
,
00010000
00000000
00100000
01000000
00000000
10000000
01000000
00100000
00010000
00000000
10000000
00100000
00000000
10000000
00100000
00000000
,
01000000
00010000
00000000
01000000
00010000
00000000
00100000
00001000
00000000
00010000
00001000
00000000
00010000
00000100
00000000
00001000
,
00000100
00000000
00000010
00000001
00000000
00000100
00000010
00001000
00000010
00000000
00000100
00000001
00000000
00000010
00000001
00000000
,
00000010
00000100
00000000
00001000
00000100
00000000
00010000
00001000
00000000
00100000
00010000
00000000
01000000
00100000
00000000
10000000
,
00100000
00000000
10000000
01000000
00000000
10000000
01000000
10000000
00010000
01000000
00000000
00010000
00100000
00000000
01000000
00100000
,
00000000
00001000
00010000
00000000
00001000
00010000
00000000
00010000
00001000
00010000
00001000
00010000
00001000
00010000
00001000
00010000
,
00001000
00000000
00100000
00000000
00000000
00000000
00000000
00100000
01000000
00000000
00100000
10000000
00000000
00100000
01000000
00000000
,
00100000
00010000
00000000
00100000
00001000
00000000
00010000
00001000
00000000
00010000
01000000
00000000
00010000
00001000
00000000
00010000
,
00000100
00000000
00001000
00000100
00000000
00000010
00000001
00000100
00000010
00000000
00000100
00000001
00000000
00000100
00000010
00000000
,
00000100
00001000
00000000
00000100
00000010
00000000
00000100
00000001
00000000
00000100
00001000
00000000
00010000
00001000
00000000
00010000
,
01000000
00000000
00100000
00010000
00000000
10000000
00100000
00000000
02000000
00000000
00000000
00000000
00000000
00000000
00000000
00000000
,
00000000
00100000
00000000
00000000
00100000
00000000
03100000
00000000
10000000
00000000
01000000
00100000
00000000
00010000
00100000
00000000
,
00001000
00010000
00000000
00001000
00000100
00000000
00000010
00000100
00000001
00000100
00000000
00000010
00001000
00000000
00000100
00000001
,
00000000
00000000
00000000
00000100
00000000
00000000
00001000
00000000
00000000
00000000
00000000
00000000
00000010
00000000
00000000
00000100
00000000
00000000
00000001
00000000
00000000
00001000
00000000
00000000
00000010
00000000
00000000
00000000
00001000
00000000
00000000
00000000
00000001
00000000
00000000
00000000
00000100
00000000
00000000
00000000
00000010
00000000
00000000
00000000
00001000
00000000
00000000
00000000
,
00000100
00000000
00010000
00000000
00001000
00010000
00000000
00010000
00002000
00000000
00000000
00000000
00000000
00000000
00000000
00000000
,
00013000
00001000
00010000
00001000
00100000
00010000
00100000
00000000
00000000
00110000
00000000
00000000
00001000
00000000
00000000
00011000
,
00000000
00000000
00000100
00000000
00000010
00000100
00000010
00000100
00000020
00000000
00000000
00000130
00000000
00000000
00000000
00000000
,
00000000
00000000
00000000
00000000
;
#NOTES:
     dance-double:
     :
     Challenge:
     18:
     :
00000000
00000000
00000000
00000000
,
00000000
00000000
00000000
00000000
,
00000000
00000000
00000000
00000000
,
00001000
00000000
00010000
00000000
00100000
00000000
01000000
00000000
00100000
01000000
00000000
01000000
00000000
01000000
00100000
10000000
,
01000000
00000000
00100000
00000000
00001000
00000000
00010000
00000000
00000010
00000100
00000000
00000100
00000010
00000000
00000001
00000000
,
00000010
00000000
00001000
00000000
00000100
00000001
00000000
00000100
00001000
00000000
00000100
00000000
00010000
00001000
00010000
00000000
,
00001000
00100000
00010000
00000000
00100000
00010000
00000000
00010000
01000000
00000000
00100000
00000000
10100000
00000000
01000000
00000000
,
01010000
00000000
00010000
01000000
00000000
00100000
00000000
10000000
01000000
00010000
00001000
00000000
00011000
00000000
00001000
00000000
,
00001100
00000000
00001000
00000100
00000000
00000010
00000001
00000000
00000011
00000000
00000100
00000000
00001100
00000000
00000001
00000100
,
00000000
00000100
00000010
00000000
00001000
00000000
00000100
00010000
00001000
00000000
00010000
00001000
00100000
00000000
00010000
00100000
,
00000000
00001000
00010000
00000000
01000000
10000000
00010000
00000000
00000000
00000000
10010000
00000000
00000000
00010000
01000000
00000000
,
00100000
00000000
10000000
00000000
01000000
00000000
00010000
00000000
00000000
00000000
00001000
00000000
00000000
00001000
00000100
00000000
,
00000001
00000010
00001000
00000020
00000000
00000000
00000000
00000030
,
00000000
00000220
00000330
00000001
00000100
00000010
00000000
00000110
,
00000110
00001010
00001010
00011000
00011000
00110000
00110000
00010000
,
00100000
00000000
10000000
00000000
00010000
00000000
01000000
10000000
02000000
00000000
00000000
00000000
00000000
00000000
13000000
00000000
,
00000000
00100000
01000000
00010000
00200000
00000000
00302000
00000000
,
00013000
00000010
00000100
00000001
00000010
00001000
00000001
00000100
,
00001000
00010000
00100000
01000000
01100000
00000000
00010000
10010000
,
00000000
00001000
00000000
00000000
00011000
00000000
00001000
00010000
00001000
00000000
00010000
01000000
10000000
00000000
01000000
10000000
,
01000000
00000000
10000000
00100000
10000000
00000000
00100000
00010000
00001000
00000000
00010000
00001000
00010000
00000000
00011000
00000000
,
00101000
00000000
00011000
00000000
00000000
00000000
00010000
00001000
00010000
00000000
00001000
00000100
00000001
00000000
00000100
00000001
,
00000100
00000000
00000001
00000010
00000001
00000000
00000010
00001000
00010000
00000000
00001000
00010000
00001000
00000000
00011000
00000000
,
00010010
00000000
00011000
00000000
00000000
00000000
00011000
00000000
00001000
00010000
01000000
10000000
00010000
00000000
10000000
00000000
,
00010000
00000000
00100000
00000000
01000000
10000000
01000000
10000000
00010000
00000000
00100000
00001000
00010000
00000000
00001000
00000000
,
00010000
00000000
00001000
00000100
00000001
00000010
00000100
00000000
00000010
00000000
00000001
00000000
00000100
00000000
00001000
00000000
,
00010000
00001000
00020000
00000000
00000000
00000000
00000000
00000000
00032000
00000000
00000000
00000000
00003200
00000000
00000000
00000000
,
00000002
00000000
00000000
00000000
00000000
00000000
00000000
00000000
00000303
00000000
00000000
00000000
00000011
00000000
00000000
00001010
,
00000000
00000000
00001100
00000000
00000000
00011000
00000000
00000000
01010000
00000000
10010000
00000000
10000000
00100000
00000000
00100000
,
01000000
00000000
01000000
00010000
00000000
00010000
00100000
00000000
00100000
00001000
00000000
00001000
00010000
00000000
00010000
00000100
,
00000000
00000100
00000010
00000000
00000010
00000001
00000000
00000001
00001000
00000000
00000001
00000100
00001000
00010000
00000000
00010000
,
00001000
00000000
00001000
00100000
00000000
00100000
01000000
00000000
01000000
10000000
00000000
10000000
00100000
00000000
00100000
00010000
,
00000000
00010000
00001000
00000000
00001000
00000010
00000000
00000010
00000001
00000000
00001000
00000010
00000001
00000010
00000000
00000010
,
00000100
00000000
00000100
00001000
00000000
00001000
00010000
00000000
00010000
00100000
00000000
00100000
01000000
00000000
01000000
10000000
,
00000000
10000000
01000000
00000000
01000000
00010000
00000000
00010000
00100000
00000000
00010000
00100000
10000000
00100000
00000000
00100000
,
00010000
00000000
00010000
01000000
00000000
01000000
10000000
00000000
10000000
01000000
00000000
10000000
01000000
00010000
01000000
00000000
,
00010000
00000000
00100000
00000000
00002000
00000000
00000000
00000000
00013000
00001000
00000000
00010000
00010000
00000000
00001000
00010000
,
00000000
00001000
00001000
00000000
00100000
00010000
00000000
10000000
10000000
00000000
00100000
01000000
00000000
00010000
00010000
00000000
,
00100000
01000000
00000000
10000000
10000000
00000000
01000000
00010000
00001000
00000100
00000000
00000010
00000010
00000000
00001000
00000100
,
00000000
00000010
00000010
00000000
00000001
00000010
00000000
00000100
00000100
00000000
00001000
00000010
00000000
00000100
00000100
00000000
,
00001000
00010000
00000000
00001000
00001000
00000000
00010000
01000000
10000000
00100000
00000000
01000000
00010000
00000000
00100000
00001000
,
00000000
00010000
00000100
00000000
00000010
00000100
00000000
00000010
00000001
00000000
00000100
00000100
00000000
00000010
00000100
00000000
,
00001000
00001000
00000000
00010000
00001000
00000000
00010000
00010000
00001000
00100000
00000000
01000000
01000000
00000000
00100000
00100000
,
00000000
00000000
00000000
00010000
00000000
00000000
00010000
00000000
00000000
00000000
00000000
00000000
10000000
00000000
00000000
00000000
00000000
00000000
00010000
00000000
00000000
00000000
00000000
00000000
10000000
00000000
00000000
00000000
01000000
00000000
00000000
00000000
00100000
00000000
00000000
00000000
00010000
00000000
00000000
00000000
10000000
00000000
00000000
00000000
01000000
00000000
00000000
00000000
,
00100000
00000000
00100000
00000000
00001000
00010000
00000000
00010000
00001000
00000000
00010000
00001000
00010000
00000100
00001000
00000100
,
00000010
00000000
00000001
00000000
00000100
00000000
00000010
00000000
00000100
00000010
00001000
00000000
00000100
00010000
00001000
00000000
,
00010000
01000000
00010000
01000000
10000000
00000000
00010000
00000000
10000000
01000000
00100000
00000000
01000000
00100000
00010000
00000000
,
01000000
00100000
10000000
00010000
00100000
00000000
01000000
00000000
00100000
00001000
00010000
00001000
00010000
00000100
00001000
00000010
,
00000100
00000000
00000100
00000000
00000001
00000010
00000000
00000001
00000010
00000000
00000001
00000100
00001000
00010000
00001000
00010000
,
00100000
00000000
10000000
00000000
00100000
10000000
00000000
00100000
10000000
01000000
00100000
00010000
01000000
00000000
00010000
00000000
,
00100000
00001000
00010000
00000100
00001000
00000100
00000001
00000000
00000100
00000000
00001000
00000100
00000001
00000100
00001000
00000000
,
00001100
00000000
00000000
00010000
00000000
00000000
00011000
00000000
00000000
00001000
00000000
00000000
00010000
00000000
00000000
01000000
00000000
00000000
10000000
00000000
01000000
00000000
00010000
00000000
,
00001000
00000100
00000001
00000100
00001000
00010000
01000000
10000000
00100000
01000000
00000000
00000000
,
00000000
00000000
00000000
00000000
00000000
00000000
00000000
00000000
00010000
00000000
00000000
00010000
00000000
00000000
00010000
00000000
,
00000000
00010000
00000000
00000000
00010000
00000000
00010000
00010000
00010000
00010000
00010000
00010000
00010000
00010000
00010000
00010000
,
00010000
00010000
00010000
00010000
00010000
00010000
00010000
00010000
00010000
00010000
00010000
00010000
00010000
00010000
00010000
00010000
,
00010000
00010000
00010000
00010000
00010000
00010000
00010000
00010000
00001000
00010000
00001000
00010000
00001000
00010000
00001000
00010000
,
00001000
00010000
00001000
00010000
00001000
00010000
00001000
00010000
00001000
00010000
00001000
00010000
00001000
00010000
00001000
00010000
,
00001000
00010000
00001000
00010000
00001000
00010000
00001000
00010000
00001000
00001000
00001000
00001000
00001000
00001000
00001000
00001000
,
00001000
00001000
00001000
00001000
00001000
00001000
00001000
00001000
00001000
00001000
00001000
00001000
00001000
00001000
00001000
00001000
,
00001000
00001000
00001000
00001000
00001000
00001000
00001000
00001000
00001000
00010000
00001000
00010000
00001000
00010000
00001000
00010000
,
00001000
00010000
00001000
00010000
00001000
00010000
00001000
00010000
00001000
00010000
00001000
00000000
00010000
00000000
00010000
00000000
,
00001000
00000000
00000000
00000000
00010000
00001000
00010000
00001000
00100000
00000000
00100000
01000000
00000000
01000000
10000000
00000000
,
10000000
00100000
00000000
00100000
01000000
00000000
01000000
00010000
00000000
00010000
00100000
00000000
00100000
00001000
00000000
00001000
,
00010000
00000000
00010000
00000100
00000000
00000100
00000001
00000100
00001000
00000000
00001000
00000001
00000000
00000001
00000100
00000000
,
00000100
00000010
00000000
00000010
00001000
00000000
00001000
00000100
00000000
00000100
00010000
00000000
00010000
00001000
00000000
00001000
,
00100000
00000000
00100000
01000000
00000000
01000000
00010000
01000000
10000000
00000000
10000000
01000000
00000000
01000000
00010000
00000000
,
00010000
00001000
00000000
00001000
00000100
00000000
00000100
00000010
00000000
00000010
00001000
00000000
00001000
00000001
00000000
00000001
,
00000010
00000000
00000010
00000100
00000000
00000100
00000010
00000001
00000100
00000010
00000000
00000100
00000010
00000000
00001000
00000100
,
00000000
00001000
00000100
00000000
00010000
00000000
00001000
00000000
00010000
00010000
00001000
00001000
00010000
00001000
00000100
00001000
,
00010000
00001000
00010000
00000000
00000000
00000000
00000000
00001000
00001000
00000000
00010000
00010000
00000000
00100000
00100000
00000000
,
10000000
10000000
00000000
01000000
01000000
00000000
00010000
00010000
00000000
00001000
00001000
00000000
00000100
00000100
00000000
00000010
,
00000010
00000000
00001000
00001000
00000000
00000001
00000001
00000010
00000010
00000000
00000100
00000100
00000000
00010000
00010000
00000000
,
00001000
00001000
00000000
01000000
01000000
00000000
00100000
00100000
00000000
10000000
10000000
00000000
01000000
01000000
00000000
00010000
,
00010000
00000000
00001000
00001000
00000000
00000100
00000100
00000000
00000001
00000010
00000000
00000001
00000010
00000000
00000100
00001000
,
00000000
00000100
00001000
00000000
00000100
00010000
00000000
00010000
00002000
00000000
00010000
00010000
00000000
00010000
00010000
00000000
,
00010000
00010000
00000000
00010000
00013000
00000000
00001000
00010000
01000000
00200000
00000000
01000000
01000000
00000000
01000000
01000000
,
00000000
00000000
00000000
01000000
00000000
00000000
01000000
00000000
00000000
00000000
00000000
00000000
01000000
00000000
00000000
00000000
00000000
00000000
01000000
00000000
00000000
00300000
00000000
00000000
01000000
00000000
00000000
00000000
10000000
00000000
00000000
00000000
00100000
00000000
00000000
00000000
00010000
00000000
00000000
00000000
00001000
00000000
00000000
00000000
00000100
00000000
00000000
00000000
,
00000010
00000000
00000010
00000000
00000100
00000010
00000000
00000100
00000020
00000000
00000000
00000000
00000000
00000000
00000000
00000000
,
00000130
00000100
00000010
00000010
00001000
00001000
00000001
00000000
00000000
00000100
00000000
00000000
00001000
00000000
00000000
00010000
,
00000000
00000000
01000000
00000000
10000000
10000000
00010000
00010000
20000000
00000000
00000000
30010000
00000000
00000000
00000000
00000000
,
00000000
00000000
00000000
00000000
;
