
//----- song ID: bast -----//
#TITLE:ベビーステップ;
#ARTIST:ここなつ;
#TITLETRANSLIT:Baby step;
#ARTISTTRANSLIT:CocoNatsu;
#BANNER:Baby step.png;
#BACKGROUND:Baby step-bg.png;
#CDTITLE:./CDTitles/DDR A20.png;
#MUSIC:Baby step.ogg;
#SAMPLESTART:51.34;
#SAMPLELENGTH:15;
#BPMS:0=200;
#NOTES:
     dance-single:
     :
     Beginner:
     4:
     :
0000
0000
0000
0000
,
0000
0000
0000
0000
,
0000
0000
0000
0000
,
0000
0000
0000
0000
,
0000
0000
0000
0000
,
0100
0000
0100
0000
,
0010
0000
0010
0000
,
0000
0000
0001
0000
,
0000
1000
0000
0000
,
0100
0000
0010
0000
,
0100
0000
0000
0000
,
0001
0000
1000
0000
,
0001
0000
0000
0000
,
0100
0000
0010
0000
,
1000
0000
0000
0000
,
0001
0000
0100
0000
,
0010
0000
0000
0000
,
1000
0000
0010
0000
,
1000
0000
0000
0000
,
0001
0000
0100
0000
,
0001
0000
0000
0000
,
1000
0000
0001
0000
,
1000
0000
0000
0000
,
0010
0000
0100
0000
,
0010
0000
0000
0000
,
1000
0000
1000
0000
,
1000
0000
0000
0000
,
0001
0000
0001
0000
,
0001
0000
0000
0000
,
0100
0000
0100
0000
,
0100
0000
0000
0000
,
0010
0000
0010
0000
,
0010
0000
0000
0000
,
1000
0000
1000
0000
,
0010
0000
0000
0000
,
0010
0000
0010
0000
,
0100
0000
0000
0000
,
0100
0000
0100
0000
,
0001
0000
0000
0000
,
0001
0000
0100
0000
,
0001
0000
0000
0000
,
1000
0000
0010
0000
,
1000
0000
0000
0000
,
0001
0000
1000
0000
,
0001
0000
0000
0000
,
1000
0000
0001
0000
,
1000
0000
0000
0000
,
0010
0000
0100
0000
,
0010
0000
0000
0000
,
0100
0000
0010
0000
,
0100
0000
0000
0000
,
0001
0000
0001
0000
,
0001
0000
0000
0000
,
1000
0000
1000
0000
,
1000
0000
0000
0000
,
0010
0000
0010
0000
,
0010
0000
0000
0000
,
1001
0000
0000
1001
,
0000
0000
0000
0000
,
1000
0000
0100
0000
,
1000
0000
0100
0000
,
1000
0000
0010
0000
,
1000
0000
0010
0000
,
1000
0000
0001
0000
,
1000
0000
0001
0000
,
0100
0000
0010
0000
,
0100
0000
0010
0000
,
1000
0000
1000
0000
,
1000
0000
0000
0000
,
0001
0000
0001
0000
,
0001
0000
0000
0000
,
0100
0000
0100
0000
,
0100
0000
0000
0000
,
0010
0000
0010
0000
,
0010
0000
0000
0000
,
1000
0000
0000
0000
,
0100
0000
0000
0000
,
0001
0000
0000
0000
,
0100
0000
0000
0000
,
1000
0000
0000
0000
,
0010
0000
0000
0000
,
0001
0000
0000
0000
,
0010
0000
0000
0000
,
0100
0000
0010
0000
,
0100
0000
0000
0000
,
0001
0000
1000
0000
,
0001
0000
0000
0000
,
1000
0000
0010
0000
,
0100
0000
0000
0000
,
1001
0000
0000
1001
,
0000
0000
0000
0000
,
1001
0000
0001
0000
,
0100
0000
0001
0000
,
0000
0000
1000
0000
,
0010
0000
1000
0000
,
0000
0000
0001
0000
,
0100
0000
0001
0000
,
0001
0000
0000
0000
,
1000
0000
0000
0010
,
0000
0000
0001
0000
,
0000
0100
0000
0000
,
0000
1001
0000
0000
,
0000
0000
0000
0000
;
#NOTES:
     dance-single:
     :
     Easy:
     7:
     :
0000
0000
0000
0000
,
0000
0000
0000
0000
,
0000
0000
0000
0000
,
0000
0000
0000
0000
,
0000
0000
0000
0000
,
0001
0100
0001
0000
,
1000
0010
1000
0000
,
0000
0001
0000
0000
1000
0000
0000
0010
,
0000
0000
0100
0000
0000
0002
0000
0000
,
1003
0010
1000
0000
,
0001
0100
0001
0000
,
0010
0001
1000
0100
,
0010
0001
0100
0000
,
0010
0100
0010
0000
,
1000
0001
1000
0000
,
0010
0000
0100
0000
0001
0000
0000
1000
,
0000
0001
0000
1000
0000
0000
0000
0000
,
0010
0000
1000
0000
,
0010
0010
1000
0000
,
0001
0000
0100
0000
,
0001
0001
0100
0000
,
0100
0110
0000
0000
,
1000
0000
1000
0000
,
0001
0000
0000
0100
0000
0000
0010
0000
,
0000
1000
0000
0000
1100
0000
0000
0000
,
1000
0000
1000
0000
,
0001
0010
0100
0000
,
1000
0000
1000
0000
,
0010
0100
1000
0000
,
0001
0000
0001
0000
,
1000
0100
0010
0000
,
0001
0000
0001
0000
,
0100
0010
0001
0000
,
1000
0000
0010
0000
,
1000
0100
1000
0000
,
0001
0000
0100
0000
,
0001
0100
0001
0000
,
1000
0000
1000
0000
,
0001
0000
0000
0000
0001
0000
0000
1000
,
0000
0010
0010
0010
,
1000
0001
1000
0001
,
0100
0010
0100
0010
,
1000
0001
0000
0000
0000
0000
0000
0000
,
1000
0100
0010
0001
,
0100
0010
1000
0000
,
0001
0010
0100
1000
,
0010
0100
0001
0000
,
1000
0010
0100
0001
,
0010
0100
1000
0000
,
0001
0100
0010
1000
,
0100
0010
0001
0000
,
1000
0001
1000
0100
,
1000
0001
1000
0000
,
0001
1000
0001
0100
,
0001
1000
0001
0000
,
0100
0010
0100
0001
,
0100
0010
0100
0000
,
0110
0000
0000
1001
,
0000
0000
0010
0100
,
0110
0000
0100
0000
,
0001
0000
0001
0000
,
1000
0000
1000
0000
,
0010
0000
0010
0000
,
1000
0000
0010
0000
,
0100
0000
0001
0000
,
0010
0000
0100
0000
,
1000
1000
0001
0000
,
0000
0100
0000
0010
,
0000
1000
0000
0001
,
0000
1000
0100
0010
,
0000
0001
0100
0010
,
0000
1000
0000
0001
,
0000
0100
0000
0010
,
0000
0000
1000
0000
0001
0000
0100
0010
,
0000
0000
1000
0000
,
1001
0000
0000
0000
0000
0000
0000
0010
,
0000
0000
0000
0000
,
0100
0000
0000
0000
0000
0000
0000
0001
,
0000
0000
0000
0000
,
1000
0000
0000
0000
0000
0000
0000
0100
,
0000
0000
0000
0000
,
0010
0000
0000
0001
0000
0000
0000
1000
,
0000
0000
0000
2002
0000
0000
3003
0000
,
0001
0010
0100
1000
,
0010
0100
0001
0000
,
1000
0100
0010
0001
,
0100
0010
1000
0000
,
0001
1000
0001
0000
,
0100
0010
0100
0000
,
0110
0000
0000
1001
,
0000
0000
0010
0100
,
0220
0330
0010
1000
,
0010
0000
0100
0001
,
0100
0000
0001
0010
,
0100
0000
1000
0010
,
0100
0000
0001
0000
,
0001
0000
1000
0010
,
0100
0000
0001
0000
0000
0010
0000
0000
,
0010
0000
0000
0100
0000
0000
0100
0000
,
0000
1000
0000
0000
0010
0000
0000
0001
,
0000
0000
0010
0000
0000
1001
0000
0000
,
0000
1001
0000
0000
,
0000
0000
0000
0000
;
#NOTES:
     dance-single:
     :
     Medium:
     9:
     :
0000
0000
0000
0000
,
0000
0000
0000
0000
,
0000
0000
0000
0000
,
0000
0000
0000
0000
,
0000
0000
0000
0000
,
0001
0000
1000
0000
0001
0100
0001
0000
,
1000
0000
0001
0000
1000
0010
1000
0000
,
0000
0100
0000
0000
0010
0000
0000
0001
,
0000
0000
1000
0000
0000
1010
0000
0000
,
0001
0100
0001
0100
,
0010
0000
0100
0000
0010
0100
0000
0000
,
0001
0000
1000
0010
0000
0100
0000
0001
,
0000
0010
0000
0100
0000
1000
0000
1100
,
0000
0000
1000
0000
0010
0000
0100
0001
,
0000
0010
0000
0100
0000
1000
0000
0010
,
0100
0000
0010
0000
0100
0010
0000
0100
,
0000
0010
0000
0110
0000
0000
0000
0000
,
1000
0000
0010
0000
0100
0001
0000
1000
,
0000
0000
0000
0001
1000
0001
0000
0100
,
0010
0000
0100
0010
0000
1000
0000
0001
,
0000
0010
0000
0100
0000
0010
0000
0001
,
0000
0000
0000
1000
0100
0000
1000
0010
,
0000
0100
0000
0001
0000
0000
0000
0010
,
0100
0000
1000
0001
0000
0100
0010
0000
,
0100
0010
0000
1000
0001
0000
0000
0000
,
0200
0000
0000
0301
,
0001
1000
0000
0100
0000
0010
0000
0002
,
0000
0000
0000
0000
,
1000
0000
1000
0000
,
2003
0000
0000
3010
,
0010
1000
0000
0001
0000
0010
0000
0100
,
0000
1000
0020
0000
0000
0000
0000
0000
,
0100
0100
0130
0000
,
0002
0000
0000
0013
,
0010
0100
0000
1000
0000
0001
0000
0020
,
0000
0000
0000
0000
,
0001
0100
0031
0000
,
2000
0000
0000
3010
,
0010
0100
0000
0010
0000
1000
0000
0001
,
0000
1000
0100
1000
,
0001
0010
0100
1000
,
0010
0100
0010
0100
,
0000
1001
0000
0000
0000
0000
0000
0000
,
0001
0000
0010
0100
0000
1000
0000
0010
,
0000
0100
0000
0010
0000
1000
0001
0000
,
1000
0000
0100
0010
0000
0001
0000
0100
,
0000
0010
0000
0100
0000
0010
1000
0000
,
0001
0000
0010
0100
0000
1000
0000
0010
,
0000
0100
0000
0010
0000
0000
1000
0000
,
0100
0000
0010
0001
0000
1000
0000
0020
,
0000
0000
0130
0000
,
0001
0000
0100
0010
0000
1000
0000
0010
,
0000
0100
0000
0010
0000
1000
0001
0000
,
1000
0000
0100
0010
0000
0001
0000
0100
,
0000
0010
0000
0100
0000
0001
0000
2000
,
0000
0000
0000
0000
0000
3001
1000
0002
,
0000
0000
0000
0103
,
0110
0000
0000
1001
,
0000
0000
0100
0010
,
0120
0000
0000
0000
,
2030
0000
3020
0000
,
0230
0000
0000
0000
,
0302
0000
0023
0000
,
0032
0000
0000
0000
,
2003
0000
3020
0000
,
2030
0000
0000
0000
0000
0000
0000
3001
,
0000
1000
0001
0000
1001
0000
1001
0000
,
0010
0000
1000
0100
0000
0000
0010
0001
,
0000
0000
0100
0010
0000
1000
0000
0001
,
0000
0000
0000
0000
0100
0000
0010
1000
,
0000
0100
0000
0010
0000
0001
0000
0100
,
0000
0000
0000
0000
0000
0001
0000
0000
,
1000
0000
0010
0001
,
0010
0000
0000
0000
0000
0001
1000
0002
,
0000
0000
2003
0000
,
3020
0000
0000
0000
0000
0000
0000
0230
,
0000
0000
0000
0000
,
0302
0000
0000
0000
0000
0000
0000
2003
,
0000
0000
0000
0000
,
3200
0000
0000
0000
0000
0000
0000
0320
,
0000
0000
0000
0000
,
0032
0000
0000
0000
0000
0000
0000
1003
,
0000
0000
0000
0011
0000
0000
0010
0000
,
0001
0000
0001
1000
0000
0100
0000
0010
,
0000
0001
0000
0100
0000
0100
0010
0000
,
1000
0000
1000
0001
0000
0010
0000
0100
,
0000
1000
0000
0010
0000
0010
0000
0200
,
0000
0000
0000
0000
0000
0310
0100
0020
,
0000
0000
0000
0130
,
1001
0000
0000
0110
,
0000
0000
1001
1001
,
0220
0330
0001
0100
,
0001
0100
0000
0000
0010
0000
1000
0000
,
0010
1000
0000
0000
0100
0000
0010
0000
,
0001
1000
0000
0010
0000
0100
0000
0001
,
0000
1000
0000
0000
0002
0000
0000
0000
,
0000
0023
0000
0000
0230
0000
0000
0000
,
0000
0000
0300
0000
0000
1000
0000
0000
,
1100
0000
0000
0100
0000
0000
0110
0000
,
0000
0010
0000
0000
0011
0000
0000
0001
,
0000
0000
1001
0000
0000
0001
1000
0000
,
0000
0000
1000
0001
0000
0000
0000
0000
,
0000
0000
0000
0000
;
#NOTES:
     dance-single:
     :
     Hard:
     12:
     :
0000
0000
0000
0000
,
0000
0000
0000
0000
,
0000
0000
0000
0000
,
0000
0000
0000
0000
,
0000
0000
0000
0000
,
0001
0000
0100
0000
0010
1000
0100
0000
,
0010
0000
0001
0000
0100
0010
0100
0010
,
0000
1100
0000
0000
0110
0000
0000
1010
,
0000
0000
0011
0000
0000
1002
0000
0000
,
0103
0000
0010
0000
1000
0100
0000
0100
,
1000
0000
0010
0100
0001
0010
0000
1000
,
0010
0000
0010
0100
0000
0010
0000
0001
,
0000
0100
0000
0010
1000
0001
0010
0100
,
1000
0000
0001
0100
0010
1000
0100
0010
,
0000
0100
0000
1000
0000
0001
0000
0010
,
1000
0000
0010
0001
0010
0100
0000
1000
,
0000
0010
0000
0120
0000
0100
0100
0000
,
1030
0000
0001
0000
1000
0010
0000
0100
,
0001
0000
1000
0100
1000
0001
0000
0100
,
0010
0000
0100
0010
0000
1000
0000
0001
,
0000
0010
0000
0100
0000
1000
0000
0001
,
1000
0100
1000
0000
0001
0000
0000
0000
1000
0000
0010
0000
0100
0000
0001
0000
,
0000
0010
0100
1000
0000
0000
1000
0001
,
2000
0000
3100
0020
0000
0130
0002
0000
,
0103
2000
0000
3100
0020
0000
0000
0000
,
0032
0000
1000
1000
,
0103
0010
0000
1000
0000
0001
0000
2000
,
0001
0001
0100
0100
,
0010
0010
0100
0100
,
3002
0000
1000
0000
1000
0000
1003
0010
,
0100
0001
0000
0010
0000
0100
0000
1000
,
0000
0010
0200
0000
0001
0000
0001
0000
,
1000
0000
1000
0000
0010
0010
0000
0000
,
0302
0000
0100
0000
0100
0000
0103
0001
,
0010
0100
0000
1000
0000
0010
0000
0120
,
0000
0100
1000
1000
,
0001
0001
1000
1000
,
2030
0000
0010
0000
0010
0000
3001
0010
,
0100
0010
0000
0001
0000
1000
0000
1001
,
0000
1000
0001
0001
,
0100
0000
0100
0000
0010
1000
0100
0000
,
0010
0010
0100
0100
,
1000
0002
0000
0000
0000
0003
0000
0000
,
0001
0010
0100
1000
0000
0010
0100
1000
,
0000
0100
0000
0001
0000
0010
0100
0000
,
1000
0100
0010
0001
0000
0100
0010
0001
,
0000
0010
0000
1000
0000
0100
0010
0000
,
0001
0100
0010
1000
0000
0001
0010
1000
,
0000
0010
0000
0001
0000
0100
1000
0000
,
1000
0100
0001
1000
0000
0100
0010
0002
,
0000
0000
0000
1003
0100
0000
0000
0000
,
0010
1000
0010
1000
0000
1000
0100
0010
,
0000
0100
0000
1000
0000
0010
0100
0000
,
0001
0100
0001
0100
0000
0001
0010
0100
,
0000
0010
0000
0001
0000
0100
0000
0010
,
2000
0000
0000
0000
0000
3010
0010
0020
,
0000
0000
0000
0130
,
0110
0010
0100
0000
0010
0000
0110
0100
,
0010
0100
0110
0110
,
1001
0001
0100
0001
,
0100
0001
0100
0001
,
1000
0010
1000
0010
,
1000
0010
1000
0010
,
0100
1000
0100
0001
,
0100
1000
0100
0001
,
0010
0000
0010
0000
0100
0000
1000
0001
,
0000
0001
0100
0000
0010
0000
0010
0000
,
1000
0100
0010
0001
0000
0100
0010
1000
,
0000
0001
0010
0100
0000
1000
0000
0020
,
0000
0000
0130
0000
0001
0010
0100
0010
,
0000
0001
1000
0100
0000
0010
0000
0001
,
0100
0000
1000
0000
0000
0100
0000
0000
,
0010
0000
0000
0000
0000
0000
1000
0010
0100
0001
1000
0100
,
0010
0000
0000
0000
0100
1000
0010
0001
,
0000
0010
0100
0000
0110
0000
0000
0000
,
2000
0000
0000
0000
0000
0000
0000
3020
,
0000
0000
0000
0000
,
0230
0000
0000
0000
0000
0000
0000
0302
,
0000
0000
0000
0000
,
0023
0000
0000
0000
0000
0000
0000
0230
,
0000
0000
0000
1000
0000
0000
0000
0000
,
2300
0000
0000
0010
0000
0000
0000
3001
,
0000
0010
0100
0110
0000
0000
0000
0000
,
0001
0010
0100
1000
0000
0010
0100
1000
,
0000
0100
0000
0001
0000
0010
0100
0000
,
1000
0100
0010
0001
0000
0100
0010
0001
,
0000
0010
0000
1000
0000
0100
0000
0010
,
0002
0000
0000
0000
0000
0103
0100
0200
,
0000
0000
0000
0310
,
0110
0010
0100
0000
0010
0000
0110
0100
,
0010
0100
0110
0110
,
2002
3003
1000
0100
,
0010
0001
0000
1000
0000
0010
0000
0100
,
0001
0100
0010
0000
1000
0100
0010
0000
,
0001
0100
0000
0010
0000
0100
0000
1000
,
0100
0001
0000
0000
1002
0000
1000
0000
,
1003
0001
1000
0000
0120
0000
0100
0000
,
0130
0010
0100
0010
0000
1010
0000
0000
,
1100
0000
0000
0110
0000
0000
1001
0000
,
0000
1100
0000
0000
0110
0000
0000
0101
,
0000
0000
0011
0000
0000
1000
0001
0000
,
0000
0000
1000
0001
0000
0000
0000
0000
,
0000
0000
0000
0000
;
#NOTES:
     dance-double:
     :
     Easy:
     7:
     :
00000000
00000000
00000000
00000000
,
00000000
00000000
00000000
00000000
,
00000000
00000000
00000000
00000000
,
00000000
00000000
00000000
00000000
,
00000000
00000000
00000000
00000000
,
00001000
00010000
00001000
00000000
,
00100000
00010000
00100000
00000000
,
00000000
00010000
00000000
00000000
01000000
00000000
00000000
00100000
,
00000000
00000000
10000000
00000000
00000000
00020000
00000000
00000000
,
00130000
00001000
00010000
00000000
,
00000100
00010000
00001000
00000000
,
00010000
00000100
00001000
00000010
,
00000100
00000001
00000010
00000000
,
00000100
00000010
00000001
00000000
,
00001000
00000010
00000100
00000000
,
00000010
00000000
00000100
00000000
00001000
00000000
00000000
00010000
,
00000000
00001000
00000000
00010000
00000000
00000000
00000000
00000000
,
00100000
00000000
10000000
00000000
,
00010000
00100000
01000000
00000000
,
00100000
00000000
00001000
00000000
,
00010000
00001000
00010000
00000000
,
00001000
00001000
00000000
00000000
,
00000100
00000000
00000010
00000000
,
00001000
00000000
00000000
00000001
00000000
00000000
00000010
00000000
,
00000000
00000100
00000000
00000000
00001000
00000000
00000000
00000000
,
00000010
00000000
00000100
00000000
,
00001000
00010000
00100000
00000000
,
00010000
00000000
00001000
00000000
,
00010000
01000000
10000000
00000000
,
00010000
00000000
10000000
00000000
,
00010000
01000000
00100000
00000000
,
01000000
00000000
00100000
00000000
,
00010000
00001000
00010000
00000000
,
00001000
00000000
00010000
00000000
,
00001000
00000100
00000001
00000000
,
00001000
00000000
00000001
00000000
,
00000010
00000100
00001000
00000000
,
00000010
00000000
00000100
00000000
,
00001000
00000000
00010000
00000000
00100000
00000000
00000000
00010000
,
00000000
00001000
00000010
00001000
,
00010000
00001000
00100000
00010000
,
01000000
00100000
00010000
00001000
,
00000000
00011000
00000000
00000000
00000000
00000000
00000000
00000000
,
00000001
00000010
00000100
00001000
,
00000010
00000100
00001000
00000000
,
00001000
00010000
00100000
01000000
,
00010000
00100000
01000000
00000000
,
10000000
01000000
00100000
00010000
,
01000000
00100000
00010000
00000000
,
00010000
00001000
00000100
00000010
,
00001000
00000100
00000010
00000000
,
00000001
00001000
00000001
00000100
,
00000001
00001000
00000001
00000000
,
00001000
00000010
00010000
00000100
,
00010000
00000010
00001000
00000000
,
00000100
00010000
00001000
00010000
,
00000100
00010000
00001000
00000000
,
00011000
00000000
00000000
00011000
,
00000000
00000000
00001000
00010000
,
00011000
00000000
00001000
00000000
,
00010000
00000000
01000000
00000000
,
10000000
00000000
00100000
00000000
,
00010000
00000000
00001000
00000000
,
00000100
00000000
00000001
00000000
,
00000010
00000000
00001000
00000000
,
00010000
00000000
00001000
00000000
,
00010000
00001000
00010000
00000000
,
00000000
00100000
00000000
01000000
,
00000000
00010000
00000000
10000000
,
00000000
01000000
00100000
00010000
,
00000000
00100000
00001000
00010000
,
00000000
00001000
00000000
00000100
,
00000000
00000001
00000000
00000010
,
00000000
00000000
00000001
00000000
00000010
00000000
00000100
00001000
,
00000000
00000000
00001001
00000000
,
00001000
00000000
00000000
00000000
00000000
00000000
00000000
00000010
,
00000000
00000000
00000000
00000000
,
00000100
00000000
00000000
00000000
00000000
00000000
00000000
00001000
,
00000000
00000000
00000000
00000000
,
00010000
00000000
00000000
00000000
00000000
00000000
00000000
00100000
,
00000000
00000000
00000000
00000000
,
10000000
00000000
00000000
01000000
00000000
00000000
00000000
00100000
,
00000000
00000000
00000000
20020000
00000000
00000000
30030000
00000000
,
10000000
01000000
00100000
00010000
,
01000000
00100000
00010000
00000000
,
00010000
00001000
00000100
00000010
,
00001000
00000100
00000010
00000000
,
00000001
00000010
00000100
00000000
,
00001000
00000100
00010000
00000000
,
00011000
00000000
00000000
00011000
,
00000000
00000000
00001000
00010000
,
00022000
00033000
00001000
00000100
,
00000010
00000000
00001000
00000100
,
00001000
00000000
00000100
00010000
,
00001000
00000000
00001000
00010000
,
01000000
00000000
00100000
00010000
,
01000000
00000000
00010000
00100000
,
01000000
00000000
10000000
00000000
00000000
00100000
00000000
00000000
,
00010000
00000000
00000000
00001000
00000000
00000000
00000010
00000000
,
00000000
00000001
00000000
00000000
00000100
00000000
00000000
00001000
,
00000000
00000000
00010000
00000000
00000000
00011000
00000000
00000000
,
00000000
00011000
00000000
00000000
,
00000000
00000000
00000000
00000000
;
#NOTES:
     dance-double:
     :
     Medium:
     9:
     :
00000000
00000000
00000000
00000000
,
00000000
00000000
00000000
00000000
,
00000000
00000000
00000000
00000000
,
00000000
00000000
00000000
00000000
,
00000000
00000000
00000000
00000000
,
00001000
00000000
00010000
00000000
00100000
01000000
00100000
00000000
,
10000000
00000000
00010000
00000000
10000000
00010000
10000000
00000000
,
00000000
01000000
00000000
00000000
00100000
00000000
00000000
00001000
,
00000000
00000000
00010000
00000000
00000000
00011000
00000000
00000000
,
00010000
00001000
00000010
00000100
,
00001000
00000000
00000010
00000000
00000100
00000001
00000000
00000100
,
00001000
00000000
00010000
00000100
00000000
00010000
00000000
00100000
,
00000000
00010000
00000000
00001000
00000000
00010000
00000000
00011000
,
00000000
00000000
00010000
00000000
00100000
00000000
10000000
00010000
,
00000000
00100000
00000000
01000000
00000000
10000000
00000000
00100000
,
01000000
00000000
00100000
00000000
01000000
00100000
00000000
00010000
,
00000000
00001000
00000000
00011000
00000000
00000000
00000000
00000000
,
00010000
00000000
00001000
00000000
00000010
00000001
00000000
00000100
,
00000000
00000000
00000000
00000010
00000100
00000001
00000000
00000100
,
00000010
00000000
00000100
00001000
00000000
00010000
00000000
00100000
,
00000000
01000000
00000000
10000000
00000000
01000000
00000000
00010000
,
00000000
00000000
00000000
00100000
01000000
00000000
00100000
00010000
,
00000000
00100000
00000000
00001000
00000000
00000000
00000000
00010000
,
00000100
00000000
00001000
00000100
00000000
00001000
00000010
00000000
,
00000100
00000010
00000000
00001000
00000001
00000000
00000000
00000000
,
00000200
00000000
00000000
00000310
,
00000010
00000100
00000000
00001000
00000000
00010000
00000000
00200000
,
00000000
00000000
00000000
00000000
,
10000000
00000000
10300000
00000000
,
00020000
00000000
00000000
00130000
,
00100000
01000000
00000000
10000000
00000000
00100000
00000000
00010000
,
00000000
00001000
00020000
00000000
00000000
00000000
00000000
00000000
,
01000000
00000000
00031000
00000000
,
00000200
00000000
00000000
00000310
,
00001000
00000001
00000000
00001000
00000000
00000010
00000000
00000200
,
00000000
00000000
00000000
00000000
,
00001000
00000000
00001300
00000000
,
00020000
00000000
00000000
01030000
,
01000000
10000000
00000000
00010000
00000000
01000000
00000000
00100000
,
00000000
00010000
00001000
00000100
,
00000001
00000010
00000100
00010000
,
00000010
00000100
00001000
00010000
,
00000000
00011000
00000000
00000000
00000000
00000000
00000000
00000000
,
00001000
00000000
00010000
00100000
00000000
10000000
00000000
01000000
,
00000000
00100000
00000000
00010000
00000000
00100000
00001000
00000000
,
00010000
00000000
00001000
00000100
00000000
00000001
00000000
00000010
,
00000000
00000100
00000000
00001000
00000000
00000100
00010000
00000000
,
00001000
00000000
00010000
01000000
00000000
10000000
00000000
00100000
,
00000000
00010000
00000000
00001000
00000000
00000000
00100000
00000000
,
00001000
00000000
00010000
00001000
00000000
00100000
00000000
00020000
,
00000000
00000000
10030000
00000000
,
10000000
00000000
01000000
00100000
00000000
00001000
00000000
00010000
,
00000000
00000100
00000000
00001000
00000000
00000010
00000100
00000000
,
00000001
00000000
00000010
00000100
00000000
00010000
00000000
00001000
,
00000000
00100000
00000000
00010000
00000000
10000000
00000000
00200000
,
00000000
00000000
00000000
00000000
00000000
00310000
00001000
00020000
,
00000000
00000000
00000000
01030000
,
01100000
00000000
00000000
10010000
,
00000000
00000000
01100000
10010000
,
01200000
00000000
00000000
00000000
,
20300000
00000000
30020000
00000000
,
00230000
00000000
00000000
00000000
,
00302000
00000000
00023000
00000000
,
00032000
00000000
00000000
00000000
,
00003020
00000000
00000230
00000000
,
00002300
00000000
00000000
00000000
00000000
00000000
00000000
00003001
,
00000000
00001000
00000001
00000000
00001001
00000000
00001001
00000000
,
00000010
00000000
00000100
00001000
00000000
00000000
00010000
00100000
,
00000000
00000000
10000000
01000000
00000000
00100000
00000000
00010000
,
00000000
00000000
00000000
00000000
10000000
00000000
01000000
00010000
,
00000000
00001000
00000000
00000010
00000000
00000001
00000000
00000100
,
00000000
00000000
00000000
00000000
00000000
00001000
00000000
00000000
,
00000100
00000000
00000001
00000100
,
00000010
00000000
00000000
00000000
00000000
00000100
00000010
00002000
,
00000000
00000000
00003020
00000000
,
00000230
00000000
00000000
00000000
00000000
00000000
00000000
00002300
,
00000000
00000000
00000000
00000000
,
00023000
00000000
00000000
00000000
00000000
00000000
00000000
02030000
,
00000000
00000000
00000000
00000000
,
23000000
00000000
00000000
00000000
00000000
00000000
00000000
30200000
,
00000000
00000000
00000000
00000000
,
02300000
00000000
00000000
00000000
00000000
00000000
00000000
03100000
,
00000000
00000000
00000000
10010000
00000000
00000000
01000000
00000000
,
00010000
00000000
00010000
01000000
00000000
00100000
00000000
00010000
,
00000000
00001000
00000000
00010000
00000000
00100000
00010000
00000000
,
00001000
00000000
00001000
00000010
00000000
00000100
00000000
00001000
,
00000000
00010000
00000000
00001000
00000000
00000100
00000000
00020000
,
00000000
00000000
00000000
00000000
00000000
00031000
00010000
00002000
,
00000000
00000000
00000000
00003100
,
00000110
00000000
00000000
00001001
,
00000000
00000000
00000110
00001001
,
00000220
00000330
00000001
00000010
,
00000100
00001000
00000000
00000010
00000000
00000000
00000100
00000000
,
00001000
00010000
00000000
00000000
00001000
00000000
00010000
00000000
,
00100000
01000000
00000000
00100000
00000000
10000000
00000000
00010000
,
00000000
00100000
00000000
00000000
00002000
00000000
00000000
00000000
,
00023000
00000000
00030200
00000000
,
00000020
00000000
00000330
00000000
00000000
00000010
00000000
00000000
,
00000001
00000000
00000000
00000100
00000000
00000000
00001000
00000000
,
00000000
00010000
00000000
00000000
00100000
00000000
00000000
10000000
,
00000000
00000000
01000000
00000000
00000000
00010000
00001000
00000000
,
00000000
00000000
00001000
00010000
00000000
00000000
00000000
00000000
,
00000000
00000000
00000000
00000000
;
#NOTES:
     dance-double:
     :
     Hard:
     12:
     :
00000000
00000000
00000000
00000000
,
00000000
00000000
00000000
00000000
,
00000000
00000000
00000000
00000000
,
00000000
00000000
00000000
00000000
,
00000000
00000000
00000000
00000000
,
00001000
00000000
00100000
00000000
00001000
00010000
00100000
00000000
,
10000000
00000000
00100000
00000000
10000000
01000000
00100000
00010000
,
00000000
10010000
00000000
00000000
01010000
00000000
00000000
00110000
,
00000000
00000000
00011000
00000000
00000000
00001100
00000000
00000000
,
00000001
00000000
00000100
00000000
00000001
00000010
00000000
00000100
,
00001000
00000000
00000010
00000100
00000001
00000010
00000000
00000100
,
00001000
00000000
00000100
00010000
00000000
00001000
00000000
00010000
,
00000000
00100000
00000000
10000000
00010000
01000000
00100000
01000000
,
00010000
00000000
10000000
01000000
00100000
01000000
10000000
00010000
,
00000000
01000000
00000000
00100000
00000000
00010000
00000000
00001000
,
00010000
00000000
00001000
00100000
00001000
00010000
00000000
00000100
,
00000000
00001000
00000000
00001002
00000000
00001000
00001000
00000000
,
00001003
00000000
00000001
00000000
00001000
00000010
00000000
00000100
,
00000001
00000000
00000010
00000001
00000010
00000100
00000000
00001000
,
00000100
00000000
00010000
00001000
00000000
00000100
00000000
00001000
,
00000000
00010000
00000000
00100000
00000000
01000000
00000000
00010000
,
10000000
01000000
10000000
00000000
00010000
00000000
00000000
00000000
10000000
00000000
01000000
00000000
00100000
00000000
00010000
00000000
,
00000000
00100000
01000000
10000000
00000000
00000000
10000000
00010000
,
20000000
00000000
31000000
00200000
00000000
00310000
02000000
00000000
,
03001000
00020000
00000000
00031000
00000200
00000000
00000000
00000000
,
00000320
00000000
00001000
00001000
,
00001030
00000001
00000000
00001000
00000000
00000010
00000000
00000200
,
00000000
00000001
00000010
00000001
,
00001000
00001000
00000010
00000310
,
00002000
00000000
00000000
00000000
00000100
00000000
00003100
00010000
,
00001000
00100000
00000000
01000000
00000000
10000000
00000000
01000000
,
00000000
00100000
00020000
00000000
01000000
00000000
01000000
00000000
,
00100000
00000000
00100000
00000000
01000000
01000000
00000000
00000000
,
20030000
00000000
00000000
00000000
00100000
00000000
30100000
10000000
,
00010000
00100000
00000000
01000000
00000000
00100000
00000000
00002000
,
00000000
00010000
00010000
00010000
,
00000100
00000100
00010000
00010000
,
00023000
00000000
00000000
00000000
00000010
00000000
00030010
00000100
,
00001000
00000100
00000000
00000010
00000000
00001000
00000000
00001001
,
00000000
00000100
00000010
00001000
,
00000100
00000000
00010000
00000000
00001000
00010000
00100000
00000000
,
10000000
01000000
00100000
00010000
,
00000000
20020000
00000000
00000000
00000000
30030000
00000000
00000000
,
10000000
01000000
00100000
00010000
00000000
01000000
00100000
00010000
,
00000000
00001000
00000000
00000100
00000000
00000010
00001000
00000000
,
00000001
00000010
00000100
00001000
00000000
00000010
00000100
00001000
,
00000000
00010000
00000000
00100000
00000000
01000000
00010000
00000000
,
10000000
00100000
00010000
00100000
00000000
01000000
00100000
00010000
,
00000000
00001000
00000000
00000100
00000000
00000010
00000100
00000000
,
00000001
00000100
00001000
00000100
00000000
00000010
00000100
00002000
,
00000000
00000000
00000000
00013000
00011000
00000000
00000000
00000000
,
00001000
00010000
00001000
00100000
00000000
00001000
00010000
00000100
,
00000000
00010000
00000000
00100000
00000000
00010000
00001000
00000000
,
00000100
00000010
00000100
00001000
00000000
00010000
00100000
00010000
,
00000000
00001000
00000000
00010000
00000000
00100000
00000000
10000000
,
00020000
00000000
00000000
00000000
00000000
01030000
01000000
02000000
,
00000000
00000000
00000000
03100000
,
01100000
00100000
01000000
00000000
00100000
00000000
01100000
01000000
,
00100000
01000000
01100000
01100000
,
00010000
10000000
00100000
01000000
,
00010000
00100000
01000000
00100000
,
00001000
00010000
00100000
00010000
,
00001000
00000100
00000010
00000100
,
00000001
00000010
00000100
00001000
,
00000001
00000100
00001000
00010000
,
00001000
00000000
00001000
00000000
00010000
00100000
01000000
00010000
,
00000000
01000000
00100000
00000000
10000000
00000000
10000000
00000000
,
10000000
01000000
00100000
00010000
00000000
01000000
00010000
00100000
,
00000000
00001000
00010000
00100000
00000000
00010000
00000000
00002000
,
00000000
00000000
00013000
00000000
00010000
00001000
00000100
00000010
,
00000000
00001000
00000001
00000010
00000000
00000100
00000000
00000010
,
00000001
00000000
00001000
00000000
00000000
00000010
00000000
00000000
,
00000100
00000000
00000000
00000000
00000000
00000000
00000100
00000010
00001000
00000001
00000010
00000100
,
00001000
00000000
00000000
00000000
00010000
01000000
00100000
10000000
,
00000000
00010000
01000000
00000000
01100000
00000000
00000000
00000000
,
00020000
00000000
00000000
00000000
00000000
00000000
00000000
02030000
,
00000000
00000000
00000000
00000000
,
03200000
00000000
00000000
00000000
00000000
00000000
00000000
00320000
,
00000000
00000000
00000000
00000000
,
00032000
00000000
00000000
00000000
00000000
00000000
00000000
00003200
,
00000000
00000000
00000000
00001000
00000000
00000000
00000000
00000000
,
00000302
00000000
00000000
00000100
00000000
00000000
00000000
00000013
,
00000000
00000100
00000010
00001001
00000000
00000000
00000000
00000000
,
00000001
00000010
00000100
00001000
00000000
00000010
00000100
00001000
,
00000000
00010000
00000000
00100000
00000000
01000000
10000000
00000000
,
10000000
01000000
00100000
00010000
00000000
00100000
00010000
00001000
,
00000000
00000010
00000000
00000001
00000000
00000100
00000000
00001000
,
00020000
00000000
00000000
00000000
00000000
00031000
00001000
00002000
,
00000000
00000000
00000000
00013000
,
00011000
00001000
00010000
00000000
00001000
00000000
00011000
00010000
,
00001000
00010000
00011000
00011000
,
00022000
00033000
00010000
01000000
,
00100000
00010000
00000000
10000000
00000000
00100000
00000000
01000000
,
00010000
01000000
00100000
00000000
01000000
00100000
00010000
00000000
,
00001000
00010000
00000000
00000100
00000000
00000010
00000000
00000001
,
00000010
00000100
00000000
00000000
00010200
00000000
00010000
00000000
,
00010300
00001000
00100000
00010000
01000000
00000000
01000000
00000000
,
01000000
00100000
10000000
00100000
00000000
10100000
00000000
00000000
,
11000000
00000000
00000000
01100000
00000000
00000000
00110000
00000000
,
00000000
00011000
00000000
00000000
00001100
00000000
00000000
00000110
,
00000000
00000000
00000011
00000000
00000000
00000001
00001000
00000000
,
00000000
00000000
00000010
00000100
00000000
00000000
00000000
00000000
,
00000000
00000000
00000000
00000000
;
