
//----- song ID: butt3 -----//
#TITLE:BUTTERFLY (20th Anniversary Mix);
#ARTIST:BEMANI Sound Team "Sota F.";
#BANNER:BUTTERFLY (20th Anniversary Mix).png;
#BACKGROUND:BUTTERFLY (20th Anniversary Mix)-bg.png;
#CDTITLE:./CDTitles/DDR A20.png;
#MUSIC:BUTTERFLY (20th Anniversary Mix).ogg;
#SAMPLESTART:30.836;
#SAMPLELENGTH:15;
#BPMS:0=140;
#STAGE:16;
#NOTES:
     dance-single:
     :
     Beginner:
     3:
     :
0000
0000
0000
0000
,
0000
0000
0000
0000
,
0010
0000
0010
0000
,
0100
0100
0100
0000
,
0001
0000
0001
0000
,
1000
1000
1000
0000
,
0100
0000
0100
0000
,
0010
0010
0010
0000
,
1000
0000
1000
0000
,
0001
0001
0001
0000
,
0010
0000
0010
0000
,
0100
0000
0100
0000
,
0001
0000
1000
0000
,
1001
0000
0000
0000
,
0100
0000
0100
0000
,
0010
0000
0010
0000
,
1000
0000
0001
0000
,
1001
0000
0000
0000
,
1000
0000
1000
0000
,
0001
0001
0001
0000
,
0001
0000
0001
0000
,
1000
1000
1000
0000
,
0010
0000
0010
0000
,
0100
0100
0100
0000
,
0100
0000
0100
0000
,
0010
0010
0010
0000
,
1000
0000
1000
0000
,
0001
0000
0001
0000
,
1000
0000
1000
0000
,
0001
0000
0001
0000
,
0010
0000
0010
0000
,
0100
0000
0100
0000
,
0010
0000
0010
0000
,
1001
0000
0000
0000
,
0010
0000
0010
0000
,
0100
0000
0100
0000
,
0010
0000
0010
0010
,
0010
0000
0010
0000
,
1000
0000
1000
0000
,
1000
1000
1000
0000
,
0001
0000
0001
0000
,
0001
0001
0001
0000
,
1001
0000
0000
0000
,
0010
0000
0010
0000
,
0100
0100
0100
0000
,
0001
0000
0001
0000
,
1000
1000
1000
0000
,
0100
0000
0100
0000
,
0010
0010
0010
0000
,
1000
0000
1000
0000
,
0001
0001
0001
0000
,
1000
1000
1000
0000
,
0010
0000
0010
0000
,
0100
0100
0100
0000
,
0001
0000
0001
0000
,
0010
0000
0010
0000
,
0100
0100
0100
0000
,
1000
1000
1000
0000
,
0001
0001
0001
0000
,
0010
0000
0010
0000
,
0100
0000
0100
0000
,
0010
0000
0010
0000
,
1001
0000
0000
0000
,
0001
0000
0001
0000
,
1000
0000
1000
0000
,
0001
0000
0001
0000
,
1001
0000
0000
0000
,
0010
0000
0000
0000
,
0001
0000
0000
0000
,
0100
0000
0000
0000
,
1000
0000
0000
0000
,
0000
0000
0000
0000
;
#NOTES:
     dance-single:
     :
     Easy:
     6:
     :
0000
0000
0000
0000
,
0000
0000
0000
0000
,
0000
0010
0010
1001
,
1000
0100
0010
0001
,
0100
0110
0010
1001
,
1000
0001
0100
0000
,
0000
0010
0010
1001
,
0001
0100
0010
1000
,
0010
0110
0100
1001
,
0001
1000
0100
0000
,
0001
0000
0001
1001
,
1000
0010
0001
1001
,
0001
0100
1000
0100
,
0001
0010
0100
1001
,
1000
0000
1000
1001
,
0001
0100
1000
1001
,
1000
0010
0001
0010
,
1000
0100
0010
0110
,
0010
0010
0010
1001
,
0010
0100
0010
0000
,
0001
0100
0010
1000
,
0100
0010
0001
0000
,
0010
0010
0010
1001
,
0100
0010
0100
0000
,
1000
0010
0100
0001
,
0010
0100
1000
0000
,
0001
0100
0001
0100
,
1000
0100
1000
0100
,
0001
0100
1000
0100
,
0001
0100
0010
0110
,
1000
0010
1000
0010
,
0001
0010
0001
0010
,
1000
0010
0001
0010
,
1000
0010
0100
0110
,
2000
3010
0200
0301
,
0020
0130
2000
3001
,
0010
0110
1000
0001
,
0010
0010
0100
0100
,
0020
0130
1000
0001
,
0100
0010
0110
0000
,
0001
0010
1000
0100
,
0010
0100
1000
0000
,
2000
0000
0000
3001
,
0010
0010
0010
1001
,
0010
0100
0010
0000
,
0001
0100
0010
1000
,
0100
0010
0001
0000
,
0010
0010
0010
1001
,
0100
0010
0100
0000
,
1000
0010
0100
0001
,
0010
0100
1000
0000
,
0010
0100
0010
0110
,
0001
1000
0001
0000
,
0001
0010
1000
0100
,
0001
0010
0100
0110
,
0000
0100
0010
0100
,
1000
0001
1001
0000
,
0010
0110
1000
1001
,
0010
0100
0010
0000
,
1000
0100
1000
1000
,
0001
0100
0001
0001
,
0010
0100
0010
0010
,
0001
0100
0010
0000
,
1000
0100
0001
0100
,
1000
0100
0001
0100
,
1000
0100
0001
0100
,
1000
0010
0100
1001
,
0010
0000
0010
0110
,
0100
0000
0100
0110
,
1000
0000
1000
1001
,
0001
0000
0001
1001
,
0000
0000
0000
0000
;
#NOTES:
     dance-single:
     :
     Medium:
     9:
     :
0000
0000
0000
0000
,
0000
0000
0000
0000
,
0000
0010
0010
1001
,
0001
1000
0100
0000
1000
0001
0100
0000
,
0010
0100
0101
0001
,
1000
0100
1000
0010
0100
0000
1001
0000
,
0000
0010
0010
1001
,
1000
0001
0100
0000
0001
1000
0100
0000
,
0010
0100
1100
1000
,
0001
0100
0001
0010
0100
0000
1001
0000
,
0010
0100
0110
1001
,
0010
0100
0010
1000
0001
0000
1001
0000
,
0001
0100
1000
0010
,
0001
0100
0010
1000
0001
0000
0110
0000
,
0100
0010
0110
1001
,
0100
0010
0100
0001
1000
0000
1001
0000
,
1000
0010
0001
0100
,
1000
0010
0100
0001
1000
0000
1001
0000
,
0010
0000
1100
0000
0101
0000
1000
0010
,
0100
0001
0010
0000
0110
0000
0100
0000
,
0001
0100
1000
0000
1000
0100
0001
0000
,
0010
0100
1000
0100
0010
0000
1001
0000
,
0010
0000
0101
0000
1100
0000
0001
0010
,
0100
1000
0010
0000
0110
0000
0010
0000
,
1000
0100
0001
0000
0001
0100
1000
0000
,
0010
0100
0001
0100
0010
0000
1001
0000
,
1000
0100
1000
0100
,
0001
0100
0001
0100
,
1000
0100
0001
0100
,
1000
0100
0001
0100
1000
0000
1001
0000
,
0001
0100
0001
0100
,
1000
0100
1000
0100
,
1000
0100
0001
0100
,
1000
0100
0001
0100
1000
0000
1001
0000
,
0010
0000
0100
0000
0010
1000
0100
0000
,
0010
0001
0100
0000
0010
1000
0100
0000
,
0110
0020
0032
2003
,
3010
0100
0001
0010
0100
0000
0010
0000
,
0200
0000
0310
0001
1000
0000
0010
1000
,
0001
0100
0010
0000
0110
0000
0100
0000
,
0001
0000
1000
0100
1000
0000
0001
0100
,
0001
0010
0100
0000
0110
0000
1001
0000
,
0200
0000
0310
1001
,
0010
0000
1100
0000
0101
0000
1000
0010
,
0100
0001
0010
0000
0110
0000
0100
0000
,
0001
0100
1000
0000
1000
0100
0001
0000
,
0010
0100
1000
0100
0010
0000
1001
0000
,
0010
0000
0101
0000
1100
0000
0001
0010
,
0100
1000
0010
0000
0110
0000
0010
0000
,
1000
0100
0001
0000
0001
0100
1000
0000
,
0010
0100
0001
0100
0010
0000
1001
0000
,
0001
0000
1000
0000
0110
0000
0100
0100
,
0001
0010
0100
1000
0010
0000
0100
0010
,
2000
0000
3100
0010
0002
0000
0103
0010
,
1000
0000
0001
0100
0010
0000
0110
0000
,
0000
0000
1001
0000
0110
0000
0010
0010
,
1000
0100
0010
0001
0100
0000
0010
0100
,
0002
0000
0013
0100
2000
0000
3010
0100
,
0001
0000
1000
0010
0100
0000
0110
0000
,
1000
0000
0010
0000
0100
0010
0100
0000
,
0001
0000
0010
0000
0100
0010
0100
0000
,
1000
0000
0010
0000
0100
0010
0100
0000
,
0001
0000
1000
0001
0100
0000
1001
0000
,
0001
0000
0100
0000
0010
0100
0010
0000
,
1000
0000
0100
0000
0010
0100
0010
0000
,
0001
0000
0100
0000
0010
0100
0010
0000
,
1000
0000
0001
1000
0010
0000
1001
0000
,
2000
0000
3002
0000
,
0023
0000
0130
1001
,
0020
0000
2030
0000
,
3001
0010
0100
1000
0001
0000
1001
0000
,
0000
0000
0000
0000
;
#NOTES:
     dance-single:
     :
     Hard:
     12:
     :
0000
0000
0000
0000
,
0000
0000
0000
0000
,
1001
0000
0010
0000
1001
0000
1000
0001
,
1000
0010
0100
0001
0100
0000
0101
0000
,
0001
0010
1000
0000
1000
0010
0001
0000
,
1000
0100
0001
0100
1000
0000
1000
0001
,
1001
0000
0010
0000
1001
0000
0001
1000
,
0001
0010
0100
1000
0100
0000
1100
0000
,
1000
0010
0001
0000
0001
0010
1000
0000
,
0001
0100
1000
0100
0001
0000
0110
0000
,
0001
0000
0000
0010
0001
0000
0100
0000
0010
0000
0000
0000
0110
0000
0000
0000
,
1000
0000
0000
0100
1000
0000
0010
0000
0100
0000
0001
0000
0001
0000
0000
0000
,
1000
0010
0001
0010
1000
0100
0001
0100
,
1000
0100
0010
0001
0100
0000
0100
0010
,
0010
0000
0000
1000
0010
0000
0100
0000
0001
0000
0000
0000
0110
0000
0000
0000
,
0100
0000
0000
0001
0010
0000
0100
0000
1000
0000
0001
0000
0001
0000
0000
0000
,
0010
0100
1000
0001
0100
0010
1000
0001
,
0100
1000
0100
0001
0010
0000
1001
0000
,
1100
0000
0011
0000
1001
0000
0001
0100
,
0010
0000
1000
0000
0010
0100
0010
0000
0100
0000
0000
0000
1001
0000
0000
0000
,
0002
0000
0000
0013
1000
0000
0010
0000
0200
0000
0000
0310
0001
0000
0100
0000
,
0001
0100
0010
1000
0001
0000
0100
0000
,
0011
0000
1100
0000
1001
0000
1000
0010
,
0100
0000
0001
0000
0100
0010
0100
0000
0010
0000
0000
0000
1001
0000
0000
0000
,
2000
0000
0000
3100
0001
0000
0100
0000
0020
0000
0000
0130
1000
0000
0100
0000
,
0010
0001
0100
0010
1000
0000
1001
0000
,
1000
0000
0100
0000
0001
0100
1000
0000
,
0100
0000
0001
0000
0100
1000
0100
0000
,
0001
0100
1000
0100
0001
0100
1000
0100
,
0001
0100
1000
0010
0100
0000
1001
0000
,
0001
0000
0100
0000
1000
0100
0001
0000
,
0100
0000
1000
0000
0100
0001
0100
0000
,
1000
0100
0001
0100
1000
0100
0001
0100
,
1000
0100
0001
0010
0100
0000
1001
0000
,
0100
0000
1001
0000
0001
0100
0010
0000
,
1000
0010
0000
0100
0001
0000
0010
0000
0100
0000
1000
0000
0001
0000
0000
0000
,
0100
0000
0000
0000
0120
0000
0000
0000
1030
0001
0000
0100
0000
0010
0000
0000
,
1000
0100
0010
0001
0010
0100
1000
0001
,
0200
0000
0310
1000
0001
0000
0010
0001
,
1000
0000
0010
0000
1000
0001
1000
0000
0020
0000
0000
0000
0130
0000
0000
0000
,
0010
0000
0000
0000
1000
0000
0010
0000
0100
0000
0000
0001
0010
0000
0100
0000
,
1000
0100
0001
0100
1000
0000
1001
0000
,
0010
0000
0100
0010
0000
0100
0010
0000
1000
0001
1000
0000
1001
0000
0000
0000
,
1100
0000
0011
0000
1001
0000
0001
0100
,
0010
0000
1000
0000
0010
0100
0010
0000
0100
0000
0000
0000
1001
0000
0000
0000
,
0002
0000
0000
0013
1000
0000
0010
0000
0200
0000
0000
0310
1000
0000
0010
0000
,
0001
1000
0010
0001
0010
0000
0110
0000
,
0011
0000
1100
0000
1001
0000
1000
0010
,
0100
0000
0001
0000
0100
0010
0100
0000
0010
0000
0000
0000
1001
0000
0000
0000
,
2000
0000
0000
3100
0001
0000
0100
0000
0020
0000
0000
0130
0001
0000
0100
0000
,
1000
0001
0100
1000
0100
0000
0110
0000
,
1000
0100
1000
0010
0100
0000
0001
0100
,
0010
0000
1000
0000
0010
0100
0010
0000
0200
0000
0000
0000
0310
0000
0100
0000
,
0020
0000
0000
1030
0100
0000
0010
0000
0200
0000
0000
0310
0001
0000
0100
0000
,
0010
1000
0001
0100
0010
0000
0110
0000
,
0000
0000
1001
0000
0110
0000
0001
0010
,
1000
0010
0001
0100
2000
0000
3100
0010
,
2000
0000
0000
3100
0001
0000
0100
0000
0002
0000
0000
0103
1000
0000
0100
0000
,
0001
0100
1000
0010
0100
0000
0110
0000
,
0100
0000
1000
0000
0100
1000
0100
0000
,
0001
0000
0100
0000
0001
0100
1000
0000
,
0100
0000
1000
0000
0100
1000
0010
0000
,
1000
0100
0010
0001
0100
0000
0110
0000
,
1000
0200
0000
0310
0001
1000
0100
0001
,
0100
2000
0000
3001
0100
0010
1000
0100
,
0010
0002
0000
0013
1000
0010
0001
0100
,
0010
0100
0010
1000
0001
0000
1001
0000
,
0010
0000
0100
0010
0100
0000
0001
1000
,
0001
0000
0010
0000
0100
0010
0100
0000
0010
0000
0000
0000
0110
0000
0000
0000
,
0001
0000
0000
0100
0001
0000
0010
0000
0100
0000
0000
1000
0100
0000
0010
0000
,
0001
1000
0010
0100
0010
0000
1001
0000
,
0000
0000
0000
0000
;
#NOTES:
     dance-single:
     :
     Challenge:
     16:
     :
0000
0000
0000
0000
,
0000
0000
0000
0000
,
1000
1000
0001
0100
1000
0000
0010
0001
,
1000
0100
0010
0001
1000
0000
1001
0000
,
0010
0000
0010
0100
1000
0000
0010
1000
,
0001
0010
0100
1000
0001
0000
1001
0000
,
1000
1000
0001
0100
1000
0000
0010
0001
,
1000
0100
0010
0001
1000
0000
1001
0000
,
0010
0000
0010
0100
1000
0000
0100
0001
,
1000
0010
0100
0001
1000
0000
1001
0000
,
0001
0000
0100
0010
1000
0000
0001
0000
1000
0000
0000
0000
1001
0000
0000
0000
,
1000
0000
0100
0010
0001
0000
0100
0000
0010
0000
0000
0000
1001
0000
0000
0000
,
1000
0010
1000
0000
0010
0001
0010
0000
1000
0010
1000
0000
0100
1000
0100
0000
,
0001
0000
0100
0010
0001
0000
0100
0000
0010
0100
0000
0100
0010
0000
0110
0000
,
1000
0000
0010
0100
0001
0000
1000
0000
0001
0000
0000
0000
1001
0000
0000
0000
,
0001
0000
0010
0100
1000
0000
0010
0000
0100
0000
0000
0000
1001
0000
0000
0000
,
0001
0100
0001
0000
0100
1000
0100
0000
0001
0100
0001
0000
0010
0001
0010
0000
,
1000
0000
0010
0100
1000
0000
0010
0000
0100
0010
0000
0010
0100
0000
0000
0000
,
0001
0000
0100
0010
1000
0000
0100
0010
0001
1000
0000
1000
0001
0000
0100
0001
,
0100
0000
0001
0000
0011
0000
0010
0100
1000
0001
0000
0001
0100
0000
0110
0000
,
2000
0000
3001
0100
1000
0100
0010
0000
2000
0000
3100
0001
0100
0010
0100
0000
,
1000
0100
1000
0000
0001
0010
0001
0010
0000
0010
0001
0100
0010
1000
0001
0000
,
1000
0000
0010
0100
0001
0000
0010
0100
1000
0001
0000
0001
1000
0000
0010
1000
,
0010
0000
1000
0000
1100
0000
0100
0010
0001
1000
0000
1000
0010
0000
0110
0000
,
0002
0000
1003
0010
0001
0010
0100
0000
0002
0000
0013
1000
0010
0100
0010
0000
,
0001
0010
0001
0000
1000
0100
1000
0100
0000
0100
1000
0010
0100
0001
1000
0000
,
0000
0000
0002
0000
0000
0000
0103
0000
1000
0100
0001
0100
1000
0000
0100
0001
,
0000
0000
2000
0000
0000
0000
3100
0001
0100
0000
1000
0100
0001
0000
0100
1000
,
0000
0000
0002
0000
0000
0000
0013
0000
1000
0010
0001
0010
1000
0000
0010
0001
,
1000
0010
0001
0010
1000
0000
1001
0000
,
0000
0000
2000
0000
0000
0000
3010
0000
0001
0010
1000
0010
0001
0000
0010
1000
,
0000
0000
0002
0000
0000
0000
0013
1000
0010
0000
0001
0010
1000
0000
0010
0001
,
0000
0000
2000
0000
0000
0000
3100
0000
0001
0100
1000
0100
0001
0000
0100
1000
,
0001
0100
1000
0100
0001
0000
1001
0000
,
0010
0000
0010
0000
1001
0000
0000
0000
1000
0100
0010
0001
0100
0010
0000
0010
,
1000
0001
0000
0001
0010
0100
0010
0000
0001
0100
0001
0100
0010
1000
0010
0000
,
2020
0000
3030
0000
0202
0000
0303
0000
1000
0001
0010
0100
0010
0001
1000
0000
,
0010
0000
1000
0100
1000
0000
0001
0100
0001
0000
0100
0010
1000
0000
1000
0000
,
0002
0000
0103
0010
1000
0000
0100
0010
,
0001
0000
0000
0000
0000
0000
1000
0000
0000
0000
0000
0000
0010
0000
1000
0000
0010
0000
0100
0000
0000
0000
0000
0000
0001
0000
0000
0010
0000
0000
0100
0000
0000
1000
0000
0000
0100
0000
0000
0010
0000
0000
0001
0000
0000
0000
0000
0000
,
1000
0000
0010
0100
0010
0000
0001
0000
0010
0100
0000
0010
1000
0000
1000
0000
,
0001
0000
0000
0000
0000
0000
0010
0000
0000
0000
0000
0000
0100
0000
1000
0000
0001
0000
1000
0000
0000
0000
0000
0000
0001
0000
0000
0100
0000
0000
0000
0000
0000
0001
0000
0000
0010
0000
0000
0000
0000
0000
0001
0000
0000
0000
0000
0000
,
2001
0000
0000
0001
0000
0000
3001
0100
0010
1000
0100
0000
1001
0000
0000
0000
,
0021
0000
1000
0000
0031
0000
0001
0100
,
0001
0010
1000
0010
0001
1000
1001
0000
,
0010
1000
0010
0100
0001
0000
0001
0000
0010
0001
0010
0100
1000
0000
1000
0000
,
0001
0010
1000
0010
0001
0100
0110
0000
,
0201
0000
1000
0000
0301
0000
1000
0010
,
1000
0100
0001
0100
1000
0001
1001
0000
,
0100
0001
0100
0010
1000
0000
1000
0000
0100
1000
0100
0010
0001
0000
0001
0000
,
1000
0100
0001
0100
1000
0010
0110
0000
,
1000
0000
0001
1000
0010
0000
1000
0001
0010
0001
0000
0001
1000
0000
0010
1000
,
0100
0000
0001
0000
0100
0010
0001
0010
0100
1000
0000
1000
0001
0000
0100
0000
,
2000
0000
0000
3100
0010
0100
0001
0000
0020
0000
0000
1030
0010
0100
0010
0000
,
0001
0000
1000
0010
1000
0000
0001
0010
0001
0000
0000
0000
1001
0000
0100
0000
,
0000
0000
0000
0000
1001
0000
0001
1000
0100
1000
0000
1000
0001
0000
0100
0001
,
0010
0000
1000
0000
0010
0100
1000
0100
0010
0001
0000
0001
1000
0000
0010
0000
,
0002
0000
0000
0013
0100
0010
1000
0000
0200
0000
0000
0301
0100
0010
0100
0000
,
1000
0000
0001
0100
0001
0000
1000
0100
1000
0000
0000
0000
1001
0000
0000
0000
,
1000
0000
0001
0010
1000
0000
1000
0010
0001
0000
1000
0100
0000
0010
0001
0000
,
1000
0000
0001
0100
0000
1000
0100
0000
0001
0000
1000
0010
0000
0100
0001
0000
,
1000
0000
0100
0010
0000
0010
0001
0000
1001
0000
0001
0100
0000
0100
0010
0000
,
1010
0000
1000
0010
0100
0000
0001
0010
0100
0000
1000
0001
1001
0000
0000
0000
,
1000
0000
0100
0010
0100
0010
0001
0000
0100
0000
0010
1000
0010
0100
0010
0000
,
1000
0000
0100
0001
0000
0100
0010
0100
1000
0000
0001
0100
0000
1000
0100
0010
,
0100
0000
0001
1000
0001
0000
0010
0100
0010
0000
0001
1000
0100
0000
1000
0001
,
0100
0010
0100
0001
1000
0000
1001
0000
,
1000
0000
0001
0010
1000
0000
0001
0100
,
1000
0000
0000
0001
0000
0000
1000
0100
0010
0001
0000
0000
2000
0000
0000
0000
0000
0000
3001
0000
0000
0000
0000
0000
,
0110
0000
0000
0000
1000
0000
0001
0000
0100
0000
0000
1000
0001
0000
0010
0000
,
1000
0000
0000
0100
0000
0000
0010
0001
0010
0001
0000
0000
1000
0000
0000
0000
0000
0000
1001
0000
0000
0000
0000
0000
,
0000
0000
0000
0000
;
#NOTES:
     dance-double:
     :
     Easy:
     6:
     :
00000000
00000000
00000000
00000000
,
00000000
00000000
00000000
00000000
,
00000000
00000010
00000010
00000010
,
00000001
00001000
00000001
00001000
,
00000010
00010000
00100000
10000000
,
01000000
00100000
00010000
00011000
,
00000000
00100000
00100000
00100000
,
10000000
00010000
10000000
00010000
,
00100000
00001000
00000010
00000001
,
00000100
00000010
00001000
00011000
,
00010000
00000000
00001000
00011000
,
00000010
00000001
00001000
00001001
,
00010000
00001000
00010000
01000000
,
10000000
00100000
00010000
00011000
,
00001000
00000000
00010000
00011000
,
00100000
10000000
00010000
10010000
,
00001000
00010000
00001000
00000100
,
00000001
00000010
00001000
00011000
,
00000000
00000010
00000010
00000010
,
00000001
00000100
00000010
00001000
,
00001000
00000100
00010000
01000000
,
10000000
00100000
01000000
00100000
,
00000000
00100000
00100000
00100000
,
10000000
01000000
00100000
00010000
,
00010000
01000000
00001000
00000100
,
00000001
00000010
00000100
00001001
,
00001000
00000001
00000010
00000001
,
00000010
00001000
00000010
00001000
,
00000010
00001000
00010000
01000000
,
10000000
00100000
00010000
00011000
,
00010000
10000000
00100000
10000000
,
00100000
00010000
00100000
00010000
,
00100000
00010000
00001000
00000100
,
00000001
00000010
00001000
00011000
,
00020000
00030000
02000000
03000000
,
20000000
30000000
00020000
00030000
,
00010000
00011000
00001000
00000100
,
00000001
00000001
00001000
00000000
,
00000000
00000110
00000010
00001000
,
00000100
00010000
00011000
00000000
,
00010000
01000000
10000000
00100000
,
00010000
00001000
00011000
00000000
,
00001000
00000000
00000000
00001001
,
00000000
00000010
00000010
00000010
,
00000001
00001000
00000001
00001000
,
00000010
00010000
00100000
10000000
,
01000000
00100000
00010000
00011000
,
00000000
00100000
00100000
00100000
,
10000000
00010000
10000000
00010000
,
00100000
00001000
00000010
00000001
,
00000100
00000010
00001000
00011000
,
00000000
00001000
00001000
00010000
,
00011000
00100000
00010000
01000000
,
00100000
10000000
01000000
00010000
,
00001000
00000100
00000001
00001001
,
00000000
00010000
00001000
00011000
,
00000010
00001000
00000100
00000000
,
00000010
00000001
00000100
00001000
,
00010000
01000000
10000000
10010000
,
00010000
10000000
00100000
10000000
,
00100000
00010000
00100000
00010000
,
00100000
10000000
00100000
10000000
,
01000000
00010000
00001000
00011000
,
00001000
00000001
00000010
00000001
,
00000010
00001000
00000010
00001000
,
00000010
00000001
00000010
00000001
,
00000100
00001000
00010000
00011000
,
00100000
00000000
01000000
10010000
,
00010000
00000000
01000000
00011000
,
00001000
00000000
00010000
00000110
,
00000010
00000000
00000001
00001001
,
00000000
00000000
00000000
00000000
;
#NOTES:
     dance-double:
     :
     Medium:
     10:
     :
00000000
00000000
00000000
00000000
,
00000000
00000000
00000000
00000000
,
00000000
00000010
00000010
00001001
,
00011000
00110000
10000000
11000000
,
10000000
01000000
00010000
00000000
00001000
00000000
00000100
00000000
,
00000001
00000010
00001000
00000000
00010000
00000000
01000000
00000000
,
00000000
00100000
00100000
10010000
,
00011000
00001010
00000001
00000101
,
00000001
00000100
00001000
00000000
00010000
00000000
01000000
00000000
,
11000000
01100000
00110000
00000000
,
00001000
00010000
00011000
00000100
,
00001000
00000000
00000010
00000000
00001001
00000000
00000001
00000100
,
00001000
00010000
00110000
10100000
,
10000000
01000000
00010000
00000000
00011000
00000000
00000000
00000000
,
00010000
00001000
00011000
01000000
,
00010000
00000000
00100000
00000000
10010000
00000000
10000000
01000000
,
00010000
00001000
00001010
00000011
,
00000001
00000100
00001000
00000000
00011000
00000000
00000000
00000000
,
01000000
00100000
10000000
00000000
00010000
00000000
01010000
00000000
,
00100000
00001000
00010000
00000000
00001000
00000000
00000100
00000000
,
00000010
00000000
00010000
00001000
01000000
00000000
00100000
00000000
,
10000000
01000000
00100000
00000000
00110000
00000000
00000000
00000000
,
00010000
00100000
00001000
00000000
00010000
00000000
00000100
00000000
,
00000010
00000001
00000010
00000000
00000100
00010000
00001000
00000000
,
00100000
00000000
01000000
10000000
01000000
00000000
00010000
00000000
,
00001000
00010000
00000100
00000000
00000010
00000000
00001001
00000000
,
00000000
00000001
00000100
00001000
,
00010000
00100000
10000000
00100000
,
00010000
00001000
00000100
00000001
,
00000100
00001000
00010000
00000000
00100000
00000000
10010000
00000000
,
00000000
10000000
01000000
00010000
,
00001000
00000010
00000001
00000010
,
00001000
00010000
01000000
10000000
,
01000000
00010000
00001000
00000000
00000010
00000000
00001001
00000000
,
00000010
00000000
00000011
00000000
00000001
00000010
00000100
00000000
,
00001000
00000100
00010000
00001000
00010000
00000000
01000000
00000000
,
10000000
10100000
00010000
00110000
,
00000000
00100000
00001000
00010000
00001000
00000000
00011000
00000000
,
00020000
00000000
00000000
00031000
00000100
00000000
00001001
00000000
,
00000010
00001000
00000100
00000000
00010000
00001000
00100000
00000000
,
01000000
10000000
01000000
00000000
00100000
00001000
00010000
00000000
,
00001000
00000100
00000001
00000100
00000010
00000000
00001001
00000000
,
00000000
00000000
00000000
00000000
,
00001010
00000000
00011000
00000000
00110000
00000000
01000000
10000000
,
01000000
00100000
01000000
00000000
10010000
00000000
00000000
00000000
,
10000000
01000000
00010000
00000000
00001000
00000100
00000001
00000000
,
00000100
00000010
00000100
00000000
00001000
00000000
00011000
00000000
,
00110000
00000000
00011000
00000000
00001010
00000000
00000100
00000001
,
00000100
00000010
00000100
00000000
00001001
00000000
00000000
00000000
,
00000001
00000100
00001000
00000000
00010000
01000000
10000000
00000000
,
01000000
00100000
01000000
00000000
00010000
00000000
00011000
00000000
,
00000010
00000100
00001000
00000000
00000110
00000000
00000001
00000001
,
00001000
00000100
00010000
00001000
01000000
00000000
10010000
00000000
,
00020000
00000000
00130000
00001000
00020000
00000000
00031000
00000100
,
00000001
00000000
00000100
00000010
00001000
00000000
00011000
00000000
,
00000000
00000000
10010000
00000000
01100000
00000000
10000000
10000000
,
00010000
01000000
00001000
00010000
00000100
00000000
00001001
00000000
,
00002000
00000000
00003010
00010000
00002000
00000000
00013000
01000000
,
10000000
00000000
01000000
00100000
00010000
00000000
00011000
00000000
,
00001000
00000000
00000010
00000000
00000001
00000000
00000010
00001000
,
00000010
00000000
00000001
00000000
00001000
00000000
00000010
00000001
,
00000010
00000000
00001000
00000000
00000001
00000000
00000100
00001000
,
00000100
00001000
00010000
00011000
,
00010000
00000000
00100000
00000000
10000000
00000000
00100000
00010000
,
00100000
00000000
10000000
00000000
00010000
00000000
00100000
10000000
,
00100000
00000000
00010000
00000000
10000000
00000000
01000000
00010000
,
01000000
00010000
00001000
00011000
,
00002000
00000000
00003020
00000000
,
00000032
00000000
00000103
00001000
,
00020000
00000000
00230000
00000000
,
10300000
00010000
01000000
00000000
01100000
00000000
10010000
00000000
,
00000000
00000000
00000000
00000000
;
#NOTES:
     dance-double:
     :
     Hard:
     12:
     :
00000000
00000000
00000000
00000000
,
00000000
00000000
00000000
00000000
,
00012000
00000000
00000100
00000000
00013000
00000000
00010000
00100000
,
10000000
00010000
00100000
01000000
00010000
00001000
00011000
00000000
,
00020000
00000000
00000000
00031000
00000010
00000000
00000001
00000000
00002000
00000000
00000000
00003010
00010000
00000000
00001000
00000000
,
00010000
01000000
10000000
00100000
00010000
00001000
00011000
00000000
,
00021000
00000000
01000000
00000000
00031000
00000000
00001000
00000010
,
00000001
00001000
00000010
00000100
00001000
00010000
00011000
00000000
,
00002000
00000000
00000000
00013000
00100000
00000000
10000000
00000000
00020000
00000000
00000000
00130000
00001000
00000000
00010000
00000000
,
00001000
00000100
00000001
00000010
00001000
00010000
00011000
00000000
,
00100000
00000000
00000000
10000000
00100000
00000000
01000000
00000000
00010000
00000000
00000000
00000000
00110000
00000000
00000000
00000000
,
00100000
00000000
00000000
00001000
00010000
00000000
00001000
00000000
00000010
00000000
00000100
00000000
00000110
00000000
00000000
00000000
,
00000010
00000001
00000000
00000000
00000001
00000010
00000000
00000000
00000010
00001000
00000000
00000000
00001000
00010000
00000000
00000000
,
00010000
01000000
10000000
01000000
00010000
00001000
00011000
00000000
,
00000010
00000000
00000000
00000100
00000001
00000000
00000100
00000000
00000010
00000000
00001000
00000000
00000100
00000000
00000010
00000000
,
00000001
00000000
00000000
00000010
00001000
00000000
00010000
00000000
01000000
00000000
00100000
00000000
01100000
00000000
00000000
00000000
,
10000000
01000000
00000000
00000000
01000000
00010000
00000000
00000000
00010000
00001000
00000000
00000000
00001000
00000010
00000000
00000000
,
00000010
00000001
00000010
00001000
00010000
00001000
00011000
00000000
,
00021000
00000000
00100000
00000000
00031000
00000000
00001000
00000100
,
00000001
00001000
00000100
00000010
00001000
00010000
00011000
00000000
,
00002000
00000000
00000000
00013000
01000000
00000000
10000000
00000000
00020000
00000000
00000000
01030000
00001000
00000000
00010000
00000000
,
00001000
00000010
00000001
00000100
00001000
00010000
00011000
00000000
,
00012000
00000000
00000010
00000000
00013000
00000000
00010000
01000000
,
10000000
00010000
01000000
00100000
00010000
00001000
00011000
00000000
,
00020000
00000000
00000000
00031000
00000100
00000000
00000001
00000000
00002000
00000000
00000000
00003100
00010000
00000000
00001000
00000000
,
00010000
00100000
10000000
01000000
00010000
00001000
00011000
00000000
,
00001000
00010000
00100000
10000000
01000000
00010000
00001000
00000000
,
00000100
00000001
00000100
00001000
00010000
00001000
00000010
00000000
,
00001000
00010000
01000000
10000000
00100000
00010000
00001000
00000000
,
00000100
00000001
00000100
00001000
00010000
00000000
00011000
00000000
,
00001000
00010000
00100000
10000000
01000000
00010000
00011000
00000000
,
00001000
00000010
00000001
00000100
00001000
00010000
00011000
00000000
,
00001000
00010000
00100000
10000000
01000000
00010000
00001000
00000010
,
00000001
00000100
00001000
00010000
00001000
00000000
00011000
00000000
,
00010000
00000000
01100000
00000000
10000000
00010000
01000000
00000000
,
00010000
00100000
00000000
00001000
00010000
00000000
00001000
00000000
00000100
00000000
00000001
00000000
00001000
00000000
00000000
00000000
,
00000010
00000000
00000000
00000000
00000110
00000000
00000000
00000000
00001000
00000001
00000000
00001001
00000000
00000000
00000000
00000000
,
00000001
00000010
00001000
00010000
01000000
10000000
00010000
01000000
,
00200000
00000000
00310000
00001000
00000100
00000000
00000001
00000100
,
00001000
00000000
00010000
00000000
00100000
10000000
00100000
00000000
02000000
00000000
00000000
00000000
03010000
00000000
00000000
00000000
,
10100000
00000000
00000000
00000000
01000000
00000000
00001000
00000000
00011000
00000000
00000000
00001000
00010000
00000000
00001000
00000000
,
00000010
00000001
00000010
00000100
00001000
00000000
00001001
00000000
,
00000220
00000000
00000330
00011000
,
00012000
00000000
00000100
00000000
00013000
00000000
00010000
00100000
,
10000000
00010000
00100000
01000000
00010000
00001000
00011000
00000000
,
00020000
00000000
00000000
00031000
00000010
00000000
00000001
00000000
00002000
00000000
00000000
00003010
00010000
00000000
00001000
00000000
,
00010000
01000000
10000000
00100000
00010000
00001000
00011000
00000000
,
00021000
00000000
01000000
00000000
00031000
00000000
00001000
00000010
,
00000001
00001000
00000010
00000100
00001000
00010000
00011000
00000000
,
00002000
00000000
00000000
00013000
00100000
00000000
10000000
00000000
00020000
00000000
00000000
00130000
00001000
00000000
00010000
00000000
,
00001000
00000100
00000001
00000010
00001000
00010000
00011000
00000000
,
00021000
00000000
00100000
00000000
00031000
00000000
00001000
00000100
,
00000001
00001000
00000100
00000010
00001000
00010000
00011000
00000000
,
00002000
00000000
00000000
00013000
01000000
00000000
10000000
00000000
00020000
00000000
00000000
01030000
00001000
00000000
00010000
00000000
,
00001000
00000010
00000001
00000100
00001000
00010000
00011000
00000000
,
00000000
00000000
00001010
00000000
00011000
00000000
00010000
01000000
,
10000000
00010000
01000000
00100000
00010000
00001000
00011000
00000000
,
00020000
00000000
00000000
00031000
00000100
00000000
00000001
00000000
00002000
00000000
00000000
00003100
00010000
00000000
00001000
00000000
,
00010000
00100000
10000000
01000000
00010000
00001000
00011000
00000000
,
00001000
00010000
00100000
00010000
00001000
00000100
00000001
00001000
,
00000100
00000010
00000001
00000010
00001000
00010000
01000000
10000000
,
00100000
00010000
00001000
00000100
00000010
00001000
00010000
01000000
,
00100000
10000000
01000000
00010000
00001000
00010000
00100000
00000000
,
00010000
00001000
00000100
00001000
00010000
00100000
10000000
00010000
,
00100000
01000000
10000000
01000000
00010000
00001000
00000010
00000001
,
00000100
00001000
00010000
00100000
01000000
00010000
00001000
00000010
,
00000100
00000001
00000010
00001000
00010000
00001000
00000100
00000000
,
00001000
00000000
00010000
00001000
00000010
00000000
00001000
00010000
,
00100000
00010000
00001000
00000100
00000001
00000000
00001001
00000000
,
00000001
00000000
00001000
00000001
00000100
00000000
00001000
00010000
,
01000000
10000000
00100000
00010000
00001000
00000000
00011000
00000000
,
00000000
00000000
00000000
00000000
;
#NOTES:
     dance-double:
     :
     Challenge:
     16:
     :
00000000
00000000
00000000
00000000
,
00000000
00000000
00000000
00000000
,
10000000
00100000
00100000
01000000
00001000
00000000
00011000
00000000
,
00000010
00000100
00000100
00000001
00001000
00000000
00010010
00000000
,
00001000
01000000
00001000
00100000
00010000
00000000
10010000
00000000
,
01000000
00010000
01000000
00001000
00010000
00000000
00010010
00000000
,
00000100
00000010
00000010
00000001
00001000
00000000
00010100
00000000
,
00100000
01000000
01000000
10000000
00010000
00000000
00101000
00000000
,
00010000
00000100
00010000
00000010
00001000
00000000
00001001
00000000
,
00000100
00001000
00000100
00010000
00001000
00000000
00101000
00000000
,
00100000
00000000
00010000
01000000
00100000
00000000
10000000
00000000
01000000
00000000
00000000
00000000
01100000
00000000
00000000
00000000
,
10000000
00000000
01000000
00100000
00010000
00000000
00100000
00000000
00001000
00000000
00000000
00000000
00011000
00000000
00000000
00000000
,
00010000
00000100
00010000
00000000
00000010
00001000
00000010
00000000
00000100
00000001
00000100
00000000
00000010
00001000
00000010
00000000
,
00000100
00000000
00000001
00000100
00001000
00000000
00010000
00000000
00001000
00100000
00000000
00100000
00010000
00000000
01000000
00000000
,
00100000
00000000
10000000
01000000
00100000
00000000
00010000
00000000
01000000
00000000
00000000
00000000
10010000
00000000
00000000
00000000
,
00010000
00000000
01000000
00010000
00100000
00000000
00001000
00000000
00010000
00000000
00000000
00000000
00011000
00000000
00000000
00000000
,
00010000
00000010
00001000
00000000
00000100
00000010
00000001
00000000
00000010
00000100
00010000
00000000
00001000
00100000
00010000
00000000
,
01000000
00000000
00100000
01000000
10000000
00000000
01000000
00000000
00010000
10000000
00000000
10000000
00010000
00000000
00000000
00000000
,
10000000
00000000
01000000
00100000
00010000
00000000
01000000
00100000
10000000
01000000
00000000
01000000
00010000
00000000
00001000
00000010
,
00000001
00000000
00000100
00000000
00000101
00000000
00000001
00000000
00001000
00000100
00000000
00000100
00010000
00001000
00010000
00000000
,
00002000
00000000
00000000
00013000
00100000
00000000
10000000
01000000
00020000
00000000
00000000
00031000
00000010
00000000
00000001
00000100
,
00001000
00000000
00010000
00100000
01000000
00000000
00010000
00100000
00001000
00010000
00000000
00010000
00000010
00001000
00000010
00000100
,
00000001
00000000
00000010
00000100
00001000
00000000
00000010
00000100
00000001
00000010
00000000
00000010
00001000
00000000
00010000
01000000
,
10000000
00000000
00100000
00000000
10100000
00000000
10000000
00000000
00010000
00100000
00000000
00100000
00001000
00010000
00001000
00000000
,
00020000
00000000
00000000
00031000
00000100
00000000
00000001
00000010
00002000
00000000
00000000
00013000
01000000
00000000
10000000
00100000
,
00010000
00000000
00001000
00000100
00000010
00000000
00001000
00000100
00010000
00001000
00000000
00001000
01000000
00000000
00010000
01000000
,
00100000
00000000
20000000
00000000
00000000
00000000
30010000
00000000
10000000
01000000
00100000
01000000
00010000
00000000
00001000
00010000
,
00001000
00000000
00000020
00000000
00000000
00000000
00000031
00000000
00000100
00001000
00000100
00000001
00000100
00000000
00000001
00000010
,
00000100
00000000
00020000
00000000
00000000
00000000
00031000
00000000
00100000
01000000
00010000
01000000
00100000
00000000
00010000
01000000
,
00100000
00010000
00001000
00000100
00000001
00000000
00001001
00000000
,
00000010
00000000
00000002
00000000
00000000
00000000
00001003
00000000
00000001
00000100
00000010
00000100
00001000
00000000
00010000
00001000
,
00010000
00000000
00200000
00000000
00000000
00000000
10300000
00000000
01000000
00010000
01000000
10000000
01000000
00000000
10000000
00100000
,
01000000
00000000
00002000
00000000
00000000
00000000
00013000
00000000
00000010
00000100
00001000
00000100
00000010
00000000
00001000
00000100
,
00000010
00001000
00010000
01000000
10000000
00000000
10010000
00000000
,
01000000
00000000
01000000
00000000
10010000
00000000
00000000
00000000
00010000
00100000
01000000
10000000
01000000
00100000
00000000
00100000
,
00001000
00010000
00000000
00010000
00000100
00001000
00000100
00000000
00000010
00000001
00000100
00000010
00001000
00000100
00000010
00000000
,
00000022
00000000
00000033
00000000
00002200
00000000
00003300
00000000
00000001
00000100
00000001
00000100
00000010
00000100
00000010
00010000
,
00001000
00000000
00010000
00001000
00100000
00000000
00001000
00010000
00100000
00000000
01000000
00010000
10000000
00000000
00000000
00000000
,
02000000
00000000
03100000
00010000
01000000
00000000
00100000
10000000
,
01000000
00000000
00000000
00100000
00000000
00000000
00001000
00100000
00001000
00010000
00000000
00000000
00022000
00000000
00000000
00000000
00000000
00000000
00033000
00000000
00000000
00000000
00000000
00000000
,
00010000
00000100
00010000
00000100
00001000
00000000
00001010
00000000
00000010
00000100
00000010
00000100
00000001
00000000
00001001
00000000
,
00001000
00000000
00000000
00000000
00000000
00000000
00000100
00000000
00000000
00000000
00000000
00000000
00000010
00000000
00000001
00000000
00000010
00000000
00000001
00000000
00000000
00000000
00000000
00000000
00001000
00000000
00000000
00000010
00000000
00000000
00000000
00000000
00000000
00001000
00000000
00000000
00000100
00000000
00000000
00000000
00000000
00000000
00000000
00000000
00000000
00000000
00000000
00000000
,
00000120
00000000
00000000
00000100
00000000
00000000
00000130
00010000
00001000
00100000
00010000
00000000
01000000
00000000
00000000
00000000
,
01020000
00000000
00001000
00000000
01030000
00000000
00001000
00000010
,
00000001
00001000
00000010
00000100
00001000
00010000
00011000
00000000
,
00001000
00010000
00001000
00010000
01000000
00000000
01000000
00000000
00100000
00001000
00100000
00001000
00010000
00000000
00010000
00000000
,
00001000
00000010
00000001
00000010
00001000
00010000
00011000
00000000
,
00002100
00000000
00010000
00000000
00003100
00000000
00010000
00100000
,
10000000
00010000
00100000
01000000
00010000
00001000
00011000
00000000
,
00010000
00001000
00010000
00001000
00000100
00000000
00000100
00000000
00000010
00010000
00000010
00010000
00001000
00000000
00001000
00000000
,
00010000
00100000
10000000
00100000
00010000
00001000
00011000
00000000
,
00010000
00000000
00001000
00000010
00001000
00000000
00010000
00001000
00010000
00001000
00000000
00001000
00000100
00000000
00000001
00001000
,
00000001
00000000
00000010
00000000
00000100
00001000
00000100
00010000
00001000
00010000
00000000
00010000
00100000
00000000
01000000
00010000
,
20000000
00000000
00000000
31000000
00100000
00000000
00001000
00010000
00002000
00000000
00000000
00003010
00000100
00000000
00000010
00000001
,
00001000
00000000
00000001
00000100
00000010
00000000
00000100
00001000
00010000
00000000
00000000
00000000
00001000
00010000
00001000
00010000
,
00000000
00000000
00000000
00000000
00011000
00000000
00001000
00010000
00001000
00010000
00000000
00010000
01000000
00000000
10000000
00010000
,
10000000
00000000
00100000
00000000
01000000
00010000
01000000
00001000
00010000
00001000
00000000
00001000
00000010
00000000
00000100
00001000
,
00000002
00000000
00000000
00000103
00000010
00000000
00010000
00001000
00020000
00000000
00000000
00130000
01000000
00000000
00100000
10000000
,
00010000
00000000
10000000
01000000
00100000
00000000
01000000
00010000
00001000
00010000
00001000
00000000
00011000
00000000
00000000
00000000
,
00010000
00000000
00000100
00001000
00000010
00000000
00000100
00001000
00000100
00000000
00000001
00000010
00000000
00000100
00001000
00000000
,
00000010
00000000
00000100
00001000
00000000
00001000
00010000
00000000
00100000
00000000
00010000
00001000
00000000
00001000
00010000
00000000
,
01000000
00000000
10000000
00100000
00000000
00100000
01000000
00100000
10000000
00000000
01000000
00100000
00000000
00100000
00001000
00010000
,
00001000
00000000
00010000
00000010
00001000
00000000
00000010
00001000
00000100
00000000
00000010
00001000
00010000
00000000
00000000
00000000
,
00001000
00000000
00100000
00010000
01000000
00000000
00100000
00010000
00100000
00000000
10000000
01000000
00000000
00100000
00010000
00000000
,
01000000
00000000
00100000
00010000
00000000
00010000
00001000
00000000
00000100
00000000
00001000
00010000
00000000
00010000
00001000
00000000
,
00000010
00000000
00000001
00000100
00000000
00000100
00000010
00000100
00000001
00000000
00000010
00000100
00000000
00000100
00010000
00001000
,
00010000
00000000
00001000
01000000
00010000
00000000
01000000
00010000
00100000
00000000
01000000
00010000
00001000
00000000
00000000
00000000
,
00011000
00000000
00010000
00001000
00000010
00000000
00001000
00010000
,
00100000
00000000
00000000
10000000
00000000
00000000
00100000
10000000
00010000
01000000
00000000
00000000
00020000
00000000
00000000
00000000
00000000
00000000
10030000
00000000
00000000
00000000
00000000
00000000
,
10010000
00000000
00000000
00000000
10000000
00000000
01000000
00000000
00010000
00000000
00000000
00010000
00001000
00000000
00000100
00000000
,
00000001
00000000
00000000
00001000
00000000
00000000
00000001
00000010
00000100
00001000
00000000
00000000
00000010
00000000
00000000
00000000
00000000
00000000
00000110
00000000
00000000
00000000
00000000
00000000
,
00000000
00000000
00000000
00000000
;
