
//----- song ID: blst -----//
#TITLE:BLSTR;
#ARTIST:Ujico*;
#BANNER:BLSTR.png;
#BACKGROUND:BLSTR-bg.png;
#CDTITLE:./CDTitles/DDR A20.png;
#MUSIC:BLSTR.ogg;
#SAMPLESTART:73.422;
#SAMPLELENGTH:15;
#BPMS:0=160;
#NOTES:
     dance-single:
     :
     Beginner:
     3:
     :
0000
0000
0000
0000
,
0000
0000
0000
0000
,
0000
0000
0000
0000
,
0000
0000
0000
0000
,
0000
0000
0000
0000
,
1000
1000
0000
0000
,
0001
0001
0000
0000
,
0010
0010
0000
0000
,
0100
0100
0000
0000
,
0001
0000
1000
0000
,
0001
0000
1000
0000
,
0010
0000
0100
0000
,
0010
0000
0100
0000
,
0010
0000
1000
0000
,
0010
0000
1000
0000
,
0001
0000
0100
0000
,
0001
0000
0100
0000
,
1001
0000
0000
0000
,
0010
0000
0100
0000
,
0010
0000
0000
0000
,
1000
0000
0001
0000
,
1000
0000
0000
0000
,
0010
0000
0100
0000
,
0010
0000
0000
0000
,
1001
0000
0000
0000
,
1000
0000
0100
0000
,
1000
0000
0100
0000
,
0010
0000
0001
0000
,
0010
0000
0001
0000
,
0100
0000
0001
0000
,
0100
0000
0001
0000
,
1000
0000
0010
0000
,
1000
0000
0010
0000
,
0010
0000
0100
0000
,
0010
0000
0100
0000
,
0010
0000
0100
0000
,
0010
0000
0100
0000
,
0001
0000
0001
0000
,
1000
0000
1000
0000
,
0001
0000
0001
0000
,
1001
0000
0000
0000
,
0002
0000
0003
0000
,
2000
0000
3000
0000
,
0002
0000
0003
0000
,
2000
0000
3000
0000
,
0020
0000
0030
0000
,
0200
0000
0300
0000
,
0020
0000
0030
0000
,
0200
0000
0300
0000
,
0001
0000
0100
0000
,
0001
0001
0001
0000
,
1000
0000
0100
0000
,
1000
1000
1000
0000
,
0010
0000
0100
0000
,
0010
0010
0010
0000
,
0100
0000
0010
0000
,
0100
0100
0100
0000
,
0010
0000
0000
0000
,
1000
0000
0000
0000
,
0001
0000
0000
0000
,
0100
0100
0100
0000
,
0010
0000
0010
0000
,
0100
0000
0100
0000
,
0010
0000
0010
0000
,
0100
0000
0100
0000
,
0020
0000
0030
0000
,
0020
0000
0030
0000
,
0200
0000
0300
0000
,
0200
0000
0300
0000
,
0001
0001
0001
0000
,
1000
1000
1000
0000
,
0001
0001
0001
0000
,
0100
0100
0100
0100
,
0000
0000
0000
0000
;
#NOTES:
     dance-single:
     :
     Easy:
     9:
     :
0000
0000
0000
0000
,
0000
0000
0000
0000
,
0000
0000
0000
0000
,
0000
0000
0000
0000
,
0000
0000
0000
0000
,
1000
1000
0000
1001
,
0001
0001
0000
0110
,
0010
0010
0000
1001
,
0010
0000
0100
0000
0001
0100
0001
0000
,
1000
0000
0001
0000
1000
0010
1000
0000
,
0001
0000
1000
0000
0010
0100
0010
0000
,
1000
0000
0010
0000
0100
0001
0100
0000
,
0001
0000
0010
0000
0001
1000
0001
0000
,
1000
0001
1000
0000
0010
0000
0100
0000
,
0001
0100
0001
0000
1000
0000
0100
0000
,
0010
0001
0010
0000
0001
0000
0100
0000
,
0001
0000
0100
0000
0001
0000
0000
0000
1000
0000
0000
1000
0000
0000
1000
0000
,
0010
0100
0001
0100
,
1000
0000
0100
0000
0010
0001
0010
0000
,
0001
0200
0000
0310
,
0002
0013
2000
3010
,
0002
2000
3003
0010
,
0100
0001
1000
0100
,
0020
0000
0000
0000
,
0000
0031
1000
1001
,
0002
0000
0103
0000
0001
1000
0001
0000
,
0100
0000
0100
0000
0010
1000
0010
0000
,
0200
0000
0310
0000
1000
0001
1000
0000
,
0100
0000
0100
0000
0010
0001
0010
0000
,
0002
0000
1003
0000
0010
0100
0010
0000
,
1000
0000
1000
0000
0100
0010
0100
0000
,
2000
0000
3100
0000
1000
0010
1000
0000
,
0001
0000
0000
0001
0000
0000
0001
0000
0100
0000
0000
0000
0100
0000
0000
0000
,
0002
1003
0010
0100
,
0020
0130
0001
1000
,
0200
1300
0010
0100
,
0001
0000
0000
0001
0000
0000
0001
0000
0100
0000
0000
0000
0010
0000
0000
0000
,
1000
0001
0000
0001
,
0001
1000
0000
1000
,
0100
0010
0001
1000
,
0010
0000
0000
0010
0000
0000
0100
0000
0000
0100
0000
0000
0100
0000
0000
0000
,
1001
0100
0001
1000
,
0010
0010
1000
1000
,
0110
0100
1000
0001
,
1000
1000
0001
0001
,
1001
0010
1000
0001
,
1000
1000
0001
0001
,
0110
0001
1000
0010
,
1000
0000
0001
0000
0100
0010
0100
0000
,
0010
0000
1000
0000
0001
0010
0001
0000
,
1000
0100
1000
0000
1001
0000
0110
0000
,
0001
0000
0010
0000
0001
0100
0001
0000
,
1000
0010
1000
0000
0110
0000
1001
0000
,
0100
0000
0001
0000
1000
0100
1000
0000
,
0001
0100
0001
0000
0100
0000
0001
0000
,
1000
0010
0100
0010
,
0100
0001
0100
0000
0010
0000
1000
0000
,
0002
0100
1000
0103
,
0010
1000
0001
0000
0010
0000
0100
0000
,
1000
0010
0001
0100
,
0010
1000
0100
0000
0010
0001
0100
0000
,
0002
0000
0103
0000
0010
1000
0010
0000
,
0100
0000
0100
0000
0001
0100
0001
0000
,
1000
0000
0000
1000
0000
0000
0001
0000
0000
0001
0000
0000
0001
0000
0000
0000
,
1000
0010
1000
0010
1000
0000
0110
0000
,
2000
0000
0000
0000
,
3002
0000
0000
0000
,
0023
0000
0000
0000
,
0230
0000
0300
1001
,
0100
0100
0010
0001
,
0100
0100
0001
1000
,
1000
0001
0000
0001
1000
0000
0010
0000
,
0100
0000
0001
0000
0001
1000
0100
0000
,
0000
0000
0000
0000
;
#NOTES:
     dance-single:
     :
     Medium:
     12:
     :
0000
0000
0000
0000
,
0000
0000
0000
0000
,
0000
0000
0000
0000
,
0000
0000
0000
0000
,
0000
0000
0000
0000
,
0001
0000
0001
0000
0000
1000
1010
0000
,
0100
0000
0100
0000
0000
0001
0011
0000
,
0100
0000
0100
0000
0000
1000
1001
0000
,
0010
0000
0100
0000
0001
0010
0001
0010
,
0100
1000
0001
1000
1001
0000
0101
0000
,
0001
1000
0010
1000
1010
0000
1001
0000
,
0001
0010
0100
1000
1100
0000
1001
0000
,
0010
0100
0010
1000
0001
1000
0001
0000
,
0100
0001
0010
0000
0001
0100
0001
0100
,
0010
1000
0100
0000
1000
0010
1000
0010
,
0100
0001
0010
0000
0001
1000
0001
0100
,
0010
0000
1000
0000
0100
0000
0000
0000
0010
0000
0000
0001
0000
0000
0100
0000
,
0020
0000
0230
0302
0000
2003
0000
0000
,
0000
3100
0010
0001
0000
1000
0010
0100
,
0001
0000
0200
0000
0000
0000
0000
0000
0000
0000
0310
0000
0100
0000
0001
1000
,
0000
0200
0000
0000
0000
0310
0001
0020
,
0000
0230
0000
0000
0000
1300
0001
2000
,
0000
3020
0000
0230
0000
0301
0010
0200
,
0000
0000
0000
0000
,
0000
0300
1000
0001
1000
0001
0010
0000
,
2002
0003
3010
0100
0001
0100
0010
0100
,
0001
1000
0100
1000
0001
1000
1001
0000
,
2002
3000
0103
0010
1000
0010
0100
0010
,
1000
0001
0100
0001
1000
0001
1001
0000
,
0202
0003
0310
1000
0100
1000
0010
1000
,
0001
0100
0010
1000
0001
0100
0101
0000
,
0001
1000
0100
0000
0010
0001
1000
0000
,
1010
0000
0000
1001
0000
0000
1100
0000
0001
0000
1000
0000
0100
0000
0000
0000
,
1000
0001
0000
0000
0010
0000
0001
0000
0100
0000
0010
0000
0100
0000
0000
0000
,
0001
1000
0000
0000
0100
0000
1000
0000
0010
0000
0100
0000
0010
0000
0000
0000
,
0001
1000
0000
0000
0010
0000
1000
0000
0001
0000
0100
0000
0001
0000
0000
0000
,
1100
0000
0000
0110
0000
0000
0011
0000
0100
0000
1000
0000
0010
0000
0000
0000
,
0010
0000
1000
0000
0000
0001
0101
0000
,
1000
0000
0100
0000
0000
1000
1010
0000
,
1000
0010
0001
0100
,
1000
0000
0000
0001
0000
0000
0100
0000
0000
0100
0000
0000
0100
0000
0000
0000
,
1001
0000
1000
0100
1000
0100
0010
0001
,
1000
0100
0010
0001
0100
0100
0100
0000
,
1001
0000
0001
0010
0001
0010
0100
1000
,
0001
0010
0100
1000
0100
0100
0100
0000
,
0110
0000
1000
0010
1000
0010
1000
0001
,
0100
0001
0100
0001
1000
1000
1000
0000
,
0110
0000
0001
0100
0001
0100
0001
1000
,
0010
1000
0010
1000
0001
0001
0001
0000
,
0010
0000
0101
0000
1000
0010
1000
0000
,
0001
0100
0001
1000
0010
0100
0010
0000
,
0100
0000
1010
0000
0001
0010
0001
0000
,
1000
0100
0010
0001
0100
0010
1000
0000
,
0100
0000
1010
0000
0100
0010
0100
0000
,
0001
0100
0010
1000
0001
0100
0001
0000
,
1100
0110
0101
1010
,
1000
0010
1000
0001
0100
0010
1000
0002
,
0000
0203
0000
0000
0000
0310
1000
0002
,
0000
0000
0003
1000
0010
0000
1000
0000
0100
0000
0010
0000
0001
0000
0000
0101
,
0000
0101
0000
0010
0100
0010
1000
0001
,
1000
0100
0000
1000
0100
0000
0010
0000
0001
0000
0100
0000
0010
0000
0000
0000
,
2200
0300
3010
0100
0001
0010
0100
1000
,
0200
0310
0100
1000
0100
0010
0001
0100
,
0001
0100
0000
0001
0100
0000
0010
1000
0000
0010
1000
0000
1010
0000
0000
0000
,
0001
0000
0100
0000
0001
0000
0010
0000
0100
0000
0010
0000
0001
1000
0001
0000
,
0200
0000
0000
0000
,
0320
0000
0000
0000
,
2030
0000
0000
0000
,
3002
0000
0003
1001
,
1000
0010
0001
1000
0100
0001
1000
0100
,
0001
0100
1000
0010
0001
0010
1000
0000
,
0100
0100
1000
0010
0010
0001
0100
0010
,
1000
0100
0010
0001
0100
0010
0100
0000
,
0000
0000
0000
0000
;
#NOTES:
     dance-single:
     :
     Hard:
     16:
     :
0000
0000
0000
0000
,
0000
0000
0000
0000
,
0000
0000
0000
0000
,
0000
0000
0000
0000
,
0000
0000
0000
0000
,
0010
1000
0010
0001
0010
0100
0010
0000
,
0100
1000
0100
0001
0100
0010
0100
0000
,
0001
0100
0001
1000
0001
0010
0001
0000
,
1000
0000
0010
0000
1000
0000
0001
0000
1000
0100
0010
0000
0001
0100
0010
0000
,
1000
0100
0001
0100
0010
1000
0001
0100
,
1000
0010
0001
1000
0100
0010
1000
0001
,
0010
1000
0010
0100
1000
0001
0100
1000
,
0100
0001
1000
0010
0001
1000
0100
0001
,
0100
1000
0100
0000
0010
0000
0001
0000
0010
0000
0100
0000
0001
0000
0010
0000
,
1000
0010
1000
0000
0010
0000
0001
0000
0100
0000
1000
0000
0100
0000
0001
0000
,
0010
1000
0010
0000
0001
0000
0100
0000
0010
0000
1000
0000
0010
0000
1000
0000
,
0100
0001
0100
0000
1000
0000
0010
0000
0100
0000
0001
0000
0010
0000
0100
0000
,
2000
0000
3200
0320
0000
0032
0000
0000
,
0000
0000
0103
0000
0010
0000
1000
0100
0000
0000
0010
0000
0001
0000
1000
0000
,
0000
0000
0200
0000
0000
0000
0000
0000
0000
0000
1300
0000
0010
0000
0001
0010
,
0000
2000
0000
0000
0000
3001
1000
0200
,
0000
0302
0000
0000
0000
1003
0010
0002
,
0000
0000
2003
0000
0000
0000
3002
0000
0000
0000
0013
0100
1000
0000
0200
0000
,
0000
0000
0000
0000
,
0300
0000
0000
0000
0100
0010
0100
0010
0001
1000
0001
1000
0100
0010
0100
0010
,
0001
2000
0000
0000
3001
0010
0100
0000
1000
0100
0000
0010
0001
0000
0100
0000
,
0010
1000
0100
0000
0010
0001
0100
0000
0001
1000
0100
0000
0010
0000
0001
0000
,
0100
0020
0000
0000
0130
0001
0010
0000
0001
0100
0010
1000
0000
0001
0100
0010
,
0000
1000
0100
0010
0000
0001
0010
0100
0000
1000
0100
0010
0001
0100
0000
0000
,
0001
2000
0000
0000
3010
0100
0001
0000
0100
0010
0000
1000
0100
0000
0010
0000
,
0100
1000
0010
0000
0100
0001
0010
0000
0100
1000
0001
0000
1000
0000
0100
0000
,
1000
0020
0000
0000
0130
0001
0010
0000
0100
0010
0000
0001
1000
0000
0010
0000
,
0100
0001
0000
0010
1000
0000
0001
0100
0000
1000
0010
0000
1000
0100
0010
0001
,
0010
0200
0000
0000
1300
0000
0010
0000
0001
0000
0010
0000
1000
0000
0001
0000
,
1000
0002
0000
1003
0001
0000
0100
0000
0001
0000
0100
0000
0001
1000
0100
0000
,
1000
0002
0000
0000
1003
0000
0010
0000
0100
0001
0010
0000
0100
1000
0010
0000
,
1000
0001
0000
0010
0100
1000
0000
0010
0001
0000
1000
0000
0100
0000
0001
0000
,
1000
0100
0010
0001
0100
0010
1000
0001
,
0010
0100
1000
0010
0100
0001
0010
0100
,
1000
0010
0001
0100
,
1010
0000
0000
0101
0000
0000
0011
0000
0000
1100
0000
0000
1001
0000
0000
0000
,
0110
0000
0000
0000
0100
1000
0010
0000
0100
0001
0010
0000
0001
1000
0100
0000
,
1000
0001
0010
0000
0100
0010
0001
0000
0100
0010
1000
0000
0110
0000
0000
0000
,
1001
0000
0000
0000
0001
1000
0010
0000
0100
0001
0010
0000
0100
1000
0010
0000
,
1000
0001
0100
0000
0010
1000
0100
0000
0010
0001
0100
0010
0200
0000
0300
0000
,
1001
0000
0000
0000
0001
1000
0100
0000
0100
1000
0001
0000
1000
0001
0100
0000
,
0100
0001
1000
0000
0010
1000
0100
0000
0010
0001
0100
0000
0002
0000
0000
0000
,
2003
0000
0000
0000
3001
0010
0100
0000
1000
0010
0100
0000
0010
1000
0100
0000
,
0010
0001
0100
0010
1000
0100
0000
0010
0001
1000
0100
0010
0001
1000
0100
0010
,
0001
0100
0010
1000
0010
0001
0010
1000
,
0100
0000
0001
0000
0100
0000
1000
0000
0010
0000
0100
0000
0010
1000
0100
0000
,
0010
0001
0100
1000
0100
0001
0010
0100
,
1000
0000
0010
0000
0001
0000
0010
0000
1000
0000
0001
0000
1000
0001
0100
0000
,
0001
0010
0100
1000
0001
0100
0010
0001
,
1000
0000
0100
0000
0010
0000
0001
0000
1000
0000
0100
0000
0001
1000
0100
0000
,
0010
0001
0100
0010
1000
0010
0001
0010
,
1000
0000
0001
0000
0100
0000
1000
0000
0001
0000
0010
1000
0200
0000
0320
0000
,
0032
0203
0000
0000
0000
0310
1000
0002
,
0000
0000
1003
0010
0100
0000
0001
0000
1000
0000
0100
0000
0010
0001
0000
1000
,
0100
0000
0010
0000
0001
0010
0100
1000
0001
0010
0100
1000
0010
0100
0001
0010
,
0100
1000
0001
0010
0100
1000
0010
0100
0001
1000
0100
0010
0001
1000
0100
1000
,
0010
0200
0000
0000
0310
1000
0100
0000
0010
0001
0000
0010
0100
0000
0010
0000
,
1000
0010
0100
0000
0001
0100
0010
0000
0100
1000
0010
0000
0100
0000
0001
0000
,
0010
0200
0000
0310
0100
0000
1000
0020
0000
0031
0020
0000
0031
0020
0000
0000
,
0130
0000
0001
0000
1000
0000
0100
0000
0001
0100
0010
0000
0001
1000
0010
0000
,
0200
0000
0000
0300
,
0020
0000
0000
0030
,
2000
0000
0000
3000
,
0002
0000
0003
1001
,
1000
0100
1000
0100
0010
0000
0001
0100
0001
0100
0010
0000
1000
0010
0100
0001
,
0010
0100
1000
0010
0100
0000
0001
0010
0100
1000
0010
0000
0100
0010
0100
0000
,
0010
1000
0100
0010
1000
0000
0001
0100
1000
0010
0100
0000
1000
0100
0001
0000
,
1000
0010
0100
1000
0001
0000
1000
0100
0001
0010
0100
1000
0001
0000
0000
0000
,
0000
0000
0000
0000
;
#NOTES:
     dance-double:
     :
     Easy:
     9:
     :
00000000
00000000
00000000
00000000
,
00000000
00000000
00000000
00000000
,
00000000
00000000
00000000
00000000
,
00000000
00000000
00000000
00000000
,
00000000
00000000
00000000
00000000
,
00000001
00000001
00000000
00001001
,
00000100
00001000
00000000
00011000
,
00010000
00010000
00000000
01100000
,
10000000
00000000
00100000
00000000
10000000
01000000
00010000
00000000
,
00001000
00000000
00000100
00000000
00000001
00000100
00000001
00000000
,
00000100
00000000
00001000
00000000
00010000
00001000
00010000
00000000
,
01000000
00000000
00100000
00000000
00010000
00100000
00010000
00000000
,
00100000
00000000
01000000
00000000
10000000
00100000
10000000
00000000
,
00010000
01000000
00001000
00010000
,
00001000
00000100
00000001
00000100
,
00000010
00001000
00000100
00010000
,
00001000
00000000
00000000
00000000
01000000
00000000
00000000
00000000
00010000
00000000
00000000
00100000
00000000
00000000
00001000
00000000
,
00020000
00000000
00030000
00000100
00000000
00002000
00000000
00000000
,
00000000
00003010
00000000
00000100
00000000
00000001
00000000
00000100
,
00000000
00002000
00000000
00000000
00000000
00013000
00000000
00100000
,
00000000
02000000
00000000
00000000
00000000
03100000
00000000
10000000
,
00000000
02000000
00000000
00000000
00000000
03100000
00000000
00010000
,
00000000
01000000
00000000
00001000
00000000
00010000
00000000
00002000
,
00000000
00000000
00000000
00000000
,
00000000
01003000
00100000
01100000
,
01000000
00000000
00010000
00000000
01000000
00010000
01000000
00000000
,
00010000
00000000
00010000
00000000
00100000
00001000
00100000
00000000
,
00001000
00000000
00000010
00000000
00000100
00001000
00000100
00000000
,
00001000
00000000
00001000
00000000
00000010
00000100
00000010
00000000
,
00000100
00000000
00000001
00000000
00000100
00000001
00000100
00000000
,
00000010
00000000
00000010
00000000
00010000
00001000
00010000
00000000
,
00001000
00000000
01000000
00000000
00010000
00100000
00010000
00000000
,
01000000
00000000
00000000
01000000
00000000
00000000
01000000
00000000
00010000
00000000
00000000
00000000
10000000
00000000
00000000
00000000
,
01000000
00100000
00001000
01000000
,
00001000
00010000
00000100
00001000
,
00000001
00000100
00001000
00010000
,
00001000
00000000
00000000
00001000
00000000
00000000
00001000
00000000
00010000
00000000
00000000
00000000
00001000
00000000
00000000
00000000
,
00010000
01000000
00000000
10000000
,
01000000
00010000
00000000
00010000
,
00001000
00000100
00000010
00001000
,
00000001
00000000
00000000
00000100
00000000
00000000
00001000
00000000
00000000
00010000
00000000
00000000
01000000
00000000
00000000
00000000
,
01100000
10000000
01000000
10000000
,
01000000
00010000
00001000
00010000
,
00011000
00001000
00000010
00000001
,
00000010
00000001
00000010
00001000
,
00011000
00010000
00001000
00000100
,
00001000
00010000
01000000
00010000
,
00011000
00010000
00100000
10000000
,
00010000
00000000
10000000
00000000
01000000
10000000
01000000
00000000
,
10000000
00000000
01000000
00000000
00010000
00001000
00010000
00000000
,
00001000
00010000
00001000
00000000
00011000
00000000
00001100
00000000
,
00000010
00000000
00000001
00000000
00000100
00000010
00000100
00000000
,
00001000
00010000
00001000
00000000
00011000
00000000
01010000
00000000
,
00100000
00000000
10000000
00000000
01000000
10000000
01000000
00000000
,
00100000
00010000
00100000
00000000
00010000
00000000
01000000
00000000
,
00001000
00010000
00001000
00010000
,
00001000
00000000
00000010
00000000
00000000
00000001
00000000
00000010
,
00000000
00000001
00000000
00000000
00000000
00000100
00000000
00001000
,
00000000
00000000
00000000
00000000
00010000
00000000
00000000
00000000
00001000
00000000
00000000
00000000
00001000
00000000
00000000
00010000
,
00000000
00010000
00000000
01000000
00100000
00000000
01000000
00000000
,
10000000
01000000
10000000
00000000
00100000
00010000
00001000
00000000
,
00000100
00000000
00000001
00000000
00001000
00000010
00001000
00000000
,
00000010
00000100
00000010
00000000
00000100
00000000
00000001
00000000
,
00000100
00000000
00000000
00000100
00000000
00000000
00001000
00000000
00000000
00001000
00000000
00000000
00001000
00000000
00000000
00000000
,
00010000
00001000
00010000
00001000
00010000
00000000
00011000
00000000
,
02000000
00000000
00000000
00000000
,
03200000
00000000
00000000
00000000
,
00320000
00000000
00000000
00000000
,
00032000
00000000
00003000
00011000
,
00001000
00010000
00001000
00000100
,
00000001
00000100
00000001
00000010
,
00000001
00000100
00000000
00001000
00010000
00000000
00001000
00000000
,
00010000
00000000
01000000
00000000
10000000
00100000
01000000
00000000
,
00000000
00000000
00000000
00000000
;
#NOTES:
     dance-double:
     :
     Medium:
     12:
     :
00000000
00000000
00000000
00000000
,
00000000
00000000
00000000
00000000
,
00000000
00000000
00000000
00000000
,
00000000
00000000
00000000
00000000
,
00000000
00000000
00000000
00000000
,
10000000
00000000
10000000
00000000
00000000
01000000
01100000
00000000
,
01000000
00000000
01000000
00000000
00000000
00100000
00110000
00000000
,
00001000
00000000
00001000
00000000
00000000
00010000
00011000
00000000
,
00001000
00000000
00010000
00000000
00001000
00000100
00000001
00000000
,
00000100
00000001
00001000
00000010
00001010
00000000
00011000
00000000
,
00001000
01000000
00010000
00100000
00110000
00000000
01100000
00000000
,
00010000
00100000
01000000
10000000
11000000
00000000
10010000
00000000
,
00100000
10000000
01000000
10000000
01000000
00010000
00001000
00000000
,
00010000
00001000
00010000
00000000
00001000
00000100
00000001
00000100
,
00000010
00001000
00000100
00000000
00001000
00000010
00010000
00001000
,
00010000
00001000
01000000
00000000
00100000
01000000
00100000
01000000
,
00010000
00000000
10000000
00000000
01000000
00000000
00000000
00000000
10000000
00000000
00000000
01000000
00000000
00000000
00100000
00000000
,
00020000
00000000
02030000
03002000
00000000
00023000
00000000
00000000
,
00000000
00031000
00010000
00000100
00000000
00001000
00000001
00000100
,
00000001
00000000
00000020
00000000
00000000
00000000
00000000
00000000
00000000
00000000
00000130
00000000
00001000
00000000
00000100
00010000
,
00000000
00002000
00000000
00000000
00000000
00013000
01000000
20000000
,
00000000
30200000
00000000
00000000
00000000
10300000
00010000
02000000
,
00000000
03002000
00000000
00023000
00000000
00030010
00001000
00000200
,
00000000
00000000
00000000
00000000
,
00000000
00000300
00001000
00000010
00001000
00000001
00000100
00000000
,
00000220
00000030
00000301
00001000
00000010
00001000
00000100
00010000
,
00001000
00010000
00001000
01000000
00010000
00100000
00110000
00000000
,
02200000
00300000
13000000
00010000
00100000
00010000
01000000
00001000
,
00010000
00001000
00010000
00000100
00001000
00000010
00001010
00000000
,
00000202
00000003
00000301
00000010
00000001
00000100
00001000
00010000
,
00001000
00010000
01000000
10000000
01000000
10000000
11000000
00000000
,
00010000
10000000
01000000
00000000
00100000
00010000
01000000
00000000
,
01010000
00000000
00000000
00011000
00000000
00000000
00001100
00000000
00000100
00000000
00001000
00000000
00000001
00000000
00000000
00000000
,
00000100
00000010
00000000
00000000
00001000
00000000
00000001
00000000
00001000
00000000
00000100
00000000
00010000
00000000
00000000
00000000
,
00011000
00000000
01000000
00010000
01000000
00100000
10000000
00000000
,
00100000
01000000
00000000
00000000
00010000
00000000
10000000
00000000
01000000
00000000
10000000
00000000
00010000
00000000
00000000
00000000
,
00110000
00000000
00000000
00011000
00000000
00000000
00001010
00000000
00000010
00000000
00001000
00000000
00000100
00000000
00000000
00000000
,
00000001
00000000
00000100
00000000
00000000
00000010
00001010
00000000
,
00010000
00000000
00001000
00000000
00000000
00010000
00011000
00000000
,
00001000
01000000
00010000
00100000
,
00010000
00000000
00000000
10000000
00000000
00000000
01000000
00000000
00000000
01000000
00000000
00000000
01000000
00000000
00000000
00000000
,
01100000
00000000
00100000
00010000
01000000
00001000
00010000
00001000
,
00010000
00000010
00000100
00000001
00001000
00001000
00001000
00000000
,
00001001
00000000
00000001
00001000
00000010
00001000
00000100
00010000
,
00001000
00100000
00010000
01000000
00010000
00010000
00010000
00000000
,
10010000
00000000
10000000
01000000
00010000
01000000
10000000
00010000
,
01000000
00001000
00010000
00001000
00010000
00010000
00010000
00000000
,
00011000
00000000
00001000
00000100
00000001
00000100
00001000
00010000
,
00001000
00010000
00000010
00001000
00000100
00000100
00000100
00000000
,
00000010
00000000
00000110
00000000
00000001
00000100
00000001
00000000
,
00001000
00000010
00001000
00000100
00010000
00001000
00010000
00000000
,
01000000
00000000
01100000
00000000
10000000
00100000
10000000
00000000
,
01000000
00100000
00010000
00100000
00001000
00010000
00001000
00000000
,
00010000
00000000
00011000
00000000
00010000
00001000
00010000
00000000
,
00001000
00010000
00000100
00001000
00000010
00001000
00000001
00000000
,
00001001
00001100
00011000
00110000
,
10000000
00100000
10000000
00010000
01000000
00001000
00010000
00002000
,
00000000
00023000
00000000
00000000
00000000
00030100
00001000
00000020
,
00000000
00000000
00000030
00001000
00000001
00000000
00000100
00000000
00000001
00000000
00000100
00000000
00001000
00000000
00000000
00011000
,
00000000
00011000
00000000
01000000
00010000
01000000
00100000
10000000
,
01000000
10000000
00000000
01000000
10000000
00000000
01000000
00000000
00010000
00000000
00001000
00000000
00010000
00000000
00000000
00000000
,
00022000
00003000
00030100
00000010
00000001
00000010
00000100
00001000
,
00000200
00000310
00000001
00000100
00000010
00000001
00000010
00000000
,
00000010
00000100
00000000
00000001
00000100
00000000
00000010
00001000
00000000
00000010
00001000
00000000
00001010
00000000
00000000
00000000
,
00000100
00010000
00001000
00010000
00001000
00100000
00010000
00000000
,
02000000
00000000
00000000
00000000
,
03200000
00000000
00000000
00000000
,
00320000
00000000
00000000
00000000
,
00032000
00000000
00003000
00011000
,
00001000
00100000
00010000
00100000
00010000
10000000
01000000
00100000
,
00010000
01000000
00001000
00010000
00001000
00010000
00000100
00000000
,
00001000
00001000
00000010
00001000
00001000
00000100
00010000
00001000
,
00100000
01000000
00010000
00001000
00000100
00000001
00000010
00000000
,
00000000
00000000
00000000
00000000
;
#NOTES:
     dance-double:
     :
     Hard:
     16:
     :
00000000
00000000
00000000
00000000
,
00000000
00000000
00000000
00000000
,
00000000
00000000
00000000
00000000
,
00000000
00000000
00000000
00000000
,
00000000
00000000
00000000
00000000
,
10000000
00100000
00010000
00100000
10000000
00100000
00010000
00000000
,
00001000
00000010
00000001
00000010
00001000
00000010
00000001
00000000
,
00001000
00000010
00000001
00000010
00010000
00001000
00000100
00000000
,
00001000
00000000
00010000
00000000
00100000
00000000
10000000
00000000
00010000
01000000
00100000
00000000
10000000
01000000
00100000
00000000
,
00010000
00000000
00100000
00000000
10000000
00000000
00100000
00000000
00010000
00000000
01000000
00000000
00010000
00100000
00001000
00000000
,
00010000
00000000
00001000
00000000
00000100
00000000
00000001
00000000
00000010
00000000
00000100
00000000
00001000
00000100
00010000
00000000
,
00001000
00000000
00000100
00000000
00001000
00000000
00010000
00000000
00100000
00000000
10000000
00000000
01000000
00100000
00010000
00000000
,
00100000
00000000
00010000
00000000
01000000
00000000
00001000
00000000
00100000
00000000
00001000
00000000
00000100
00000010
00001000
00000000
,
00000001
00000000
00000010
00000000
00000100
00000000
00001000
00000000
00000100
00000000
00010000
00000000
00001000
00010000
01000000
00000000
,
10000000
00000000
00100000
00000000
01000000
00000000
00010000
00000000
00100000
00000000
01000000
00000000
10000000
01000000
00100000
00000000
,
00010000
00000000
00100000
00000000
00001000
00000000
00010000
00000000
00001000
00000000
00000100
00000000
00000010
00000100
00001000
00000000
,
00000100
00000000
00000001
00000000
00000010
00000000
00000100
00000000
00001000
00000100
00000010
00000001
00000010
00000100
00001000
00000100
,
00002000
00000000
00003200
00020300
00000000
00032000
00000000
00000000
,
00000000
00000000
00013000
00000000
00001000
00000000
00100000
00010000
00000000
00000000
01000000
00000000
00100000
00000000
20000000
00000000
,
00000000
00000000
32000000
00000000
00000000
00000000
00000000
00000000
00000000
00000000
13000000
00000000
00100000
00000000
00010000
00001000
,
00000000
00000200
00000000
00000000
00000000
00000310
00001000
00000002
,
00000000
00000023
00000000
00000000
00000000
00000031
00000010
00002000
,
00000000
00000000
00023000
00000000
00000000
00000000
00032000
00000000
00000000
00000000
00013000
01000000
00100000
00000000
00002000
00000000
,
00000000
00000000
00000000
00000000
,
00003000
00000000
00000000
00000000
00001000
00010000
00001000
00010000
00001000
00100000
00001000
00100000
01000000
00100000
01000000
00100000
,
00010000
20000000
00000000
00000000
30100000
01000000
00010000
00000000
00100000
00001000
00000000
00001000
00100000
00000000
00001000
00000000
,
00010000
00000100
00001000
00000000
00000100
00001000
00000001
00000000
00001000
00000001
00000100
00000000
00000010
00000000
00001000
00000000
,
00000100
00020000
00000000
00000000
00031000
00100000
00010000
00000000
01000000
00100000
10000000
00010000
00000000
00100000
01000000
00100000
,
00000000
00010000
01000000
00100000
00000000
10000000
01000000
00100000
00000000
00001000
00010000
00001000
00000100
00000010
00000000
00000000
,
00001000
00000002
00000000
00000000
00000013
00000100
00001000
00000000
00000010
00000100
00000000
00000100
00000010
00000000
00001000
00000000
,
00010000
01000000
00100000
00000000
10000000
00010000
01000000
00000000
00100000
01000000
00010000
00000000
00100000
00000000
01000000
00000000
,
00100000
02000000
00000000
00000000
03100000
00010000
01000000
00000000
00100000
00010000
00000000
00001000
00000100
00000000
00000010
00000000
,
00001000
00000010
00000000
00001000
00000100
00000000
00010000
00001000
00000000
01000000
00010000
00000000
10000000
01000000
00100000
00010000
,
00100000
02000000
00000000
00000000
13000000
00000000
00100000
00000000
00010000
00000000
00001000
00000000
00000100
00000000
00000001
00000000
,
00000010
00000200
00000000
00000310
00000100
00000000
00001000
00000000
00010000
00000000
00100000
00000000
00010000
10000000
00100000
00000000
,
01000000
00200000
00000000
00000000
10300000
00000000
01000000
00000000
00100000
00010000
01000000
00000000
00100000
10000000
01000000
00000000
,
00100000
00010000
00000000
00001000
00000100
00000010
00000000
00000001
00001000
00000000
00000010
00000000
00000001
00000000
00001000
00000000
,
00000100
00001000
00010000
01000000
10000000
00100000
00010000
00001000
,
00010000
01000000
00010000
00001000
00000100
00000010
00001000
00000001
,
00000100
00000010
00001000
00000100
,
00000011
00000000
00000000
00000101
00000000
00000000
00001100
00000000
00000000
00011000
00000000
00000000
00110000
00000000
00000000
00000000
,
01100000
00000000
00000000
00000000
10000000
01000000
00100000
00000000
00010000
01000000
00100000
00000000
00010000
00001000
00000100
00000000
,
00000001
00001000
00000010
00000000
00000100
00000010
00001000
00000000
00000100
00000010
00000001
00000000
00000110
00000000
00000000
00000000
,
00001001
00000000
00000000
00000000
00000001
00000010
00000100
00000000
00001000
00000010
00000100
00000000
00001000
00010000
00100000
00000000
,
10000000
00010000
01000000
00000000
00100000
01000000
00010000
00000000
00100000
01000000
10000000
00000000
00200000
00000000
00000000
00000000
,
01300000
00000000
00000000
00000000
10000000
00100000
01000000
00000000
00010000
00100000
01000000
00000000
00100000
00001000
00010000
00000000
,
00001000
00000100
00000010
00000000
00001000
00000001
00000100
00000000
00000010
00001000
00000100
00000000
00000020
00000000
00000000
00000000
,
00000230
00000000
00000000
00000000
00000310
00000001
00001000
00000000
00000010
00000100
00001000
00000000
00000100
00001000
00010000
00000000
,
00001000
00010000
01000000
10000000
00100000
01000000
00000000
00100000
10000000
01000000
00100000
00010000
01000000
00100000
10000000
01000000
,
00100000
00010000
01000000
00100000
10000000
00100000
01000000
00010000
,
00100000
00000000
00001000
00000000
00010000
00000000
00001000
00000000
00000100
00000000
00000010
00000000
00001000
00000100
00000010
00000000
,
00000001
00000100
00001000
00000100
00000001
00000010
00001000
00010000
,
00001000
00000000
00000010
00000000
00001000
00000000
00010000
00000000
01000000
00000000
10000000
00000000
00010000
01000000
00100000
00000000
,
00010000
00100000
01000000
00010000
00100000
00001000
00010000
00000100
,
00000010
00000000
00000001
00000000
00000100
00000000
00000010
00000000
00001000
00000000
00000100
00000000
00000010
00000001
00000100
00000000
,
00000010
00001000
00000100
00010000
00001000
00000100
00001000
00010000
,
00100000
00000000
10000000
00000000
00010000
00000000
00100000
00000000
01000000
00000000
00010000
01000000
00200000
00000000
00320000
00000000
,
20030000
32000000
00000000
00000000
00000000
03100000
00010000
00002000
,
00000000
00000000
00003100
00010000
00001000
00000000
00010000
00000000
00000100
00000000
00000010
00000000
00000001
00000010
00000000
00001000
,
00000010
00000000
00000001
00000000
00001000
00000010
00000100
00000000
00000010
00000100
00001000
00000000
00000100
00001000
00010000
00000000
,
00001000
00010000
00100000
00000000
00100000
00010000
00001000
00000100
00000010
00001000
00000010
00001000
00000200
00000000
00000000
00000000
,
00000310
00000200
00000000
00000000
00001300
00000100
00000010
00000000
00000100
00001000
00000000
00001000
00000100
00000000
00001000
00000000
,
00000200
00010000
00000300
00010000
00000100
00000000
00010000
00001000
00000000
00001000
00100000
00000000
01000000
10000000
00100000
00000000
,
01000000
00200000
00000000
01300000
00100000
00000000
00020000
00100000
00030000
00100000
00010000
00000000
00002000
00000100
00000000
00003000
,
00000100
00001000
00000000
00001000
00000100
00000000
00000010
00000000
00001000
00000001
00000100
00000000
00000010
00001000
00000001
00000000
,
00000200
00000000
00000000
00000300
,
00000020
00000000
00000000
00000030
,
00020000
00000000
00000000
00030000
,
00002000
00000000
00003000
00011000
,
00001000
00010000
00001000
00010000
00001000
00000000
00100000
00010000
00100000
00010000
00100000
00000000
01000000
10000000
00100000
00000000
,
01000000
00010000
01000000
00010000
01000000
00000000
00001000
00010000
00001000
00010000
00000010
00000000
00001000
00000001
00001000
00000000
,
00000010
00000100
00000001
00000010
00000100
00000000
00000010
00000100
00001000
00000100
00010000
00000000
00001000
00010000
01000000
00000000
,
00100000
00010000
01000000
00100000
10000000
00000000
01000000
00100000
00010000
01000000
00100000
00000000
01100000
00000000
00000000
00000000
,
00000000
00000000
00000000
00000000
;
