
//----- song ID: avng -----//
#TITLE:Avenger;
#ARTIST:USAO;
#BANNER:Avenger.png;
#BACKGROUND:Avenger-bg.png;
#CDTITLE:./CDTitles/DDR A20.png;
#MUSIC:Avenger.ogg;
#SAMPLESTART:78.089;
#SAMPLELENGTH:15;
#BPMS:0=200,32=100,34=200,190=100,214=200,306=100,308=200,316=400;
#STOPS:190=1.2;
#NOTES:
     dance-single:
     :
     Beginner:
     4:
     :
0000
0000
0000
0000
,
0000
0000
0000
0000
,
0000
0000
0000
0000
,
0000
0000
0000
0000
,
0000
0000
0000
0000
,
1000
0000
0000
0000
,
1000
0000
0000
0000
,
0001
0000
0000
0000
,
0001
0000
0000
0000
,
0010
0000
0000
0000
,
0010
0000
0000
0000
,
0010
0000
0000
0000
,
0000
0000
0000
0000
,
0100
0000
0000
0000
,
0100
0000
0000
0000
,
0100
0000
0000
0000
,
0000
0000
0010
0000
,
0010
0000
0010
0000
,
0000
0000
0001
0000
,
0100
0000
0001
0000
,
0000
0000
0010
0000
,
0010
0000
0010
0000
,
0000
0000
0001
0000
,
0010
0000
0001
0000
,
0000
0000
0010
0000
,
0010
0000
0010
0000
,
0000
0000
1000
0000
,
0100
0000
1000
0000
,
0000
0000
0010
0000
,
0010
0000
0010
0000
,
0000
0000
1000
0000
,
0010
0000
1000
0000
,
0000
0000
0002
0000
,
0000
0000
0003
0000
,
0000
0000
0200
0000
,
0000
0000
0300
0000
,
0000
0000
2000
0000
,
0000
0000
3000
0000
,
0000
0000
0200
0000
,
0000
0000
0300
0000
,
0000
0000
0001
0000
,
0001
0000
1000
0000
,
1000
0000
0001
0000
,
0001
0000
1000
0000
,
1000
0000
0010
0000
,
0010
0000
0100
0000
,
0100
0000
0010
0000
,
0000
0000
1001
0000
,
0001
0010
0001
0000
,
0001
0000
1000
0000
,
1000
0100
1000
0000
,
1000
0000
0010
0000
,
1000
0000
0100
0000
,
0001
0000
1000
0000
,
1000
0000
0100
0000
,
0100
0000
1000
0000
,
0001
0000
1001
0000
,
0000
0000
0001
0000
,
0010
0000
0001
0000
,
0100
0000
0001
0001
,
0001
0000
0100
0000
,
0000
0000
1000
0000
,
0010
0000
1000
0000
,
0100
0000
1000
1000
,
1000
0000
0100
0000
,
0000
0000
0001
0000
,
0010
0000
0100
0000
,
0010
0000
0001
0001
,
0001
0000
0010
0000
,
0000
0000
1000
0000
,
0010
0000
0100
0000
,
0010
0000
1000
1000
,
1000
0000
0010
0000
,
0000
0000
0001
0000
,
0001
0000
1000
0000
,
1000
0000
0001
0000
,
1000
0000
1001
0000
,
0000
0000
0000
0000
,
0001
0000
1000
0000
,
0002
0000
0000
0000
,
0000
0000
0000
0000
,
0000
0000
0000
0000
,
0003
0000
0000
0000
,
0002
0000
0000
0000
,
0003
0000
0000
0000
,
0001
0000
0000
0000
,
0000
0000
0000
0000
,
2000
0000
0000
0000
,
0000
0000
0000
0000
,
0000
0000
0000
0000
,
3000
0000
0000
0000
,
2000
0000
0000
0000
,
3000
0000
0000
0000
,
1000
0000
0000
0000
,
0000
0000
0000
0000
,
0002
0000
0000
0000
,
0003
0000
0000
0000
,
0001
0000
0000
0000
,
0001
0000
0000
0000
,
0002
0000
0000
0000
,
0003
0000
0000
0000
,
0001
0000
0000
0000
,
0000
0000
0000
0000
,
2000
0000
0000
0000
,
3000
0000
0000
0000
,
2000
0000
0000
0000
,
3000
0000
0000
0000
,
1000
0000
0000
0000
,
1000
0000
0000
0000
,
1000
0000
1000
0000
,
1000
0000
0000
0000
,
1001
0000
0000
0000
,
0000
0000
0000
0000
;
#NOTES:
     dance-single:
     :
     Easy:
     10:
     :
0000
0000
0000
0000
,
0000
0000
0000
0000
,
0000
0000
0000
0000
,
0000
0000
0000
0000
,
0000
0000
0000
0000
,
0001
0010
0100
0000
,
1000
0010
0100
0000
,
0001
1000
0001
0000
,
2000
0000
3001
0001
,
0001
0000
0001
0100
,
1000
0000
1000
1000
,
1000
0000
1000
0010
,
0001
0000
0001
0001
,
0001
0000
0001
0010
,
1000
0000
1000
1000
,
1000
0000
1001
0000
,
0000
0000
0001
0100
,
0100
0001
0001
0100
,
0101
0000
1000
0100
,
0100
1000
1100
0000
,
1010
0000
1000
0010
,
0010
1000
1000
0010
,
1010
0000
0001
0010
,
0010
0001
0001
0010
,
0200
0300
1000
0100
,
1000
0100
0010
0001
,
0010
0010
0001
0100
,
0001
0100
0010
1000
,
0010
0010
1000
0100
,
0001
0100
1000
0100
,
0010
0010
0001
0100
,
1000
0100
0220
0000
,
0330
0000
2000
0000
,
3200
0000
0320
0000
,
0032
0000
0023
0000
,
0230
0000
2300
0000
,
3020
0000
0230
0000
,
2300
0000
3200
0000
,
0302
0000
2003
0000
,
3200
0000
0302
0000
,
0203
0000
0310
0000
,
0010
0000
0010
0010
,
0010
0000
0100
0000
,
0100
0000
0100
0100
,
0100
0000
1000
1000
,
1000
0000
0001
0001
,
0001
0000
0100
0010
,
0100
0010
0110
1000
,
0000
1000
0000
1000
,
0000
1000
0000
0001
,
0000
0001
0000
0001
,
0000
0000
0001
0000
0000
0010
0000
0010
,
0000
0010
0000
0010
0000
0010
0000
0010
,
0000
0010
0000
0100
0001
0000
0100
0000
,
0101
0000
1000
0100
,
1100
0000
0000
0000
1000
0100
1000
0000
,
0001
0010
0001
0000
1001
0000
0000
0000
,
0000
0000
0000
0000
0001
0010
0001
0000
,
1000
0010
0100
0001
,
0100
0000
0000
0000
1000
0100
1000
0000
,
0001
0010
0100
0010
,
0001
0000
0000
0000
0001
0100
0001
0000
,
0010
0100
0010
0001
,
0100
0000
0000
0000
0010
1000
0010
0000
,
1000
0100
0110
0000
,
1010
0000
1000
0100
,
0010
0001
1000
0100
,
0010
0001
0010
0000
0001
0000
0100
0000
,
0010
1000
1010
0000
,
0101
0000
1000
0100
,
1000
1000
0001
0100
,
0001
0000
0001
0000
0010
0010
0010
0000
,
0100
0100
0100
0000
0110
0000
0000
0000
,
0000
0000
0011
0000
,
1100
0000
1010
0000
,
0101
0000
0001
1000
,
0001
1000
0002
0000
,
1003
0001
1000
0001
,
0010
0010
0010
0000
,
0001
0000
0001
0000
,
0001
0001
0001
0000
,
0001
0001
0001
0000
,
0001
0000
0000
0000
,
1000
0000
1000
0000
,
1000
1000
1000
0000
,
1000
0000
0001
0000
,
1000
0000
0001
0000
,
0010
0010
0010
0000
,
0010
0000
0000
0000
,
0100
0100
0100
0000
,
0100
0000
0000
0000
,
1000
0000
0010
0000
,
0100
0000
0001
0000
,
1000
0001
1000
0000
,
0001
0000
0000
0000
,
1000
0000
0001
0000
,
1000
0000
0000
0000
,
0010
0010
0010
0010
,
0010
0000
0000
0000
,
0001
0000
1000
0000
,
0001
0000
0000
0000
,
0100
0100
0100
0100
,
0100
0000
0000
0000
,
1000
0000
1000
1000
,
1000
0000
0000
0000
,
0001
0001
0001
0000
,
0001
0000
0000
0000
,
1000
0000
0010
0000
,
0001
0000
0100
0000
,
1000
0000
0001
0000
,
1000
0000
0000
0000
,
1001
0000
0000
0000
,
0000
0000
0000
0000
;
#NOTES:
     dance-single:
     :
     Medium:
     14:
     :
0000
0000
0000
0000
,
0000
0000
0000
0000
,
0000
0000
0000
0000
,
0000
0000
0000
0000
,
0000
0000
0000
0000
,
0001
0010
0001
0000
0100
0001
0100
0000
,
0011
0011
1001
0000
,
1000
0100
1000
0000
0010
1000
0010
0000
,
2002
0000
3003
0000
1000
0100
0010
0100
,
0010
0100
0010
0100
1000
0100
0010
0100
,
0010
0100
0010
0000
0001
0100
0010
0100
,
0010
0100
0010
0100
0001
0100
0010
0100
,
0010
0100
0010
0000
1000
0100
1000
0100
,
0010
0100
0010
0000
0001
0100
0001
0100
,
0010
0100
0010
0000
1000
0010
0100
0001
,
0100
0010
1000
0001
1000
0000
0000
0000
,
0000
0000
0000
0000
1000
0100
0001
0100
,
0010
0100
1000
0000
1010
0000
0110
0000
,
0101
0000
0000
0000
0001
0100
1000
0100
,
0010
0100
0001
0000
0011
0000
0110
0000
,
1100
0000
0000
0000
1000
0010
0001
0010
,
0100
0010
1000
0000
1100
0000
0110
0000
,
0011
0000
0000
0000
0001
0010
1000
0010
,
0100
0010
0001
0000
0101
0000
0110
0000
,
1010
0000
0000
0000
0001
0001
0100
0000
,
1000
1000
0100
0000
0001
0010
1000
0010
,
0001
0100
1000
0000
0001
0001
0010
0000
,
1000
1000
0010
0000
1000
0010
0100
1000
,
0001
0000
0000
0010
0000
0000
0100
0000
0000
0000
0000
0000
0001
0000
0000
0000
1000
0000
0100
0000
0000
0000
0000
0000
,
1000
0000
0001
0100
0000
0000
0010
0000
0100
0010
0000
0000
,
1000
0001
1000
0001
0000
0000
0100
0000
0100
0000
0100
0000
,
0010
0010
0010
0110
0000
0000
,
0000
0000
0001
1000
,
0010
0010
1000
0001
,
0010
0010
0001
1000
,
0100
0100
1000
0001
,
0010
0010
0100
0100
,
1000
1000
0001
0001
,
0010
0010
0001
0001
,
0100
0100
0010
0010
,
1000
1000
0001
0100
,
0101
0000
1000
0100
,
1100
0000
0010
0001
,
0101
0000
0010
0100
,
1001
0000
1001
1001
,
0110
0110
1001
0110
,
1001
0000
0110
0000
0001
0010
0100
1000
,
0001
0010
0100
1000
0001
1000
0100
0010
,
0100
0000
1000
0000
0001
0010
0001
0000
1000
0000
0010
0000
0100
0100
0100
0000
,
0010
0010
0010
0000
1000
0000
1001
0000
0001
0000
0100
0010
0100
0000
1000
0000
,
0100
0000
0001
0000
0010
0000
0100
0000
1000
1000
1000
0000
1000
0000
1000
0000
,
0001
0001
0100
0001
0001
0010
0001
1000
0001
0000
0011
0000
0000
0000
1100
0000
,
0000
1010
0000
0101
0000
0011
0000
1100
,
0000
0110
0000
1001
0001
1000
0100
0000
,
0010
0001
1000
0000
0010
1000
0010
0000
,
0100
0001
0010
0000
0001
0100
0001
0100
,
0010
1000
0010
1000
0001
0000
0000
0000
,
0000
0000
0000
0000
1000
0010
0100
0010
,
1000
0100
0001
0100
0010
0001
0100
0010
,
0001
0010
1000
0100
0010
0100
0010
0100
,
1000
0010
0001
0010
1000
0010
1000
0010
,
0100
1000
0100
0000
0001
0001
0001
0000
,
0001
0010
1000
0010
0100
1000
0010
0100
,
1000
0100
0010
1000
0001
0010
0100
0010
,
0001
1000
0001
0010
0100
1000
0001
1000
,
0100
0010
1000
0000
0010
0010
0010
0000
,
0010
0001
0010
0001
1000
0010
0100
0001
,
0010
0100
0010
1000
0001
0100
1000
0100
,
0010
0000
0001
0000
0100
0000
0010
0000
1000
0000
0000
1000
0000
0000
1000
0000
,
0001
0000
0000
0001
0000
0000
0001
0000
0100
0000
0010
0000
0100
0000
0010
0000
,
1000
0001
1000
0001
0010
0100
0010
0100
,
1000
0001
1000
0001
0100
0010
1000
0010
,
0100
0001
1000
0100
0001
0000
0000
0000
,
0000
0000
1010
0100
,
0011
0100
1010
0100
,
0011
0100
1100
0101
,
1100
0101
2002
3003
,
0010
0100
0010
0100
,
0010
0010
1001
0000
,
0010
0010
0010
0010
,
0010
0010
0010
0010
,
0010
0010
0010
0010
,
0010
0010
0010
0000
,
0100
0100
0100
0100
,
0100
0100
0100
0100
,
0110
0000
1001
0000
,
0110
0000
1001
0000
,
0001
0001
0001
0001
,
0001
0000
0000
0001
0000
0000
0001
0000
,
1000
0000
1000
0000
1000
0000
0000
1000
,
0000
1000
1000
1000
,
0010
1000
0100
0010
,
0001
0100
0010
1000
,
0100
0010
0100
0010
,
0100
0000
0110
0000
,
0001
0001
0001
0001
,
0001
0001
0001
0001
,
0001
0001
0001
0001
,
0001
0001
0001
0000
,
1000
1000
1000
1000
,
1000
1000
1000
1000
,
1001
0000
0110
0000
,
1001
0000
0110
0000
,
0010
0010
0010
0010
,
0010
0000
0000
0010
0000
0000
0010
0000
,
0100
0000
0100
0000
0100
0000
0000
0100
,
0000
0100
0100
0100
,
0100
1000
0010
0100
,
0001
0010
0100
1000
,
0001
0001
0100
0100
,
0010
0010
1000
1000
,
1001
0000
0000
0000
,
0000
0000
0000
0000
;
#NOTES:
     dance-single:
     :
     Hard:
     17:
     :
0000
0000
0000
0000
,
0000
0000
0000
0000
,
0000
0000
0000
0000
,
0000
0000
0000
0000
,
0000
0000
0000
0000
,
0001
1000
0010
1000
0001
0010
0100
1000
,
0001
0100
0001
1000
0010
0100
0001
1000
,
0001
0010
0100
1000
0100
0010
0001
0000
,
2002
0000
3003
0000
1000
0001
0100
0010
,
1000
0100
0010
0000
0001
0100
0010
1000
,
0100
1000
0010
0000
0100
0010
0100
0001
,
1000
0100
0010
0000
0001
1000
0010
0100
,
0001
1000
0010
0000
0100
0100
0100
0000
,
0001
1000
0010
1000
0001
0010
0100
0010
,
0100
1000
0001
0000
0100
0010
1000
0010
,
0100
0001
0010
0000
1000
0000
0010
0200
,
0020
0000
0330
0000
0001
0100
0010
1000
,
0002
0000
2003
0000
3010
0100
0010
1000
,
0100
0010
0100
0000
1000
0010
1000
0100
,
0010
0000
0001
0000
0100
0000
0001
0000
0010
0000
0000
0001
0000
0000
0010
0000
,
0100
0000
0000
1000
0000
0000
0100
0000
0010
0000
0010
0000
0010
0000
0000
0000
,
2000
0000
3002
0000
0103
0010
0100
0001
,
0010
0100
0010
0000
0001
1000
0100
1000
,
0100
0010
0001
0010
0001
0100
0010
0000
,
1000
0000
0000
0000
0001
0010
0100
1000
0001
0000
1000
0000
0002
0000
0000
0000
,
0013
0100
2000
0000
3010
0100
0001
1000
,
0001
0010
0100
0010
0100
1000
0020
0000
,
0130
0001
0020
0000
0031
0100
0001
0100
,
0020
0000
0000
0000
0000
0000
0000
0000
0000
0000
0000
0000
1030
0000
0000
0100
0000
0000
0010
0000
0000
0001
0000
0000
1000
0000
0000
0000
0000
0000
0000
0000
0001
0000
0000
0000
1000
0000
0000
0000
0000
0000
0000
0000
0100
0000
0000
0000
,
0010
0000
0001
0010
0000
0100
1000
0000
0010
0100
0000
0001
,
1000
0100
1000
0100
0000
0010
0001
0000
1000
0000
0001
1000
,
0001
0000
0010
0000
0100
0010
0200
0000
0000
0000
0000
0000
,
0310
0000
0000
0000
1000
0001
0010
0001
,
0100
0010
1000
0100
1000
0001
0100
0010
,
0100
0001
1001
0000
0001
0010
0001
1000
,
0010
0100
0001
0100
0010
1000
0001
1000
,
0010
0100
0101
0000
1001
0000
0101
0000
,
0001
0100
0101
0000
1000
0001
1001
0000
,
0010
1000
1100
0000
0001
0100
0110
0000
,
1000
0000
0100
0000
0110
0000
0000
0000
0001
0010
0001
0010
0100
1000
0100
1000
,
0010
1000
0010
1000
0001
0100
0001
0100
0010
0000
1000
0000
0002
0000
0000
0000
,
0013
0001
0020
0000
0130
1000
0020
0000
,
0130
0001
1001
0000
0010
0001
2000
0000
,
3100
0010
0002
0000
1003
0010
0200
0000
,
0310
1000
1001
0000
1100
0001
0100
0000
,
0101
1000
0001
0000
1100
0001
0010
0000
,
1001
0000
0100
0000
0010
0000
0000
0000
0100
0010
0100
0010
0001
0100
0001
0100
,
0010
1000
0010
1000
0100
0010
0100
0010
0100
0000
0100
0000
1000
0000
1010
0000
,
0011
0000
0000
0000
1010
0000
0000
0000
1100
0000
0000
0000
0010
0000
0001
0000
0010
0000
0000
0000
0010
0000
0000
0000
0001
1000
0001
1000
0001
0000
0000
0000
,
1000
0010
0100
0000
0002
0000
1003
0000
0110
0000
0100
0000
0001
0000
0101
0000
,
1100
0000
0000
0000
0101
0000
0000
0000
0011
0000
0000
0000
1000
0000
0000
0000
0100
0000
0100
0010
0100
0000
0000
0000
1100
0000
0000
0000
1010
0000
0000
0000
,
0100
0000
0100
0000
0001
0000
1000
0100
1000
0100
1000
0000
0001
0000
0000
0000
0010
0000
0000
0000
0101
0000
0000
0000
0010
0000
0000
0000
1100
0000
0000
0000
,
0010
0101
0010
1100
0001
0110
1000
0110
,
0010
1001
0100
1001
0001
0100
1000
0000
,
0001
0100
1000
0000
1001
0100
0010
0000
,
0110
0010
1001
0000
1000
0100
0010
0100
,
1000
0100
1000
0100
0010
0001
0010
0001
1000
0000
0000
0000
0000
0000
0000
0000
,
0000
0000
0000
0000
0000
0000
0000
0000
0001
0010
0001
0000
1000
0000
0010
0000
,
0200
0000
0000
0000
0310
0000
1000
0000
0100
0010
0100
0000
0010
0000
0001
0000
,
2000
0000
0000
0000
3001
0000
0000
0000
0100
0001
0100
0000
0001
0000
1000
0000
,
0200
0000
0000
0000
0310
0000
0001
0000
1000
0001
1000
0000
0010
0000
1000
0000
,
0100
0000
0010
0000
0001
0000
0000
0000
0100
1000
0100
0000
1000
0000
0001
0000
,
0200
0000
0000
0000
0301
0000
1000
0000
0010
1000
0010
0000
1000
0000
0001
0000
,
0200
0000
0000
0000
0301
0000
0000
0000
0010
0001
0010
0000
0001
0000
0100
0000
,
0020
0000
1030
0001
0010
0000
0100
0000
,
0010
0000
1001
0000
0001
0010
0100
1000
,
0010
0000
0100
0000
0001
0000
1000
0000
0001
0010
0100
0000
1000
0010
0100
0000
,
0001
0010
0100
0000
1000
0010
0100
0000
0001
0000
0100
0000
0010
0000
1000
0000
,
0100
0000
0010
0000
0001
0000
1000
0000
0001
0000
0100
0010
0000
0000
0010
0000
,
1000
0000
0100
0010
0000
0000
0010
0000
0001
0000
0001
0000
0010
0000
0010
0000
,
0100
0100
1000
1000
0010
0010
0100
0100
,
0001
0000
0001
0000
1000
0000
1000
0000
0010
0100
0010
0000
0100
0010
0100
0000
,
0001
0010
0100
0010
0100
1000
0001
1000
0001
0000
0000
0000
0000
0000
0000
0000
,
0000
0000
0000
0000
0000
0000
0000
0000
1001
0000
0000
0000
0001
0010
0100
1000
,
0001
0000
0000
0000
1000
0100
0010
0001
1000
0000
0000
0000
0001
1000
0100
0010
,
0001
0000
0000
0000
1000
0001
0010
0100
1000
0000
1000
0000
0001
0000
0001
0000
,
0010
0010
0100
0100
0220
0000
0330
0000
,
1000
0001
0100
0010
1000
0001
1000
0000
,
0010
0010
1001
0100
,
0001
1000
0001
1000
0001
1000
0001
1000
,
0001
1000
0001
1000
0001
1000
0001
1000
,
0001
1000
0001
1000
0001
1000
0001
1000
,
0001
1000
0001
1000
0001
0000
0000
0000
,
0010
0100
0010
0100
0010
0100
0010
0100
,
0010
0100
0010
0100
0010
0100
0010
0100
,
0010
0000
0000
0001
0000
0000
0100
0000
,
0010
0100
0010
0000
1000
0000
0000
0000
,
1000
0100
1000
0100
1000
0100
1000
0100
,
1000
0000
0001
0100
0000
0100
0001
0010
,
0001
0010
0001
0010
0001
0000
0000
0001
,
0000
1000
0010
1000
,
0001
0010
0001
0010
,
0100
1000
0100
1000
,
0010
0000
0100
0001
0100
0000
0001
0100
,
0010
1000
0010
0000
1001
0000
0000
0000
,
0010
1000
0010
1000
0010
1000
0010
1000
,
0001
0100
0001
0100
0001
0100
0001
0100
,
0001
0010
0001
0010
0001
0010
0001
0010
,
0100
1000
0100
1000
0100
0000
0000
0000
,
1000
0010
0100
0001
0010
0100
1000
0010
,
0100
0001
0010
0100
1000
0010
0100
0001
,
1000
0000
0000
0001
0000
0000
0100
0000
,
0010
0100
0010
0000
0100
0000
0000
0000
,
0001
0010
0001
0010
0001
0010
0001
0010
,
0001
0000
1000
0010
0000
0010
1000
0000
,
0001
0100
0001
0100
0001
0000
1000
0100
,
0000
0100
0010
0000
0001
0100
0001
0100
,
0001
0100
1000
0100
,
0010
0001
0010
1000
,
0100
1000
0100
1000
0010
1000
0010
1000
,
0100
0010
0001
0100
0010
1000
0001
0010
,
0100
0000
0000
0000
,
0000
0000
0000
0000
;
#NOTES:
     dance-single:
     :
     Challenge:
     18:
     :
0000
0000
0000
0000
,
0000
0000
0000
0000
,
0000
0000
0000
0000
,
0000
0000
0000
0000
,
0000
0000
0000
0000
,
1000
0001
0100
0010
,
1000
0000
0000
0000
0110
0000
0010
0001
0000
0001
0010
0000
0100
0000
1000
0000
,
0001
0000
0010
0000
0100
0000
1000
0000
0010
0100
0001
0010
0100
1000
0001
0000
,
1001
0000
0100
0010
0200
0000
0300
0000
0001
0000
0000
0000
0001
0000
0000
0000
,
0101
0101
1000
1000
,
1100
1100
0010
0010
,
0110
0110
1000
0001
,
0110
0000
1001
0000
0010
0100
0110
0000
,
0001
0002
0010
0023
,
0100
0000
0130
0000
1000
0100
0010
0001
,
0010
0100
1000
0010
0100
0001
1000
0100
0010
0000
0000
0000
0001
0000
1000
0000
,
1001
0000
0000
0000
1000
0100
0010
0001
1000
0100
1000
0000
0010
0000
0100
0000
,
0001
0010
0100
0000
1000
0010
0100
0000
0001
1000
0100
0000
1000
0001
0100
0000
,
0001
1000
0001
0000
1001
0000
0000
0000
0010
0100
0010
0000
1000
0000
0001
0000
,
0100
0010
1000
0000
0100
0010
0001
0000
0010
0000
0000
0010
0000
0000
1001
0000
,
0100
0000
0000
0100
0000
0000
1001
0000
0010
0000
0100
0000
1000
0000
0001
0000
,
0100
0010
1000
0000
0001
0010
0100
0000
1000
0100
0010
0000
0001
0100
0010
0000
,
1000
0010
0100
0000
0110
0000
0000
0000
0001
0000
0002
0000
0010
0000
0023
0000
,
1000
0000
2030
0000
0001
0000
3001
0000
0100
0000
0000
0000
0011
0000
0000
0101
,
0000
0000
1001
0000
0001
0010
0100
1000
0001
0000
0010
0000
0001
0000
0001
0000
,
1000
0000
0010
0000
1000
0000
1000
0000
0010
0000
0100
0000
0010
0000
1000
0100
,
0000
0100
0010
0000
0001
0000
0100
0000
0001
0000
0010
0000
0100
0000
0100
0000
,
1000
0000
0010
0000
0100
0000
0100
0000
0001
0000
0010
0000
0001
0000
0100
0010
,
0000
0000
0000
0010
0000
0000
1000
0000
0000
0000
0000
0000
0010
0000
0000
0100
0000
0000
0001
0000
0000
1000
0000
0000
0001
0000
0000
0000
0000
0000
0000
0000
0001
0000
0000
0000
0010
0000
0000
0000
0000
0000
0000
0000
0010
0000
0000
0000
,
0100
0000
0100
1000
0000
1000
0010
0000
0010
0001
0000
0001
,
1000
0100
0001
0100
0000
0100
0010
0000
1010
0000
1000
0100
,
0010
0000
0011
0000
0001
0100
0020
0000
0000
0000
0000
0000
,
0130
0000
0002
0100
,
0010
0000
0000
0000
1000
0000
0000
0000
0103
0000
0010
0000
1000
0000
0001
0100
,
0000
0100
1000
0000
0100
0000
0010
0000
2000
0000
0000
0000
0001
0000
0000
0000
,
0010
0000
0000
0000
0100
0000
0000
0000
3001
0000
0100
0000
0010
0000
1000
0010
,
0000
0010
0001
0000
0010
0000
1000
0000
0100
0000
0000
0000
0001
0000
0000
0000
,
0010
0000
0000
0000
1000
0000
0000
0000
0010
0000
0001
0000
0100
0000
1000
0100
,
0000
0100
0001
0000
0010
0000
0001
0000
0200
0000
0000
0000
0010
0000
0000
0000
,
1000
0000
0000
0000
0310
0000
0000
0000
0001
0010
0100
1000
0100
0010
0001
0100
,
0010
1000
0010
0100
0001
0010
0100
1000
0002
0000
0000
0000
0103
0000
0000
0000
,
0001
0010
0100
0010
0001
0010
0100
0010
0001
1000
0100
1000
0001
1000
0100
1000
,
0001
1000
0100
1000
0001
1000
0100
1000
0002
0000
0000
0000
1003
0000
0000
0000
,
1000
0010
0100
0010
1000
0010
0100
0010
1000
0001
0100
0001
1000
0001
0100
0001
,
1000
0001
0100
0001
1000
0001
0100
0001
1000
0000
1000
0000
2000
0000
0000
0000
,
3010
0010
0020
0000
0130
0100
0200
0000
,
0301
0000
0001
0000
0002
0000
0000
0000
1003
0100
1000
0100
0010
0001
0010
0001
,
1000
0100
0010
0001
1000
0100
0010
0001
1000
0000
0000
0100
1100
0000
1010
0000
,
0011
0000
0000
0000
1010
0000
0000
0000
1100
0000
0000
0000
0101
0000
0000
0000
0010
0000
0010
0000
0010
0000
0000
0000
0001
1000
0001
1000
0001
0000
0100
0000
,
0010
0000
0010
0000
1000
0000
0000
0000
0010
0100
0010
0000
1001
0000
0000
0000
0110
0000
0000
0000
0000
0000
1000
0000
1100
0000
0000
0000
0101
0000
0000
0000
,
0011
0000
0000
0000
0101
0000
0000
0000
1100
0000
0000
0000
1010
0000
0000
0000
0100
0000
0100
0001
0100
0000
0000
0000
0001
0000
0000
0000
0001
0000
0000
0000
,
0010
0000
0100
0000
0110
0000
1000
0001
1000
0001
1000
0000
0110
0000
0000
0000
0002
0000
0000
0000
0010
0000
0000
0000
0000
0000
0000
0000
1000
0000
0000
0000
,
0000
0100
0000
1000
2003
0010
0000
0001
,
0000
0100
0000
3010
1000
0010
0001
0010
,
1000
0000
0100
0000
0010
0000
0000
0000
0001
0000
0000
0000
0110
0000
0100
1000
,
0000
1000
0100
0000
0010
0000
0001
0000
1000
0000
0100
0000
0010
0000
0001
0000
,
0100
0010
1000
0100
0010
0001
1000
0000
1001
0000
0000
0000
0010
0000
0100
0000
,
0010
0000
0010
0000
1000
0010
0100
0001
1000
0000
0010
0000
0100
0000
0000
0000
,
0001
0000
0010
0000
0100
0000
0000
0000
0001
0000
0100
0000
0010
0000
0010
0001
,
0000
0001
0100
0000
0020
0000
0000
0000
1030
0000
0100
0000
0010
0000
0000
0000
,
0001
0000
0100
0000
0010
0000
0000
0000
1000
0000
0001
0000
0010
0000
0100
1000
,
0000
1000
0010
0000
0200
0000
0000
0000
0310
0000
0010
0000
1001
0000
0000
0000
,
1000
0000
0100
0000
0001
0000
0000
0000
1000
0000
0010
0000
0001
0000
0100
0010
,
0000
0010
1000
0000
0001
0000
0100
0000
0010
0000
1000
0000
0010
0000
1000
0000
,
0001
0000
0100
0000
0001
0000
0001
0000
0010
0001
1000
0100
0010
0100
1000
0001
,
0010
0100
1000
0010
0100
0001
0100
0010
1000
0000
0001
0000
1001
0000
0000
0000
,
0010
0000
0001
0000
1001
0000
0000
0000
0010
0000
1000
0000
0100
0000
0001
0100
,
0000
1000
0100
0000
0110
0000
0000
0000
0100
0000
1000
0000
1001
0000
0000
0000
,
0100
0000
0001
0000
1001
0000
0000
0000
0001
0010
0100
1000
0010
0100
0001
0010
,
0100
1000
0010
0100
0001
0010
0100
1000
0001
0100
0001
0000
0011
0000
0000
0000
,
0100
1000
0100
0000
1010
0000
0000
0000
0100
0010
0100
0000
1001
0000
0000
0000
,
0001
0010
0100
0000
1001
0000
0000
0000
0010
1000
0100
0010
0001
1000
0010
0100
,
0001
0010
0100
1000
0001
0100
0010
1000
0001
0000
0000
0000
0100
0000
0010
0000
,
0200
0000
0000
0000
0310
0000
0000
0000
0110
0000
0000
0000
1000
0100
0010
0001
,
0100
0000
0000
0000
0001
0100
0010
1000
0100
0000
0000
0000
1000
0010
0100
0001
,
0010
0000
0000
0000
0001
0010
0100
1000
0001
0000
0100
0000
1000
0000
0100
0000
,
0001
0000
0010
0000
1000
0000
0010
0000
0002
0000
0100
0100
0100
0000
0003
0000
,
0001
0000
1000
0001
1000
0000
0001
1000
0001
1000
0000
1000
0001
0000
0001
0000
,
0010
0010
1001
0100
,
0010
1000
0100
0010
0001
0100
0010
1000
,
0100
0010
0001
0100
0010
1000
0100
0010
,
0001
0010
0100
1000
0010
0100
0001
0010
,
0100
1000
0010
0100
0001
0010
0100
1000
,
0010
1000
0010
0100
0001
1000
0001
0100
,
0001
0010
0100
1000
0100
0010
0001
1000
,
0001
0000
0000
0101
0000
0000
1010
0000
,
1000
0010
0100
0000
1001
0000
0000
0000
,
0001
0000
0000
0010
0000
0000
0100
0000
0000
1000
0000
0000
0001
0000
1000
0000
0001
0000
1000
0000
0000
0001
0000
0000
,
1000
0000
0100
0010
0000
0010
0001
0100
,
0010
1000
0010
0100
0010
0000
0000
1100
,
0000
0110
1001
0110
,
1000
0010
0100
0100
,
0001
0010
0100
0100
,
1000
0100
0001
0100
,
1000
0001
1001
0000
,
0100
0001
0010
0100
1000
0010
0100
0001
,
0010
0100
1000
0010
0100
0001
0010
0100
,
1000
0100
0010
0001
0100
0010
1000
0100
,
0010
0001
0100
0010
1000
0100
0010
0001
,
0100
0001
0100
0010
1000
0001
1000
0010
,
1000
0100
0010
0001
0010
0100
1000
0001
,
1000
0000
0000
1010
0000
0000
0101
0000
,
0001
0100
0010
0000
1001
0000
0000
0000
,
1000
0000
0000
0100
0000
0000
0010
0000
0000
0001
0000
0000
1000
0000
0001
0000
1000
0000
0001
0000
0000
1000
0000
0000
,
0001
0000
0010
0100
0000
0100
1000
0010
,
0100
0001
0100
0010
0100
0000
0000
0011
,
0000
0110
1001
0110
,
0001
0100
0010
0010
,
1000
0100
0010
0010
,
0001
0010
0100
0001
1000
0010
0100
1000
,
0010
0100
1000
0001
0010
0100
0001
0010
,
0100
0000
0000
0000
,
0000
0000
0000
0000
;
#NOTES:
     dance-double:
     :
     Easy:
     10:
     :
00000000
00000000
00000000
00000000
,
00000000
00000000
00000000
00000000
,
00000000
00000000
00000000
00000000
,
00000000
00000000
00000000
00000000
,
00000000
00000000
00000000
00000000
,
00000001
00000100
00001000
00000000
,
00000100
00001000
00010000
00000000
,
00010000
00100000
10000000
00000000
,
10010000
00000000
10000000
10000000
,
10000000
00000000
10000000
01000000
,
00010000
00000000
00001000
00001000
,
00001000
00000000
00001000
00000010
,
00000001
00000000
00000001
00000001
,
00000001
00000000
00000001
00000100
,
00001000
00000000
00010000
00100000
,
10000000
00000000
10010000
00000000
,
00000000
00000000
10000000
00100000
,
01000000
00100000
01000000
00001000
,
00011000
00000000
00010000
00000100
,
00000010
00000100
00000011
00000000
,
00001010
00000000
00000001
00000100
,
00000010
00000100
00000010
00010000
,
00011000
00000000
00001000
01000000
,
00100000
01000000
00100000
10000000
,
02000000
03000000
10000000
01000000
,
00010000
00000100
00001000
00000000
,
00001001
00000000
00000001
00000100
,
00001000
01000000
00010000
00000000
,
10010000
00000000
10000000
00100000
,
00010000
00000000
00001000
00000010
,
00000001
00000000
00000001
00000100
,
00010000
00001000
00011000
00000000
,
00000000
00000000
10000000
00000000
,
01000000
00000000
00100000
00000000
,
00010000
00000000
00001000
00000000
,
00000100
00000000
00000010
00000000
,
00000001
00000000
00000001
00000000
,
00000100
00000000
00000010
00000000
,
00001000
00000000
00010000
00000000
,
01000000
00000000
00100000
00000000
,
10000000
00000000
01000000
00000000
,
00010000
00000000
00001000
00000000
,
00010000
00000000
00100000
00000000
,
00010000
00000000
00001000
00000000
,
00000000
00000000
00001000
00000000
,
00000010
00000000
00001000
00000000
,
00010000
00000000
00001000
00000000
,
00000100
00000000
00000001
00001000
,
00000000
00010000
00000000
10000000
,
00000000
00010000
00000000
10000000
,
00000000
00010000
00000000
00001000
,
00000000
00000000
00000001
00000000
00000000
00000001
00000000
00001000
,
00000000
00010000
00000000
00000000
00000000
00001000
00000000
00010000
,
00000000
10000000
00000000
00000000
00100000
00000000
00010000
00000000
,
00001000
00000100
00000010
00001000
,
00010000
00000000
01000000
00000000
00100000
00010000
00100000
00000000
,
00001000
00010000
00011000
00000000
,
00000000
00000000
10000000
00100000
,
01000000
00100000
00010000
00000010
,
00001000
00000100
00000010
00000001
,
00000100
00000010
00000100
00001000
,
01000000
00010000
10000000
00100000
,
10000000
01000000
00001000
00000100
,
00000010
00000001
00000100
00000010
,
00001000
00000100
00000010
00001000
,
00100000
00010000
10000000
00100000
,
00010000
00001000
00000100
00000001
,
00000010
00001000
00010000
01000000
,
10000000
01000000
00010000
00001000
,
00000010
00000001
00000100
00001000
,
00010000
01000000
00010000
00001000
,
00000010
00001000
00010000
00100000
,
10000000
01000000
01100000
00000000
,
00000000
00000000
11000000
00000000
,
00110000
00000000
00001100
00000000
,
00000011
00000000
00000001
00000100
,
00001000
00020000
00002000
00033000
,
00100000
00100000
01000000
01000000
,
01100000
01100000
01100000
00000000
,
10000000
01000000
00100000
00001000
,
00010000
00000000
00000100
00000000
,
00000010
00000000
00000001
00000000
,
00001000
00000001
00001000
00000000
,
00000001
00000100
00000010
00010000
,
00001000
00000000
00100000
00000000
,
00110000
00000000
11000000
00000000
,
10100000
00000000
01010000
00000000
,
10000000
00100000
00010000
00000000
,
00100000
01000000
00001000
00000000
,
00010000
00001000
00000100
00000000
,
00001000
00000100
00000010
00000000
,
00001000
00000000
00000001
00000000
,
00000010
00000000
00001000
00000000
,
00010000
00000000
00001000
00000000
,
00000100
00000000
00001001
00000000
,
00000001
00000100
00000010
00010000
,
00001000
00000000
01000000
00000000
,
00100000
00000000
10000000
00000000
,
00010000
10000000
00010000
00000000
,
10000000
01000000
00100000
00001000
,
00010000
00000000
00000010
00000000
,
00001010
00000000
00000101
00000000
,
00000011
00000000
00001100
00000000
,
00000001
00000010
00001000
00000000
,
00000010
00000100
00010000
00000000
,
00001000
00010000
01000000
00000000
,
00010000
01000000
00100000
00000000
,
00010000
00000000
10000000
00000000
,
00100000
00000000
00010000
00000000
,
00001000
00000000
00010000
00000000
,
01000000
00000000
00000000
00000000
,
10010000
00000000
00000000
00000000
,
00000000
00000000
00000000
00000000
;
#NOTES:
     dance-double:
     :
     Medium:
     14:
     :
00000000
00000000
00000000
00000000
,
00000000
00000000
00000000
00000000
,
00000000
00000000
00000000
00000000
,
00000000
00000000
00000000
00000000
,
00000000
00000000
00000000
00000000
,
00000001
00000100
00000010
00000000
00001000
00000100
00010000
00000000
,
00001000
00100000
00010000
00000000
00100000
00010000
10000000
00000000
,
10000000
00100000
01000000
00010000
00001000
00000010
00000100
00000001
,
00001000
00000000
00000000
00000000
00100000
01000000
00010000
00000000
,
10000000
01000000
00010000
00000000
00001000
00010000
00100000
00000000
,
00010000
00001000
00000100
00000000
00000001
00000010
00001000
00000000
,
00010000
00001000
00000100
00000000
00001000
00010000
00100000
00000000
,
01000000
00010000
00001000
00000000
00000010
00000010
00000010
00000000
,
00000001
00000100
00010000
00000000
00000100
00000010
00010000
00000000
,
00001000
00010000
01000000
00000000
10000000
01000000
00001000
00000000
,
00010000
00100000
01000000
00000000
10010000
00000000
00000000
00000000
,
00000000
00000000
00000000
00000000
00000001
00000100
00000001
00000100
,
00000010
00001000
00000001
00000000
00000010
00000100
00010000
00000000
,
00001000
00010000
00001000
00000000
00010000
01000000
00010000
01000000
,
10000000
00000000
00010000
00000000
10000000
00000000
00000000
00000000
00100000
00000000
00000000
01000000
00000000
00000000
00100000
00000000
,
00010000
00000000
00000000
00001000
00000000
00000000
00010000
00000000
00001000
00000000
00000010
00000000
00001000
00000000
00000000
00000000
,
00000010
00000001
00001000
00000000
00000001
00000100
00000010
00000000
,
00010000
00001000
00010000
00000000
00010000
01000000
10000000
00000000
,
00010000
01000000
10000000
00000000
01000000
00100000
00010000
00000000
,
00001000
00010000
00001000
00000000
00001000
00000010
00000100
00001000
,
00000010
00000100
00001000
00010000
00100000
01000000
00010000
00100000
,
01000000
00010000
00001000
00000000
00001000
00010000
01000000
00100000
,
00010000
01000000
00100000
00010000
00001000
00000100
00000010
00001000
,
00000100
00000000
00000000
00000010
00000000
00000000
00000001
00000000
00000000
00000000
00000000
00000000
00000001
00000000
00000000
00000000
00000100
00000000
00001000
00000000
00000000
00000000
00000000
00000000
,
00001000
00000000
00010000
00100000
00000000
00000000
00100000
00000000
10000000
01000000
00000000
00000000
,
00010000
00001000
00010000
00001000
00000000
00000000
00000010
00000000
00000010
00000000
00000010
00000000
,
00000100
00000100
00000100
00000110
00000000
00000000
,
00000000
00000000
00000001
00000100
,
00001000
00000100
00000001
00000010
,
00001000
00010000
01000000
10000000
,
00100000
00010000
00100000
10000000
,
01000000
01100000
10000000
01000000
,
00010000
01000000
10000000
00100000
,
00010000
00001000
00000100
00000001
,
00000010
00001000
00000010
00000001
,
00001001
00000000
00000001
00000001
,
00000100
00000100
00001000
00001000
,
00011000
00000000
10000000
10000000
,
01000000
01000000
00010000
00010000
,
00011000
00000000
00000001
00000010
,
00001000
00000000
00010000
00100000
,
10000000
00000000
10000000
01000000
,
00010000
00000000
00000000
00000000
00000110
00000000
10000000
01000000
,
00100000
00000000
00010000
00000000
01000000
00000000
00100000
00000000
00010000
00001000
00010000
00000000
00001000
00000000
00000100
00000000
,
00000010
00001000
00000100
00001001
00000100
00000000
00000001
00000010
,
00000100
00000000
00001000
00000000
00000010
00000000
00000100
00000000
00001000
00001000
00001000
00000000
00010000
00000000
00100000
00000000
,
01100000
00000000
10000000
01000000
00000000
00010000
01000000
00000000
00000000
00000000
10100000
00000000
00000000
00000000
01010000
00000000
,
00000000
00011000
00000000
00001010
00000000
00000101
00000000
00000011
,
00000000
00001100
00000000
00010000
10000000
01000000
00100000
00000000
,
00010000
01000000
00100000
00000000
00010000
00100000
00010000
00000000
,
00001000
00000100
00001000
00000000
00000100
00000001
00000010
00000001
,
00000010
00000100
00010000
00000100
00010000
00000000
00000000
00000000
,
00000000
00000000
00000000
00000000
00100000
10000000
01000000
00000000
,
00010000
01000000
00010000
00000000
00001000
00010000
00001000
00000000
,
00000010
00000000
00000001
00000000
00000100
00000001
00001000
00000000
,
00000100
00000010
00001000
00000000
00010000
00001000
00010000
00000000
,
01000000
00000000
10000000
00000000
00100000
10000000
01000000
00000000
,
00010000
00001000
00010000
00000000
00001000
00000100
00000010
00000000
,
00001000
00000000
00000001
00000000
00000100
00000001
00000010
00001000
,
00010000
00100000
00010000
00001000
00000100
00000010
00001000
00010000
,
00001000
00000010
00000100
00000000
00000100
00000001
00000010
00000000
,
00001000
00000010
00001000
00000000
00010000
00001000
00010000
00000000
,
01000000
00000000
10000000
00000000
00100000
10000000
00010000
00000000
,
00100000
01000000
00010000
00000000
00001000
00010000
00001000
00000000
,
00000010
00000000
00000001
00000000
00000100
00000001
00000010
00000000
,
00001000
00010000
00001000
00000000
00010000
00100000
01000000
00000000
,
00010000
00000000
10000000
00000000
00100000
10000000
01000000
00010000
,
00001000
00000100
00001000
00010000
00100000
01000000
00010000
00001000
,
00010000
01000000
00100000
00000000
00110000
00000000
10000000
00000000
,
00110000
00001000
00010100
00000010
,
00000101
00001000
00000011
00001010
,
00011000
01010000
22000000
33000000
,
00100000
00010000
00001000
00000100
,
00000010
00000010
00001001
00000000
,
00000010
00001000
00100000
00001000
,
00000010
00001000
00100000
00000000
,
01000000
00001000
00000100
00001000
,
01000000
00001000
00000100
00000000
,
00000010
00000100
00001000
01000000
,
00100000
00010000
00001000
00000000
,
00011000
00000000
00110000
00000000
,
00011000
00000000
00001100
00000000
,
00000010
00000001
00000100
00001000
,
00010000
00000000
00000000
01100000
00000000
00000000
10000000
00000000
,
01000000
00000000
00010000
00000000
00001000
00000000
00000000
00000110
,
00000000
00000001
00001000
00000000
,
00000001
00000010
00001000
00010000
,
01000000
10000000
00100000
00010000
,
00001000
00010000
01000000
00100000
,
00001000
00010000
00001000
00000000
,
00100000
00010000
00000010
00010000
,
00100000
00010000
00000010
00000000
,
00000100
00010000
01000000
00010000
,
00000100
00010000
01000000
00000000
,
00100000
01000000
00010000
00000100
,
00000010
00001000
00010000
00000000
,
00011000
00000000
00001010
00000000
,
00011000
00000000
01010000
00000000
,
00100000
10000000
01000000
00010000
,
00001000
00000000
00000000
00000110
00000000
00000000
00000001
00000000
,
00000100
00000000
00001000
00000000
00010000
00000000
00000000
01100000
,
00000000
10000000
00010000
00000000
,
10000000
00100000
00010000
00001000
,
00000100
00000001
00000010
00001000
,
00010000
00001000
00000100
00000010
,
00010000
00001000
00010000
00000100
,
00000001
00000000
00000000
00000000
,
00000000
00000000
00000000
00000000
;
#NOTES:
     dance-double:
     :
     Hard:
     18:
     :
00000000
00000000
00000000
00000000
,
00000000
00000000
00000000
00000000
,
00000000
00000000
00000000
00000000
,
00000000
00000000
00000000
00000000
,
00000000
00000000
00000000
00000000
,
00001000
00000000
00000010
00000100
00000000
00000110
00000000
00010000
,
00011000
00000000
00000000
00000000
00010000
00000000
00000000
01000000
00000000
00000000
01100000
00000000
00000000
00000000
11000000
00000000
,
10000000
00100000
00010000
00001000
00000100
00000001
00001000
00000000
,
00001001
00000000
00000000
00000000
10000000
01000000
00010000
01000000
,
10000000
01000000
00010000
00000000
00001000
00010000
00100000
00010000
,
00001000
00010000
00100000
00000000
00010000
00001000
00000100
00000010
,
00010000
00001000
00000100
00000000
00000001
00000010
00001000
00000010
,
00000001
00000010
00001000
00000000
00000011
00000011
00000011
00000000
,
00000001
00000100
00001000
00000000
00001000
00010000
01000000
00010000
,
00001000
00010000
01000000
00000000
10000000
00100000
00010000
00000000
,
00001000
00010000
00001000
00000000
00011000
00000000
00000000
00000000
,
00000000
00000000
00000000
00000000
00010000
01000000
10000000
00100000
,
01000000
00001000
00000100
00000010
00010000
00001000
00000010
00001000
,
00100000
00010000
00000010
00000001
00000100
00000010
00010000
00001000
,
00000100
00000000
00001000
00000000
01000000
00000000
00010000
00000000
00100000
00000000
00000000
00100000
00000000
00000000
10000000
00000000
,
01000000
00000000
00000000
01000000
00000000
00000000
00010000
00000000
00100000
00000000
00001000
00000000
00011000
00000000
00000000
00000000
,
00000100
00000001
00000010
00010000
00100000
00001000
00000010
00000100
,
00010000
00001000
00010000
00010000
00001000
00010000
00000100
00010000
,
01000000
10000000
00100000
00010000
00001000
00000100
00000001
00000010
,
00001000
00010000
00001000
00000000
00010000
01000000
10000000
00100000
,
00010000
00000010
00001000
00000010
00010000
00001000
00000010
00000001
,
00000100
00010000
00001000
00000010
00000001
00000010
00001000
00000100
,
00000010
00001000
00010000
01000000
10000000
00100000
01000000
00001000
,
00000100
00000000
00000000
00000010
00000000
00000000
00001000
00000000
00000000
00000001
00000000
00000000
00000100
00000000
00000000
00000000
00000100
00000000
00001000
00000000
00000000
00000000
00001000
00000000
,
00010000
00000000
00010000
01000000
00000000
01000000
10000000
00000000
10000000
00010000
00000000
00010000
,
10000000
00010000
10000000
00010000
00000000
00010000
00001000
00000000
00000001
00000000
00001000
00000000
,
00010000
10000000
00010000
00011000
00000000
00000000
,
00000000
00000000
10000000
00100000
,
01000000
00000000
00001000
00000000
00100000
00001000
00011000
00000000
,
00000010
00010000
00011000
00000000
00000010
00000000
00000001
00000000
,
00000100
00000000
00001000
00000000
01000000
00001000
00011000
00000000
,
00000100
00010000
00011000
00000000
00100000
00000000
10000000
00000000
,
01000000
01000000
00010000
00000100
,
00001000
00001000
00000001
00000100
,
00000010
00000010
00001000
00100000
,
00010000
00000000
00011000
00000000
01000000
00100000
10000000
00000000
,
01010000
00000000
00000000
00000000
00100000
01000000
00010000
00000000
,
00101000
00000000
00000000
00000000
00010000
00000100
00001000
00000000
,
00010010
00000000
00000000
00000000
00000100
00000010
00001000
00000000
,
00000011
00000000
00000000
00000000
00000001
00000100
00001000
00000000
,
00010000
00100000
10000000
00000000
10000000
01000000
00010000
00000000
,
00001000
00000010
00000001
00000000
00000001
00000100
00001000
00000100
,
00010000
01000000
00100000
01000000
10000000
01000000
10000000
10100000
,
00110000
00000000
00011000
00000000
00001100
00000000
00000101
00000000
00001001
00000000
00000100
00000000
00000001
00001000
00010000
00000000
,
00010000
00001000
00000001
00000000
00000020
00000000
00000130
00000000
00001001
00000000
00000001
00000000
00000010
00000000
00001010
00000000
,
00011000
00000000
01010000
00000000
11000000
00000000
10010000
00000000
10000000
10000000
00010000
00000000
00001000
00010000
10000000
00000000
,
10000000
10000000
00010000
00001000
00001000
00010000
00001000
00000000
00000001
00000000
00000011
00000000
00000000
00000000
00001100
00000000
,
00000000
00110000
00000000
11000000
00000000
10100000
00000000
01010000
,
00000000
00001010
00000000
00000101
00000010
00001000
00100000
00000000
,
01000000
00001000
00000100
00000000
00000010
00010000
00100000
00000000
,
01000000
00010000
00000100
00000000
00000001
00000010
00000100
00001000
,
00010000
00100000
01000000
10000000
00010000
00000000
00000000
00000000
,
00000000
00000000
00000000
00000000
00010000
10000000
00100000
00010000
,
00001000
00010000
01000000
00010000
00001000
00000010
00000100
00010000
,
00000100
00001000
00000001
00000000
00000100
00001000
01000000
00010000
,
00100000
00001000
00000010
00001000
00010000
00100000
00001000
00000010
,
00010000
00000100
00001000
00000000
00000001
00000010
00001000
00010000
,
00001000
00000100
00010000
01000000
00100000
10000000
00010000
00100000
,
00001000
00010000
01000000
00000000
10000000
00100000
00001000
00000010
,
00010000
00001000
00000010
00001000
00010000
01000000
00100000
00001000
,
00000010
00000100
00001000
00000000
00001000
00000001
00000100
00001000
,
00010000
00001000
00000010
00001000
00010000
01000000
00100000
00001000
,
00100000
00010000
10000000
00000000
00100000
00010000
00000010
00001000
,
00000100
00010000
01000000
00010000
00001000
00000100
00010000
01000000
,
00001000
00100000
00010000
00000000
10000000
01000000
00010000
00001000
,
00010000
00100000
00001000
00000010
00000100
00000001
00001000
00000100
,
00010000
00001000
00000010
00000000
00000001
00000100
00010000
01000000
,
00001000
00010000
01000000
00010000
00001000
00000010
00000100
00010000
,
01000000
00100000
00010000
00000000
11000000
00000000
00110000
00000000
,
00001100
00000011
00000101
00001010
,
01010000
00000000
10100000
00000000
10000000
00100000
00010000
00000000
,
00001000
00000010
00000001
00000000
00001001
00000000
00000000
00000000
,
00000001
00001000
00010000
10000000
,
00100000
00100000
10010000
01000000
,
10000000
01000000
00100000
00000000
00010000
00001000
00000100
00000000
,
00000010
00000001
00000100
00000000
00000010
00001000
00010000
00000000
,
01000000
00100000
10000000
00100000
01000000
00000000
00001000
00010000
,
00000100
00000010
00000110
00000000
,
00000001
00000100
00000010
00000000
00001000
00010000
01000000
00000000
,
00100000
10000000
01000000
00000000
00100000
00010000
00001000
00000000
,
00000100
00000000
00000000
00000010
00000000
00000000
00000001
00000000
,
00001000
00000010
00001000
00000000
,
00000001
00000000
00000100
00000000
00001000
00010000
00100000
00000000
,
01100000
00000000
00000000
10100000
00000000
10000000
01000000
00000000
,
00100000
00001000
00010000
00000010
00001000
00000000
00000000
00000110
,
00000000
00010000
00001000
00100000
,
00010000
01000000
00001000
00000100
,
00000010
00010000
00100000
00001000
,
00000010
00010000
00001000
00010000
,
01000000
10000000
10010000
00000000
,
10000000
00100000
01000000
00000000
00010000
00001000
00000010
00000000
,
00000100
00000001
00000010
00000000
00000100
00001000
00010000
00000000
,
00100000
01000000
10000000
01000000
00100000
00000000
00001000
00010000
,
00000010
00000100
00000110
00000000
,
00000001
00000010
00000100
00000000
00001000
00010000
00100000
00000000
,
01000000
10000000
00100000
00000000
01000000
00010000
00001000
00000000
,
00000010
00000000
00000000
00000100
00000000
00000000
00000001
00000000
,
00001000
00000100
00001000
00000000
,
00000001
00000000
00000010
00000000
00001000
00010000
01000000
00000000
,
01100000
00000000
00000000
11000000
00000000
10000000
00100000
00000000
,
01000000
00001000
00010000
00000100
00001000
00000000
00000000
00000110
,
00000000
00010000
00001000
01000000
,
00010000
00100000
00001000
00000010
,
00000100
00010000
01000000
00001000
,
00000100
00010000
01000000
00010000
,
00001000
00100000
00010000
00001000
,
00000100
00000000
00000000
00000000
,
00000000
00000000
00000000
00000000
;
#NOTES:
     dance-double:
     :
     Challenge:
     18:
     :
00000000
00000000
00000000
00000000
,
00000000
00000000
00000000
00000000
,
00000000
00000000
00000000
00000000
,
00000000
00000000
00000000
00000000
,
00000000
00000000
00000000
00000000
,
10000000
00100000
01000000
00010000
,
00100000
00000000
00000000
00000000
00011000
00000000
00010000
00000100
00000000
00000100
00001000
00000000
00000010
00000000
00000100
00000000
,
00000001
00000010
00000100
00010000
00001000
00100000
01000000
10000000
,
10010000
00000000
01000000
00100000
02000000
00000000
03000000
00000000
10000000
00000000
00000000
00000000
10000000
00000000
00000000
00000000
,
00100000
00100000
00010000
00010000
,
00001000
00001000
00000100
00000100
,
00000001
00000001
00000010
00000010
,
00001000
00000000
00001000
00000000
00010000
00001000
00010000
00000000
,
01000000
02000000
10000000
23000000
,
00100000
00000000
30200000
00000000
00310000
00001000
00010000
00000100
,
00001000
00000100
00001000
00000100
00000010
00000001
00000010
00000001
00001000
00000000
00000000
00000000
00000010
00000000
00000100
00000000
,
00000220
00000000
00000000
00000000
00000330
00000000
00000000
00000000
00000001
00000010
00000100
00000000
00001000
00000000
00000010
00000000
,
00000100
00000010
00001000
00000000
00000100
00000000
00010000
00000000
00001000
00100000
00010000
00000000
01000000
00000000
00100000
00000000
,
10000000
00000000
01000000
00000000
01100000
00000000
00000000
00000000
10000000
00100000
01000000
00000000
00010000
00000000
00100000
00000000
,
00001000
00010000
00001000
00000000
00010000
00000000
00000010
00000000
00001000
00000000
00000010
00000100
00000000
00000000
00000110
00000000
,
00000010
00000000
00001000
00000001
00000000
00000000
00001001
00000000
00000100
00000000
00000100
00000000
00000100
00000000
00000000
00000000
,
00000001
00000010
00000001
00000000
00001000
00000000
00000010
00000000
00010000
00000100
00010000
00000000
00001000
00000000
00100000
00000000
,
00010000
01000000
00010000
00000000
01000000
00000000
00100000
00000000
10000000
00000000
01000000
00000000
01100000
00000000
00001000
00000000
,
00011000
00010000
00010100
00000100
00001100
00001000
00001010
00000010
,
00000110
00000000
00000100
00000000
00000001
00000010
00000100
00001000
00000001
00000100
00000001
00000000
00000010
00000000
00000100
00000000
,
00010000
00001000
00010000
00000000
00001000
00000000
00100000
00000000
00010000
00000000
10000000
00000000
01000000
00000000
10000000
00100000
,
00000000
00100000
00010000
00000000
00001000
00000000
00010000
00000000
00001000
00010000
00001000
00000000
00000100
00000000
00000010
00000000
,
00000100
00000001
00000100
00000000
00000001
00000000
00001000
00000000
00000010
00000000
00000001
00000000
00000010
00000000
00001000
00000100
,
00000000
00000000
00000000
00000100
00000000
00000000
00000010
00000000
00000000
00000000
00000000
00000000
00001000
00000000
00000000
00010000
00000000
00000000
00001000
00000000
00000000
00000000
00000000
00000000
00010000
00000000
00000000
00000000
00000000
00000000
00000000
00000000
00001000
00000000
00000000
00000000
00100000
00000000
00000000
00000000
00000000
00000000
00000000
00000000
00010000
00000000
00000000
00000000
,
10000000
00000000
00100000
01000000
00000000
00010000
01000000
00000000
00001000
00010000
00000000
00000100
,
00001000
00000100
00000010
00000100
00000000
00000000
00000101
00000000
00000100
00000000
00010000
00000000
,
00011000
00001000
00100000
10200000
00000000
00000000
,
01300000
00000000
02000000
10000000
,
00100000
00000000
00000000
00000000
00010000
00000000
00000000
00000000
03001000
00000000
00000100
00000000
00000010
00000000
00000001
00000100
,
00000000
00000100
00001000
00000000
00000100
00000000
00000000
00000000
00000020
00000000
00000000
00000000
00000001
00000000
00000000
00000000
,
00000100
00000000
00000000
00000000
00001000
00000000
00000000
00000000
00010030
00000000
00100000
00000000
10000000
00000000
01000000
00010000
,
00000000
00010000
01000000
00000000
00100000
00000000
00000000
00000000
00010000
00000000
10000000
00000000
00100000
00000000
00100000
00000000
,
01000000
00000000
00100000
00000000
00010000
00000000
00010000
00000000
00001000
00000000
00000100
00000000
00000001
00000000
00000010
00000100
,
00000000
00000100
00010000
00000000
00001000
00000000
00000010
00000000
00000001
00000000
00000010
00000000
00000001
00000000
00000010
00000000
,
00000100
00000000
00001000
00000000
00000100
00000000
00001000
00000000
00000001
00000100
00000001
00001000
00000010
00010000
00001000
00010000
,
00001000
00100000
00010000
00100000
01000000
10000000
01000000
10000000
00100000
00000000
00000000
00000000
10010000
00000000
00000000
00000000
,
10000000
01000000
00100000
01000000
10000000
01000000
00100000
01000000
00100000
00001000
00010000
00001000
00100000
00001000
00010000
00001000
,
00100000
00001000
00010000
00001000
00100000
00001000
00010000
00001000
00010000
00000000
00000100
00000000
00001000
00000000
00000000
00000000
,
00000001
00000010
00000100
00000010
00000001
00000010
00000100
00000010
00000100
00010000
00001000
00010000
00000100
00010000
00001000
00010000
,
00000100
00010000
00001000
00010000
00000100
00010000
00001000
00010000
00000100
00000000
00010000
00000000
00011000
00000000
00000000
00000000
,
00001000
01000000
01010000
00000000
00100000
10000000
11000000
00000000
,
00100000
00000000
00010000
00000000
01010000
00000000
00000000
00000000
10000000
01000000
10000000
01000000
00100000
00010000
00100000
00001000
,
00010000
00001000
00010000
00000100
00001000
00000100
00001000
00000100
00000010
00000000
00000000
10000000
11000000
00000000
01010000
00000000
,
00101000
00000000
00000000
00000000
00010100
00000000
00000000
00000000
00001010
00000000
00000000
00000000
00000110
00000000
00000000
00000000
00000001
00000000
00000001
00000000
00000001
00000000
00000000
00000000
00000010
00000100
00000010
00000100
00000010
00000000
00001000
00000000
,
00010000
00001000
01000000
00000000
00100000
00000000
10010000
00000000
01000000
00000000
00000000
00100000
10100000
00000000
01010000
00000000
,
00011000
00000000
00000000
00000000
00001010
00000000
00000000
00000000
00000101
00000000
00000000
00000000
00000110
00000000
00000000
00000000
00000001
00000000
00000001
00000010
00000001
00000000
00000000
00000000
00000100
00000000
00000000
00000000
00000010
00000000
00000000
00000000
,
00010000
00000000
00001000
00000000
00010000
00000000
00001000
00100000
00010000
00100000
01000000
00000000
01100000
00000000
00000000
00000000
00020000
00000000
00000000
00000000
00100000
00000000
00000000
00000000
00000000
00000000
00000000
00000000
10000000
00000000
00000000
00000000
,
00000000
01000000
00000000
00130000
00002000
00000100
00000000
00000010
,
00000000
00000001
00000000
00003100
00000001
00000000
00000100
00000000
,
00000010
00000000
00000000
00000000
00001000
00000000
00000000
00000000
00000100
00000000
00000000
00000000
00011000
00000000
00001000
00100000
,
00000000
00100000
00010000
00000000
01000000
00000000
00100000
00000000
10000000
00000000
01000000
00000000
00100000
00000000
00001000
00000000
,
00010000
00000100
00000010
00000001
00001001
00000000
00000010
00000100
,
00000010
00000000
00000010
00000000
00001000
00000010
00000100
00000001
00000010
00000000
00000100
00000000
00001000
00000000
00000010
00000000
,
00000100
00000000
00010000
00000000
00000100
00000000
00001000
00000000
00010000
00000000
00100000
00000000
01000000
00000000
00001000
00100000
,
00000000
00100000
00010000
00000000
10000000
00000000
00100000
00000000
10000000
00000000
01000000
00000000
00010000
00000000
01000000
00000000
,
00100000
00000000
00001000
00000000
00010000
00000000
00000100
00000000
00000010
00000000
00001000
00000000
00000010
00000000
00000001
00000100
,
00000000
00000100
00001000
00000000
00000100
00000000
00000010
00000000
00001000
00000000
00001000
00000000
00001001
00000000
00000000
00000000
,
00000010
00000000
00000100
00000000
00010000
00000000
00000100
00000000
00000010
00000000
00001000
00000000
00000100
00000000
00000010
00001000
,
00000000
00001000
00010000
00000000
01000000
00000000
00100000
00000000
00010000
00100000
01000000
00000000
10000000
00000000
00100000
00000000
,
01000000
00100000
10000000
00000000
01000000
00000000
00100000
00000000
01000000
10000000
00100000
01000000
00010000
00100000
00001000
00010000
,
00000100
00001000
00000100
00000010
00000001
00000100
00000010
00001000
00000001
00000000
00000010
00000000
00000110
00000000
00000000
00000000
,
00001000
00000000
00000010
00000000
00000110
00000000
00000000
00000000
00000001
00000000
00000100
00000000
00001000
00000000
00010000
00100000
,
00000000
00100000
10000000
00000000
10010000
00000000
00000000
00000000
10000000
00000000
01000000
00000000
01100000
00000000
00000000
00000000
,
00010000
00000000
01000000
00000000
01100000
00000000
00000000
00000000
10000000
01000000
00100000
00010000
00100000
00001000
00010000
00001000
,
00010000
00001000
00010000
00000100
00001000
00000100
00000010
00000001
00001000
00000000
00000010
00000000
00000001
00000000
00000010
00000000
,
00001000
00000100
00000001
00000100
00010000
01000000
10000000
00100000
,
00010000
00000000
00100000
00000000
00001000
00000000
00000010
00000000
00000100
00000001
00000010
00000000
00000100
00001000
00000010
00000000
,
00000100
00000001
00001000
00000010
00010000
00001000
00100000
00010000
10000000
00000000
00000000
00000000
00100000
00000000
01000000
00000000
,
00200000
00000000
00000000
00000000
01300000
00000000
00000000
00000000
10010000
00000000
00000000
00000000
00100000
10000000
01000000
00100000
,
00010000
00000000
00000000
00000000
00001000
00000100
00000010
00000001
00000100
00000000
00000000
00000000
00000010
00010000
00001000
01000000
,
00010000
00000000
00000000
00000000
00100000
00001000
00010000
00000100
00001000
00000000
00000010
00000000
00000100
00000000
00001000
00000000
,
00010000
00100000
00010000
00001000
00010000
00000000
00000000
00000000
,
00000001
00000000
00000010
00000100
00000010
00000000
00001000
00010000
00001000
00010000
00000000
00010000
01000000
00000000
10000000
00000000
,
00100000
00100000
10010000
01000000
,
10000000
00100000
01000000
00010000
00100000
01000000
00010000
00001000
,
00010000
00000100
00001000
00000100
00000010
00000001
00000100
00000010
,
00001000
00000100
00000010
00000100
00001000
00000001
00001000
00000001
,
00001000
00000010
00001001
00000000
,
00000001
00000100
00000010
00001000
00000001
00000010
00000100
00010000
,
00001000
00100000
00010000
10000000
01000000
00100000
01000000
10000000
,
01000000
00000000
00000000
01100000
00000000
00000000
10010000
00000000
,
10000000
01000000
00100000
00000000
10010000
00000000
00000000
00000000
,
10000000
01000000
00100000
00001000
00010000
00000100
00001000
00000100
,
00010000
00000000
00001000
00010000
00000000
00010000
00001000
00000100
,
00000001
00000010
00000100
00001000
00000001
00000000
00000000
00000110
,
00000000
00001000
00000100
00000010
,
00000001
00000010
00001000
00000010
,
00000100
00010000
01000000
10000000
,
00100000
00010000
00001000
00010000
,
00001000
00000010
00000001
00000000
,
00000001
00000100
00000010
00001000
00000100
00000010
00001000
00010000
,
00001000
00100000
00010000
00100000
01000000
10000000
00100000
01000000
,
00010000
00100000
10000000
00100000
00010000
10000000
00010000
10000000
,
00010000
01000000
10010000
00000000
,
10000000
00100000
01000000
00010000
10000000
01000000
00100000
00001000
,
00010000
00000100
00001000
00000001
00000010
00001000
00000010
00000001
,
00000010
00000000
00000000
00000110
00000000
00000000
00001001
00000000
,
00000001
00000010
00000100
00000000
00001001
00000000
00000000
00000000
,
00000001
00000010
00000100
00010000
00001000
00100000
01000000
00100000
,
00001000
00000000
00010000
00001000
00000000
00001000
00010000
00100000
,
10000000
01000000
00100000
00010000
10000000
00000000
00000000
01100000
,
00000000
00010000
00100000
01000000
,
10000000
01000000
00010000
00010000
,
00001000
00000010
00000001
00000001
,
00000100
00000001
00001000
00000010
00010000
00001000
00100000
00010000
,
10000000
01000000
00010000
00001000
00000100
00000001
00001000
00000000
,
00000110
00000000
00000000
00000000
,
00000000
00000000
00000000
00000000
;
