
//----- song ID: afda -----//
#TITLE:Afterimage d'automne;
#ARTIST:BEMANI Sound Team "猫叉劇団";
#ARTISTTRANSLIT:BEMANI Sound Team "Nekomata Gekidan";
#BANNER:Afterimage d'automne.png;
#BACKGROUND:Afterimage d'automne-bg.png;
#CDTITLE:./CDTitles/DDR A20.png;
#MUSIC:Afterimage d'automne.ogg;
#SAMPLESTART:53.499;
#SAMPLELENGTH:15;
#BPMS:0=232;
#NOTES:
     dance-single:
     :
     Beginner:
     4:
     :
0000
0000
0000
0000
,
0000
0000
0000
0000
,
0000
0000
0000
0000
,
0000
0000
0000
0000
,
0000
0000
0000
0000
,
0000
0000
0000
0000
,
0000
0000
0000
0000
,
0000
0000
0001
0000
,
0000
0000
0000
0000
,
0010
0000
0000
0000
,
0000
0000
0001
0000
,
0000
0000
0000
0000
,
0200
0000
0000
0000
,
0000
0000
0300
0000
,
0000
0000
0000
0000
,
1000
0000
0000
0000
,
0000
0000
1000
0000
,
0000
0000
0000
0000
,
0010
0000
0000
0010
,
0000
0000
1000
0000
,
0000
0000
0000
0000
,
0100
0000
0000
0000
,
0000
0000
0100
0000
,
0000
0000
0000
0000
,
1000
0000
0000
0100
,
0000
0000
0001
0000
,
0000
0000
0000
0000
,
0001
0000
0000
0000
,
0000
0000
0010
0000
,
0000
0000
0000
0000
,
0001
0000
0000
0010
,
0000
0000
0001
0000
,
0000
0010
0000
0000
,
1000
0000
0000
0000
,
0000
0000
0010
0000
,
0000
0000
0000
0000
,
1000
0000
0000
0010
,
0000
0000
1000
0000
,
0000
0010
0000
0000
,
0001
0000
0000
0001
,
0000
0000
0001
0000
,
0000
0000
0000
0000
,
0100
0000
0000
0100
,
0000
0000
0100
0000
,
0000
0000
0000
0000
,
0010
0000
0000
1000
,
0000
0000
0010
0000
,
0000
0000
0000
0000
,
1000
0000
0000
1000
,
0000
0000
0000
0000
,
2002
0000
0000
0000
,
3003
0000
0000
0000
,
0001
0000
0000
0010
,
0000
0000
0001
0000
,
0000
0100
0000
0000
,
1000
0000
0000
0010
,
0000
0000
1000
0000
,
0000
0100
0000
0000
,
0010
0000
0000
1000
,
0000
0000
0100
0000
,
0000
0001
0000
0000
,
0010
0000
0000
0001
,
0000
0000
0100
0000
,
0000
0000
0000
0000
,
1001
0000
0000
0000
,
0000
0000
1001
0000
,
0000
0000
0000
0000
,
1001
0000
0000
0000
,
0000
0000
0010
0000
,
0000
0001
0000
0000
,
0010
0000
0000
1000
,
0000
0000
0100
0000
,
0000
1000
0000
0000
,
0010
0000
0000
0000
,
0000
0000
0002
0000
,
0000
0003
0000
0000
,
2000
0000
0000
3000
,
0000
0000
0002
0000
,
0000
0003
0000
0000
,
2000
0000
0000
3000
,
0000
0000
0020
0000
,
0000
0030
0000
0000
,
0200
0000
0000
0300
,
0000
0000
0020
0000
,
0000
0030
0000
0000
,
0200
0000
0000
0300
,
0000
0000
0001
0000
,
0000
0010
0000
0000
,
1000
0000
0000
0100
,
0000
0000
1000
0000
,
0000
0010
0000
0000
,
0001
0000
0000
0100
,
0000
0000
1000
0000
,
0000
0010
0000
0000
,
0001
0000
0000
0100
,
0000
0000
0001
0000
,
0000
0010
0000
0000
,
1000
0000
0000
0100
,
0000
0000
1000
0000
,
0000
0001
0000
0000
,
1001
0000
0000
0000
,
0000
0000
0010
0000
,
0010
0010
0000
0010
,
0020
0000
0000
0030
,
0000
0000
0100
0000
,
0100
0100
0000
0100
,
0200
0000
0000
0300
,
0000
0000
0001
0000
,
0000
1000
0000
0000
,
1001
0000
0000
1001
,
0000
0000
0000
0000
;
#NOTES:
     dance-single:
     :
     Easy:
     8:
     :
0000
0000
0000
0000
,
0000
0000
0000
0000
,
0000
0000
0000
0000
,
0000
0000
0000
0000
,
0000
0000
0000
0000
,
0000
0000
0000
0000
,
0000
0000
0000
0000
,
0000
0000
0001
0000
,
0000
0100
0000
0000
,
1000
0000
0000
0100
,
0000
0000
0001
0000
,
0000
1000
0000
0000
,
2002
0000
0000
0000
,
0000
0000
3003
0000
,
0000
0000
0000
0000
,
1000
0000
0010
0100
,
0000
0010
1000
0000
,
0001
0010
0000
0001
,
0100
0000
0010
1000
,
0000
0000
1001
0000
,
0000
0110
0000
0000
,
0001
0000
0100
0010
,
0000
0100
0001
0000
,
1000
0100
0000
1000
,
0010
0000
0100
0001
,
0000
0000
1001
0000
,
0000
0110
0000
0000
,
0001
1000
0001
1000
,
0000
0000
1000
0001
,
1000
0001
0000
0000
,
0010
0100
0010
0100
,
0000
0000
0110
0000
,
0000
1001
0000
0000
,
0001
0010
0001
0010
,
0000
0000
0010
0001
,
0010
0001
0000
0000
,
1000
0100
1000
0100
,
0000
0000
0110
0000
,
0000
1001
0000
0000
,
0001
0000
0000
1000
,
0000
0000
1001
0000
,
0000
0000
0000
0000
,
0010
0000
0000
0100
,
0000
0000
0110
0000
,
0000
0000
0000
0000
,
1000
0000
0000
0001
,
0000
0000
1001
0000
,
0000
0000
0000
0000
,
0100
0000
0000
0010
,
0000
0000
0000
0000
,
0220
0000
0000
0000
,
0000
0000
0330
0000
,
2000
0000
3000
0200
,
0000
0300
0010
0001
,
0010
0001
0000
0000
,
0200
0000
0300
0002
,
0000
0003
1000
0010
,
1000
0010
0000
0000
,
2000
0000
3000
0002
,
0000
0003
0100
0010
,
0100
0010
0000
0000
,
1000
0001
1000
0100
,
0010
0100
0010
0000
,
0010
0001
0000
0001
,
0100
0000
0100
0010
,
0000
0010
1000
0000
,
1000
0100
0000
0100
,
0010
0000
0010
0001
,
0000
0000
1000
0001
,
1000
0001
0000
0000
,
1001
0000
0000
0110
,
0000
0000
0010
1000
,
0100
0010
0000
0000
,
0110
0000
0000
0000
,
0000
0000
0002
0000
,
0000
0100
0000
0000
,
0100
0000
0000
0103
,
0000
0000
2000
0000
,
0000
0100
0000
0000
,
0100
0000
0000
3100
,
0000
0000
0002
0000
,
0000
0010
0000
0000
,
0010
0000
0000
0013
,
0000
0000
2000
0000
,
0000
0010
0000
0000
,
3010
0000
0000
0010
,
0010
0010
1000
0100
,
0010
0001
0000
0000
,
0001
0100
0010
1000
,
0000
0000
0010
1000
,
0100
0010
0001
0100
,
0020
0000
0030
0200
,
0000
0300
0001
0010
,
0001
1000
0010
1000
,
0001
1000
0100
0020
,
0000
0030
0001
0000
,
1000
0100
0000
0001
,
0100
0000
0000
0110
,
0000
0000
0001
0000
,
0000
1001
0000
0000
,
0110
0000
0000
1001
,
0000
0000
1000
0100
,
1000
1100
0000
0000
,
0001
0010
0001
0011
,
0000
0000
0100
0001
,
0100
0101
0000
0000
,
0010
1000
0010
1010
,
0000
0000
0100
0000
,
0001
1000
0000
0100
,
0010
0000
0000
0100
0000
0000
0010
0000
,
0000
0220
0000
0000
0000
0000
0000
0000
,
0000
0000
0000
0000
,
0000
0000
0000
0000
,
0000
0000
0330
0000
,
0000
0000
0000
0000
;
#NOTES:
     dance-single:
     :
     Medium:
     11:
     :
0000
0000
0000
0000
,
0000
0000
0000
0000
,
0000
0000
0000
0000
,
0000
0000
0000
0000
,
0000
0000
0000
0000
,
0000
0000
0000
0000
,
0000
0000
0000
0000
,
0000
0000
0002
0000
,
0000
2003
0000
0000
,
3002
0000
0000
2003
,
0000
0000
3020
0000
,
0000
0230
0000
0000
,
0020
0000
0000
0000
,
0000
0000
0330
0000
,
0000
0000
0000
0000
,
1000
1000
0010
1000
,
0100
0010
0001
0010
,
0001
0100
0001
0100
,
0010
0010
1000
0010
,
0100
0000
0000
0010
0000
0000
1000
0000
0100
0000
0000
0000
,
0100
0000
0000
0001
0000
0100
0000
0000
0000
0100
0000
0000
,
0001
0001
0100
0001
,
0010
0100
1000
0100
,
1000
0010
1000
0010
,
0100
0100
0001
0100
,
0010
0000
0000
0100
0000
0000
0010
0000
0000
0000
0000
0001
,
0000
0000
0000
0100
0000
0000
0000
0000
1000
0000
0000
0000
,
0010
1000
0010
0100
,
0000
0100
0001
0010
,
0100
0000
0000
0010
0000
0000
0001
0000
1000
0001
0000
0000
,
1000
1000
0100
0010
,
0100
0000
1000
0000
0010
0000
0000
0010
,
0000
0000
0100
0000
0000
0100
0000
0000
,
0100
0001
0100
0010
,
0000
0010
1000
0100
,
0010
0000
0000
0100
0000
0000
1000
0000
0001
1000
0000
0000
,
0001
0001
0010
0100
,
0010
0000
0001
0000
0100
0000
0000
0100
,
0000
0000
0010
0000
0000
0010
0000
0000
,
1000
0000
0000
0001
0000
0000
2002
0000
,
0000
0003
0000
0001
,
0001
0100
0100
3000
,
0001
0000
0000
1000
0000
0000
1001
0000
,
0000
0000
0220
0000
,
0000
0000
0000
0330
,
0010
0000
0000
0100
0000
0000
0220
0000
,
0000
0030
0010
0000
,
0010
1000
0000
1000
,
0301
0000
0000
0100
0000
0000
0220
0000
,
0000
0000
0030
0000
,
0310
0000
0000
0000
0000
0000
0000
0000
0010
0000
0000
0010
,
0000
0000
0000
0000
,
0001
0100
1000
1000
,
0100
0001
0010
0100
,
0010
0000
0100
0000
0000
0110
0000
0000
,
1000
0100
0001
0001
,
0100
0000
0000
1000
0000
0000
0001
0000
0010
0000
0000
0000
,
0010
0100
0100
0100
,
1000
0010
0001
0001
,
0010
1000
0100
0010
,
0100
0000
0010
0000
0000
0110
0000
0000
,
0001
0010
1000
1000
,
0010
0001
0002
0000
,
1003
0010
0100
1000
,
0100
0010
1000
0100
,
0001
0100
0010
0000
,
0001
0100
0000
1000
,
0010
0000
0001
0100
,
0000
1000
0020
0000
,
0000
2030
0000
0000
,
3200
0000
0000
0302
,
0000
0000
0203
0000
,
0000
0320
0000
0000
,
0031
0000
0000
1000
,
1000
0000
0000
1000
0000
0000
0001
0000
0100
0000
0000
0001
,
0000
0000
0000
0010
0000
0001
0000
0000
0010
0000
0000
0000
,
0100
0000
1000
0000
0000
0100
0000
0000
0000
1000
0000
0010
,
0000
0000
1000
0000
0000
0000
0010
0000
0100
0000
0000
0010
,
0000
0000
0000
1000
0000
0001
0000
0000
1000
0000
0000
0000
,
0100
0000
0010
0000
0000
0100
0000
0000
0000
1000
0000
0000
,
0000
0000
0000
0000
0000
0000
0001
0000
0100
0000
0000
0010
,
0000
0000
0000
1000
0000
0100
0000
0000
0010
0000
0000
0000
,
0001
0000
0100
0000
0000
0010
0000
0000
0000
1000
0000
0100
,
0000
0000
0010
0000
0000
0000
0001
0000
0010
0000
0000
0100
,
0000
0000
0000
1000
0000
0010
0000
0000
0100
0000
0000
0000
,
1001
0000
0000
0100
,
0100
0100
0002
0000
,
1003
0020
0000
0130
,
0020
0000
0000
0000
0000
0000
1030
0000
0000
0100
0000
0010
,
0001
0000
0010
0001
0000
0000
2000
0000
0000
0000
0000
0000
,
3010
0200
0000
0301
,
2000
0000
0000
3200
,
0000
0000
0310
0001
,
0001
1000
0010
0010
,
1000
0100
0010
0001
,
0100
0000
0001
0100
0000
0000
0010
0000
0000
1000
0000
0000
,
0001
0100
0001
0100
,
0020
0000
0030
0200
,
0000
0300
0002
0000
,
0003
2000
0000
3000
,
1001
0000
0000
0110
,
0000
0000
0000
0000
0000
0000
0001
0000
0010
0000
0000
0001
,
0000
0000
0000
0001
0000
0010
0000
0000
0100
0000
0000
0000
,
1000
0000
0010
0000
0000
1000
0000
0000
0000
1000
0000
0010
,
0000
0000
0100
0000
0000
0000
0001
0000
0100
0000
0000
0010
,
0000
0000
0000
0100
0000
0001
0000
0000
0010
0000
0000
0000
,
0100
0000
1000
0000
0000
0010
0000
0000
0000
1000
0000
0100
,
0000
0000
0010
0000
0000
0000
0001
0000
1000
0000
0000
1001
,
0000
0000
0000
1000
0000
0001
0000
0000
1001
0000
0000
0000
,
0010
0000
0000
0100
0000
0000
0010
0000
,
0000
2002
0000
0000
0000
0000
0000
0000
,
0000
0000
0000
0000
,
0000
0000
0000
0000
,
0000
0000
3003
0000
,
0000
0000
0000
0000
;
#NOTES:
     dance-single:
     :
     Hard:
     14:
     :
0000
0000
0000
0000
,
0000
0000
0000
0000
,
0000
0000
0000
0000
,
0000
0000
0000
0000
,
0000
0000
0000
0000
,
0000
0000
0000
0000
,
0000
0000
0000
0000
,
0000
0000
0001
0010
,
0000
0010
1000
0000
,
1000
0100
0000
0100
,
0001
0000
0001
0010
,
0000
0010
1000
0000
,
2002
0000
0000
0000
,
0000
0000
0000
0000
,
0000
0000
0000
3003
,
1000
0000
0000
0010
0000
0100
0010
0000
0000
0100
0000
0000
,
0001
0010
1000
0001
,
0100
0000
0000
1000
0000
0000
0001
0000
1000
0001
0000
0000
,
0100
0000
0000
0010
0000
1000
0010
0000
0000
1000
0000
0000
,
0100
0000
0000
0010
0000
0000
0001
0000
0010
0000
0000
0000
,
0011
0000
0000
1000
0000
0100
0000
0000
0000
1100
0000
0000
,
0001
0000
0000
0100
0000
0010
0100
0000
0000
0010
0000
0000
,
0001
1000
0100
0010
,
1000
0000
0000
0100
0000
0000
0010
0000
0001
0010
0000
0000
,
0001
0000
0000
1000
0000
0001
1000
0000
0000
0100
0000
0000
,
1000
0000
0000
0010
0000
0000
1010
0000
0000
0000
0000
0110
,
0000
0000
0000
0011
0000
0000
0000
0000
1001
0000
0000
0000
,
1000
0010
0100
0001
,
1000
0000
0100
1000
0000
0000
0001
0000
0000
0010
0000
0000
,
0100
0000
0000
1000
0000
0000
0001
1000
0001
1000
0000
0000
,
0010
0100
0010
1000
,
0010
0000
1000
0000
0001
0000
0100
0010
,
0000
0000
1000
0000
0100
0010
0000
0000
,
0001
0100
0010
1000
,
0100
0000
0010
0100
0000
0000
1000
0000
0000
0100
0000
0000
,
0010
0000
0000
0001
0000
0000
0100
0010
0100
0010
0000
0000
,
1000
0001
1000
0001
,
0100
0000
0001
0000
0101
0000
0000
0110
,
0000
0000
1010
0000
0000
0110
0000
0000
,
2001
0000
0000
0001
0000
0000
0200
0000
,
0000
0000
0000
0000
0000
0000
3300
0000
0000
0010
1000
0010
,
1000
0000
0010
0100
0000
0100
0001
0000
0001
1000
0000
0000
,
1002
0000
0000
1000
0000
0000
0200
0000
,
0000
0000
0000
0303
0000
0000
1001
0000
0000
1000
0100
0010
,
0001
0000
0000
1000
0100
0010
0001
0000
0000
0000
0000
0000
,
1020
0000
0000
0001
0000
0000
0200
0000
,
0000
0000
0000
0330
0000
0000
0001
0000
0000
1000
0000
0010
,
1000
0000
0001
0010
0000
0001
1000
0000
0010
1000
0000
0000
,
0201
0000
0000
1000
0000
0000
0020
0000
,
0000
0000
0000
0330
,
1001
0000
0000
0000
0000
0000
0000
0000
1001
0000
0000
1001
,
0000
0000
0000
0000
0000
0000
0000
0000
0000
0001
0100
0010
,
1000
0000
0000
0100
0000
0010
0100
0000
0000
1000
0000
0000
,
0001
0000
0100
0010
0000
0000
1000
0000
0000
1100
0000
0000
,
0101
0000
0001
0000
0000
0110
0000
0000
,
1000
0000
0000
0010
0000
0100
0010
0000
0000
1000
0000
0000
,
0100
0010
0001
0010
0000
0000
0001
0000
0100
0000
0000
0000
,
1100
0000
0000
1010
0000
0000
0001
0000
0010
0001
0000
0000
,
1000
0000
0000
0010
0000
0100
0010
0000
0000
1000
0000
0000
,
0001
0000
0010
0100
0000
0000
1000
0000
0000
1010
0000
0000
,
0011
0000
0001
0000
0000
0110
0000
0000
,
1000
0000
0000
0100
0000
0010
0100
0000
0000
1000
0000
0000
,
0010
0100
0001
0100
0000
0000
0020
0000
0000
0000
0000
0000
,
1030
0100
1000
0100
0000
0000
0110
0000
0000
0011
0000
0000
,
0101
1100
1010
0110
,
1010
0000
0000
1100
0000
0000
1000
0000
0000
1000
0000
0010
,
0100
0000
0001
1000
0000
0000
1000
0000
0010
0100
0000
0001
,
1000
0000
0000
1000
0000
0010
0100
0000
0001
1000
0000
1000
,
0001
0000
0001
0010
0000
0010
0100
0000
0000
0000
1000
0000
,
0000
0001
0000
0000
0000
0000
1001
0000
0000
0000
0000
0000
0001
0000
0100
0000
0010
0000
0100
0000
0000
0000
0010
0000
,
1000
1100
0101
0011
,
1000
0010
1000
0100
0000
0000
0010
0000
0000
0010
0000
0001
,
1000
0000
0100
0010
0000
0000
0010
0000
0001
1000
0000
0100
,
0010
0000
0000
1001
,
0010
0000
0000
0001
0000
0000
0100
0000
0000
0001
0000
0000
0010
0000
0000
0000
0001
0000
0000
0000
0000
0000
1001
0000
,
0000
0000
0000
0010
0000
1000
0000
0000
1001
0000
0000
0000
,
0100
0000
0001
0000
0000
1001
0000
0000
0000
0100
0000
1000
,
0000
0000
1001
0000
0000
0000
1000
0000
0010
0000
0000
0110
,
0000
0000
0000
0001
0000
0100
0000
0000
0110
0000
0000
0000
,
1000
0000
0010
0000
0000
0110
0000
0000
0000
1001
0000
0000
,
0001
0010
0100
1000
0100
0010
0001
0000
0100
0000
0000
1001
,
0000
0000
0000
1000
0000
0100
0000
0000
1001
0000
0000
0000
,
0001
0000
1000
0000
0000
0110
0000
0000
0000
1000
0000
0001
,
0000
0000
0110
0000
0000
0000
0001
0000
0010
0000
0000
1010
,
0000
0000
0000
1000
0000
0100
0000
0000
0101
0000
0000
0000
,
1001
0000
0000
0001
,
0010
0000
0000
1000
0000
0000
0001
0000
0100
0010
0000
0000
,
0001
0000
0000
0100
0000
0010
1000
0000
0000
0010
0000
0000
,
0100
0000
1000
0100
0000
0000
0001
0000
0000
1000
0000
0100
,
0010
0000
0010
0001
0000
0001
1000
0000
0010
0100
0000
0000
,
0010
0000
0000
0110
0000
0000
0000
0000
1010
0000
0000
0000
,
2001
0000
0000
3002
0000
0000
0010
0000
,
0000
0000
0000
0013
0000
0000
0000
0000
0000
0000
0000
0000
0001
0000
0000
0000
0001
0000
1000
0000
0000
0000
1000
0000
,
0010
0000
0010
0001
0000
0001
1000
0000
1000
0100
0000
0100
,
0001
0000
0001
0010
0000
0010
1000
0000
1000
0001
0000
0000
,
0000
0000
0110
0000
0000
0000
0011
0000
0000
0010
0000
0000
,
1000
1010
0010
0001
,
0200
0000
0000
0320
,
0000
0000
2030
0000
,
0000
3002
0000
0000
,
1003
0000
0100
1000
0000
0100
0010
0000
0001
0100
0000
0001
,
0100
0000
0001
0100
0000
0010
1000
0000
0100
0000
0000
2000
,
0000
0000
0000
3001
0000
0010
0100
0000
1000
0100
0000
0010
,
0001
1000
0001
1000
0001
1000
0002
0000
0000
2000
0000
0000
,
0000
0000
0000
3003
0000
0000
0001
0000
0001
0010
0000
0010
,
1000
0000
1000
0010
0000
0010
0001
0000
0001
0010
0000
0010
,
0100
1000
0100
1000
0010
1000
0010
0000
0000
0100
0001
0100
,
0001
0010
0001
0010
0000
0000
0001
0000
0001
0000
0000
0002
,
0000
0000
0000
1003
0000
1000
0000
0000
2000
0000
0000
0000
,
3010
0000
0000
0100
0000
0000
0010
0000
,
0000
0220
0000
0000
0000
0000
0000
0000
,
0000
0000
0000
0000
,
0000
0000
0000
0000
,
0000
0000
0330
0000
,
0000
0000
0000
0000
;
#NOTES:
     dance-double:
     :
     Easy:
     8:
     :
00000000
00000000
00000000
00000000
,
00000000
00000000
00000000
00000000
,
00000000
00000000
00000000
00000000
,
00000000
00000000
00000000
00000000
,
00000000
00000000
00000000
00000000
,
00000000
00000000
00000000
00000000
,
00000000
00000000
00000000
00000000
,
00000000
00000000
00000001
00000000
,
00000000
00000010
00000000
00000000
,
00000100
00000000
00000000
00010000
,
00000000
00000000
00001000
00000000
,
00000000
01000000
00000000
00000000
,
00200000
00000000
00000000
00000000
,
00000000
00000000
00300000
00000000
,
00000000
00000000
00000000
00000000
,
10000000
00000000
00100000
01000000
,
00000000
00010000
00100000
00000000
,
01000000
10000000
00000000
00010000
,
00100000
00000000
00001000
00010000
,
00000000
00000100
00000010
00000001
,
00000010
00000100
00001000
00000001
,
00000010
00000000
00000001
00000100
,
00000000
00000010
00001000
00000000
,
00000100
00000010
00000000
00000100
,
00010000
00000000
00001000
00010000
,
00000000
01000000
10000000
01000000
,
10000000
00010000
00100000
01000000
,
10000000
00100000
01000000
00100000
,
00000000
00000000
01000000
00001000
,
00010000
00001000
00000000
00000000
,
00010000
00000010
00001000
00000010
,
00000100
00000001
00000020
00000000
,
00000030
00000200
00000000
00000300
,
00000010
00000001
00001000
00000001
,
00000000
00000000
00000100
00001000
,
00010000
00001000
00000000
00000000
,
00010000
00100000
01000000
00100000
,
10000000
00010000
20000000
00000000
,
30000000
02000000
00000000
03000000
,
00010000
00000000
00000000
00001000
,
00000000
00000000
00011000
00000000
,
00000000
00000000
00000000
00000000
,
00000010
00000000
00000000
00000100
,
00000000
00000000
00001001
00000000
,
00000000
00000000
00000000
00000000
,
00000100
00000000
00000000
00001000
,
00000000
00000000
00011000
00000000
,
00000000
00000000
00000000
00000000
,
01000000
00000000
00000000
00100000
,
00000000
00000000
00000000
00000000
,
02200000
00000000
00000000
00000000
,
00000000
00000000
03300000
00000000
,
02000000
00000000
03000000
00020000
,
00000000
00030000
00100000
00001000
,
00010000
00001000
00000000
00000000
,
00020000
00000000
00030000
00000020
,
00000000
00000030
00000100
00000010
,
00000100
00000010
00000000
00000000
,
00000200
00000000
00000300
00000002
,
00000000
00000003
00001000
00000010
,
00010000
00001000
00000000
00000000
,
00010000
00001000
00010000
00001000
,
01000000
00010000
01000000
00000000
,
00100000
10000000
00000000
00100000
,
01000000
00000000
00010000
01000000
,
00000000
00001000
00010000
00000000
,
00000010
00001000
00000000
00000010
,
00010000
00000000
00000010
00001000
,
00000000
00000001
00000100
00000010
,
00000100
00000010
00000000
00000100
,
00001000
00010000
00001000
00010000
,
00000000
00000000
00011000
00000000
,
00000000
00110000
00000000
00000000
,
01100000
00000000
00000000
01000000
,
00000000
00000000
10010000
00000000
,
00000000
10010000
00000000
00000000
,
10000000
01000000
00100000
00001000
,
00000000
00000000
00011000
00000000
,
00000000
00011000
00000000
00000000
,
00010000
00000010
00000100
00000010
,
00000000
00000000
00000110
00000000
,
00000000
00000110
00000000
00000000
,
00000001
00000010
00001000
00010000
,
00000000
00000000
00011000
00000000
,
00000000
00011000
00000000
00000000
,
00011000
00000000
00000000
00000000
,
00000000
00000000
00100000
10000000
,
00100000
01000000
00000000
00000000
,
00001000
00010000
00001000
00010000
,
00000000
00000000
00000100
00001000
,
00000010
00000100
00000001
00000010
,
00000002
00000000
00000003
00002000
,
00000000
00003000
00000001
00000100
,
00000001
00001000
00000010
00001000
,
00000100
00010000
00000100
00020000
,
00000000
00030000
00001000
01000000
,
00001000
01000000
00010000
01000000
,
00200000
00000000
00300000
20000000
,
00000000
30000000
00020000
00000000
,
00030000
00200000
00000000
00300000
,
00001000
00000000
00000000
00010000
,
00000000
00000000
00011000
00000000
,
00000000
00011000
00000000
00000000
,
00011000
00000000
00000000
00001000
,
00000010
00000001
00000100
00000000
,
00000000
00000110
00000000
00000000
,
00000110
00000000
00000000
00000100
,
00001000
00010000
00100000
00000000
,
00000000
01100000
00000000
00000000
,
10000000
00000000
00000000
00010000
00000000
00000000
10000000
00000000
,
00000000
20020000
00000000
00000000
00000000
00000000
00000000
00000000
,
00000000
00000000
00000000
00000000
,
00000000
00000000
00000000
00000000
,
00000000
00000000
30030000
00000000
,
00000000
00000000
00000000
00000000
;
#NOTES:
     dance-double:
     :
     Medium:
     11:
     :
00000000
00000000
00000000
00000000
,
00000000
00000000
00000000
00000000
,
00000000
00000000
00000000
00000000
,
00000000
00000000
00000000
00000000
,
00000000
00000000
00000000
00000000
,
00000000
00000000
00000000
00000000
,
00000000
00000000
00000000
00000000
,
00000000
00000000
00000002
00000000
,
00000003
00000200
00000000
00000300
,
00000020
00000000
00000030
00020000
,
00000000
00030000
00002000
00000000
,
00003000
02000000
00000000
00000000
,
00200000
00000000
00000000
00000000
,
00000000
00000000
03300000
00000000
,
00000000
00000000
00000000
00000000
,
00100000
00100000
10000000
00010000
,
00010000
01000000
00001000
00010000
,
00000100
00001000
00000010
00000100
,
00000001
00000001
00000100
00000010
,
00000010
00000000
00000000
00001000
00000000
00000000
00000100
00000000
00010000
00000000
00000000
00000000
,
00000100
00000000
00000000
00010000
00000000
00001000
00000000
00000000
00000000
00010000
00000000
00000000
,
01000000
01000000
10000000
00010000
,
00010000
00100000
00001000
00010000
,
00001000
00000010
00000100
00000010
,
00000001
00000001
00000100
00000010
,
00000010
00000000
00000000
00001000
00000000
00000000
00000001
00000000
00000000
00000000
00000000
00000100
,
00000000
00000000
00000000
00001000
00000000
00000000
00000000
00000000
00010000
00000000
00000000
00000000
,
01000000
10000000
01000000
10000000
,
00000000
10000000
00100000
00010000
,
00001000
00010000
00001000
00010000
,
00001000
00000100
00001000
00000100
,
00000001
00000000
00000100
00000000
00000001
00000000
00000000
00000010
,
00000000
00000000
00000100
00000000
00000000
00001000
00000000
00000000
,
00000010
00010000
00001000
00000010
,
00000000
00000010
00001000
00010000
,
00100000
00010000
00001000
00100000
,
00001000
00010000
00000100
00010000
,
00001000
00000000
01000000
00000000
00100000
00000000
00000000
10000000
,
00000000
00000000
00010000
00000000
00000000
01000000
00000000
00000000
,
00001000
00000000
00000000
00010000
00000000
00000000
00012000
00000000
,
00000000
00000000
00000000
00010000
,
00010000
00000000
00000100
00003100
,
00000010
00000000
00000000
00000100
00000000
00000000
00000110
00000000
,
00000000
00000000
00002002
00000000
,
00000000
00000000
00000000
00003003
,
00000010
00000000
00000000
00010000
00000000
00000000
00021000
00000000
,
00000000
00000000
00100000
00000000
,
00001000
00001000
00000000
01000000
,
01030000
00000000
00000000
00100000
00000000
00000000
02200000
00000000
,
00000000
00000000
00300000
00000000
,
03100000
00000000
00000000
00000000
00000000
00000000
00000000
00000000
00100000
00000000
00000000
00100000
,
00000000
00000000
00000000
00000000
,
10000000
01000000
00010000
00001000
,
00000010
00000001
00000100
00001000
,
00010000
00001000
00000100
00000001
,
00000010
00000100
00010000
00001000
,
00000100
00000000
00000000
00001000
00000000
00000000
00010000
00000000
00001000
00000000
00000000
00000000
,
00011000
00001000
00000010
00000001
,
00000001
00000100
00001000
00010000
,
00100000
10000000
01000000
00010000
,
00001000
00010000
01000000
10000000
,
00100000
01000000
00001000
00010000
,
00010000
00010000
00011000
00000000
,
00000010
00000001
00000000
00000100
,
00001000
00000000
00010000
00100000
,
00000000
10000000
01000000
00000000
,
00010000
00001000
00000000
00000010
,
00001000
00000000
00010000
00100000
,
00010000
00001000
00021000
00000000
,
00000000
00030020
00000000
00000000
,
00000130
00000001
00000100
00000010
,
00001000
00000010
00020000
00000000
,
00000000
00032000
00000000
00000000
,
00013000
00000000
00000000
00100000
,
01000000
00000000
00000000
10000000
00000000
00000000
00100000
00000000
10000000
00000000
00000000
00100000
,
00000000
00000000
00000000
01000000
00000000
00010000
00000000
00000000
01000000
00000000
00000000
00000000
,
00001000
00000000
00010000
00000000
00000000
00001000
00000000
00000000
00000000
00010000
00000000
00001000
,
00000000
00000000
00010000
00000000
00000000
00000000
00000100
00000000
00001000
00000000
00000000
00000100
,
00000000
00000000
00000000
00000010
00000000
00000001
00000000
00000000
00000010
00000000
00000000
00000000
,
00000001
00000000
00001000
00000000
00000000
00000001
00000000
00000000
00000000
00001001
00000000
00000000
,
00000000
00000000
00000000
00000000
00000000
00000000
00000100
00000000
00000010
00000000
00000000
00000100
,
00000000
00000000
00000000
00000010
00000000
00010000
00000000
00000000
00000010
00000000
00000000
00000000
,
00010000
00000000
00001000
00000000
00000000
00010000
00000000
00000000
00000000
00001000
00000000
00010000
,
00000000
00000000
00001000
00000000
00000000
00000000
00100000
00000000
00010000
00000000
00000000
00100000
,
00000000
00000000
00000000
01000000
00000000
10000000
00000000
00000000
01000000
00000000
00000000
00000000
,
10010000
00000000
00000000
01000000
,
01000000
01000000
00200000
00000000
,
10300000
00020000
00000000
01030000
,
00200000
00000000
00000000
00000000
00000000
00000000
01300000
00000000
00000000
00001000
00000000
00010000
,
00001000
00000000
00010000
00001000
00000000
00000000
00010000
00000000
00000000
00010000
00000000
00000000
,
00000100
00000000
00000000
00000010
00000000
00000000
00000000
00000000
00000100
00000000
00000000
00000000
,
00002000
00000000
00000000
00003002
,
00000000
00000003
00000001
00000100
,
00001000
00010000
00100000
10000000
,
10000000
01000000
00010000
00001000
,
00000010
00000000
00000001
00000010
00000000
00000000
00000001
00000000
00000000
00001000
00000000
00000000
,
00000100
00000100
00010000
00001000
,
00020000
00000000
00030000
02000000
,
00000000
03000000
20000000
00000000
,
30000000
00200000
00000000
00300000
,
00110000
00000000
00000000
00011000
,
00000000
00000000
00000000
00000000
00000000
00000000
00000010
00000000
00000001
00000000
00000000
00001000
,
00000000
00000000
00000000
00000001
00000000
00000100
00000000
00000000
00000010
00000000
00000000
00000000
,
00001000
00000000
00000100
00000000
00000000
00010000
00000000
00000000
00000000
00001000
00000000
00100000
,
00000000
00000000
00010000
00000000
00000000
00000000
01000000
00000000
00010000
00000000
00000000
10000000
,
00000000
00000000
00000000
01000000
00000000
00100000
00000000
00000000
00010000
00000000
00000000
00000000
,
01000000
00000000
00001000
00000000
00000000
00010000
00000000
00000000
00000000
00000100
00000000
00001000
,
00000000
00000000
00000010
00000000
00000000
00000000
00000100
00000000
00000001
00000000
00000000
00001001
,
00000000
00000000
00000000
00000010
00000000
00000100
00000000
00000000
00000110
00000000
00000000
00000000
,
00001000
00000000
00000000
00010000
00000000
00000000
00001000
00000000
,
00000000
00022000
00000000
00000000
00000000
00000000
00000000
00000000
,
00000000
00000000
00000000
00000000
,
00000000
00000000
00000000
00000000
,
00000000
00000000
00033000
00000000
,
00000000
00000000
00000000
00000000
;
#NOTES:
     dance-double:
     :
     Hard:
     15:
     :
00000000
00000000
00000000
00000000
,
00000000
00000000
00000000
00000000
,
00000000
00000000
00000000
00000000
,
00000000
00000000
00000000
00000000
,
00000000
00000000
00000000
00000000
,
00000000
00000000
00000000
00000000
,
00000000
00000000
00000000
00000000
,
00000000
00000000
00000001
00000100
,
00000000
00000010
00001000
00000000
,
00000100
00010000
00000000
00001000
,
00100000
00000000
00010000
01000000
,
00000000
00100000
10000000
00000000
,
20020000
00000000
00000000
00000000
,
00000000
00000000
00000000
00000000
,
00000000
00000000
00000000
30030000
,
10000000
00000000
00000000
00010000
00000000
00100000
00010000
00000000
00000000
00001000
00000000
00000000
,
00000100
00000010
00000001
00000100
,
00001000
00000000
00000000
00000100
00000000
00000000
00000010
00000000
00000100
00000010
00000000
00000000
,
00000100
00000000
00000000
00000001
00000000
00000010
00000001
00000000
00000000
00000100
00000000
00000000
,
00001000
00000000
00000000
00010000
00000000
00000000
00001000
00000000
00000010
00000000
00000000
00000000
,
00001010
00000000
00000000
00001000
00000000
00010000
00000000
00000000
00000000
00011000
00000000
00000000
,
00010000
00000000
00000000
01000000
00000000
00100000
01000000
00000000
00000000
10000000
00000000
00000000
,
00100000
00010000
10000000
01000000
,
00010000
00100000
00010000
00001000
,
00000100
00000000
00000000
00000010
00000000
00000100
00000010
00000000
00000000
00000001
00000000
00000000
,
00000100
00000000
00000000
00000010
00000000
00000000
00000110
00000000
00000000
00000000
00000000
00001100
,
00000000
00000000
00000000
00011000
00000000
00000000
00000000
00000000
01010000
00000000
00000000
00000000
,
10000000
00100000
01000000
00010000
,
00100000
00001000
00010000
00000100
,
00000010
00000000
00000000
00000001
00000000
00000000
00001000
00000001
00001000
00000001
00000000
00000000
,
00000001
00000100
00001000
00000100
,
00001000
00000000
00010000
00000000
00100000
00000000
10000000
00100000
,
00000000
00000000
01000000
00000000
00010000
01000000
00000000
00000000
,
10000000
01000000
00010000
10000000
,
01000000
00010000
00001000
00000010
,
00000001
00000000
00000000
00001000
00000000
00000000
00000010
00000100
00000010
00000100
00000000
00000000
,
00001000
00010000
00100000
01000000
,
00010000
00000000
00100000
00000000
01000000
00000000
00000000
01010000
,
00000000
00000000
00001000
00000000
00000000
00001100
00000000
00000000
,
00000010
00000000
00000000
00000010
00000000
00000000
00002002
00000000
,
00000000
00000000
00000000
00000000
00000000
00000000
00003003
00000000
00000000
00000100
00001000
00000100
,
00001000
00000000
00000100
00010000
00000000
00001000
00100000
00000000
00010000
10000000
00000000
00000000
,
00100000
00000000
00000000
00100000
00000000
00000000
20020000
00000000
,
00000000
00000000
00000000
30030000
00000000
00000000
00100000
00000000
00000000
00001000
00010000
00001000
,
00010000
00000000
00000000
00000100
00001000
00000100
00000010
00000000
00000000
00000000
00000000
00000000
,
00000001
00000000
00000000
00001000
00000000
00000000
00000220
00000000
,
00000000
00000000
00000000
00000330
00000000
00000000
00000001
00000000
00000000
00000010
00000000
00000010
,
00001000
00000000
00001000
00010000
00000000
00010000
01000000
00000000
01000000
10000000
00000000
00000000
,
00010000
00000000
00000000
10000000
00000000
00000000
02200000
00000000
,
00000000
00000000
00000000
03300000
,
00011000
00000000
00000000
00000000
00000000
00000000
00000000
00000000
00000110
00000000
00000000
00000110
,
00000000
00000000
00000000
00000000
00000000
00000000
00000000
00000000
00000000
00001000
00000001
00001000
,
00000001
00000000
00000000
00000010
00000000
00000100
00010000
00000000
00000000
00001000
00000000
00000000
,
00100000
00010000
10000000
10100000
,
01100000
00000000
01010000
00000000
00000000
10010000
00000000
00000000
,
01000000
00000000
00000000
00100000
00000000
00001000
00010000
00000000
00000000
00001000
00000000
00000000
,
00000100
00000000
00000000
00000001
00000000
00000000
00000100
00000000
00000010
00000000
00000000
00000000
,
00001010
00000000
00000000
00010000
00000000
00000000
00001000
00000000
00010000
00001000
00000000
00000000
,
00000010
00001000
00010000
00100000
,
00010000
00001000
00000010
00000100
,
00001000
00000000
00010000
00000000
00000000
01100000
00000000
00000000
,
00100000
00000000
00000000
01000000
00000000
10000000
01000000
00000000
00000000
00100000
00000000
00000000
,
00100000
00100000
00002000
00000000
,
00013000
00001000
00010000
00001000
00000000
00000000
00000010
00000000
00000000
00000001
00000000
00000000
,
00000100
00000100
00000100
00001000
,
00001000
00000000
00000000
00001000
00000000
00000000
00011000
00000000
00000000
00000000
00000000
00100000
,
00010000
00000000
10000000
01000000
00000000
00000000
00000000
00000000
00100000
00010000
00000000
10000000
,
01000000
00000000
00000000
00000000
00000000
00100000
00010000
00000000
00001000
00000100
00000000
00000100
,
00000010
00000000
00000010
00000001
00000000
00000001
00000100
00000000
00000000
00000000
00000010
00000000
,
00000000
00001000
00000000
00000000
00000000
00000000
00001001
00000000
00000000
00000000
00000000
00000000
00001000
00000000
00000100
00000000
00001000
00000000
00000100
00000000
00000000
00000000
00000000
00000000
,
00000110
00001100
00011000
01010000
,
00100000
00001000
00010000
00001000
00000000
00000000
00011000
00000000
00000000
00000000
00000000
00000010
,
00000001
00000000
00001000
00000100
00000000
00000000
00000000
00000000
00000010
00000001
00000000
00001000
,
00000100
00000000
00000000
00001001
,
00000010
00000000
00000000
00001000
00000000
00000000
00010000
00000000
00000000
01000000
00000000
00000000
10000000
00000000
00000000
00000000
00100000
00000000
00000000
00000000
00000000
00000000
01100000
00000000
,
00000000
00000000
00000000
00010000
00000000
00100000
00000000
00000000
01100000
00000000
00000000
00000000
,
10000000
00000000
00100000
00000000
00000000
01100000
00000000
00000000
00000000
00001000
00000000
00010000
,
00000000
00000000
00011000
00000000
00000000
00000000
00000010
00000000
00000100
00000000
00000000
00000110
,
00000000
00000000
00000000
00000001
00000000
00000010
00000000
00000000
00000110
00000000
00000000
00000000
,
00001000
00000000
00000010
00000000
00000000
00000110
00000000
00000000
00000000
00001001
00000000
00000000
,
00000010
00000100
00000010
00000100
00010000
00001000
00010000
00000000
00001000
00000000
00000000
00011000
,
00000000
00000000
00000000
00001000
00000000
00010000
00000000
00000000
00011000
00000000
00000000
00000000
,
00000100
00000000
00000010
00000000
00000000
00001010
00000000
00000000
00000000
00100000
00000000
00010000
,
00000000
00000000
00110000
00000000
00000000
00000000
01000000
00000000
00100000
00000000
00000000
00110000
,
00000000
00000000
00000000
00000010
00000000
00001000
00000000
00000000
00001010
00000000
00000000
00000000
,
00001001
00000000
00000000
00000100
,
00000100
00000000
00000000
00000100
00000000
00000000
00000001
00000000
00001000
00000010
00000000
00000000
,
00000100
00000000
00000000
00001000
00000000
00010000
00100000
00000000
00000000
01000000
00000000
00000000
,
00010000
00000000
00100000
01000000
00000000
00000000
10000000
00000000
00000000
01000000
00000000
01000000
,
00010000
00000000
00010000
00001000
00000000
00001000
00000010
00000000
00000100
00000010
00000000
00000000
,
00000001
00000000
00000000
00000010
00000000
00000000
00001000
00000000
00010000
00000000
00000000
00000000
,
00102000
00000000
00000000
00203000
00000000
00000000
00320000
00000000
,
00000000
00000000
00000000
20030000
00000000
00000000
00000000
00000000
00000000
00000000
00000000
00000000
31000000
00000000
00000000
00000000
01000000
00000000
00100000
00000000
00000000
00000000
00100000
00000000
,
00001000
00000000
00001000
00010000
00000000
00010000
00000010
00000000
00000010
00001000
00000000
00001000
,
00000001
00000000
00000001
00000100
00000000
00000100
00001000
00000000
00001000
00010000
00000000
00000000
,
00000000
00000000
00011000
00000000
00000000
00000000
00010000
00000000
00000000
00100000
00000000
00000000
,
10000000
10000000
00100000
00010000
,
00012000
00000000
00000000
00000100
,
00000000
00000000
00023000
00000000
,
00000000
01000000
00000000
00000000
,
00031000
00000000
00001000
00000010
00000000
00000010
00000001
00000000
00000001
00000100
00000000
00000100
,
00001000
00000000
00001000
00010000
00000000
00010000
00001000
00000000
00010000
00000000
00000000
00011000
,
00000000
00000000
00000000
00000100
00000000
00000010
00000001
00000000
00000010
00000001
00000000
00001000
,
00000100
00010000
00001000
00010000
00001000
00010000
00001000
00000000
00000000
00100000
00000000
00010000
,
00000000
00000000
00110000
00000000
00000000
00000000
10000000
00000000
01000000
00100000
00000000
01000000
,
00100000
00000000
00001000
00010000
00000000
00000100
00001000
00000000
00000001
00000010
00000000
00000001
,
00000010
00000100
00001000
00000100
00010000
00001000
00010000
00000000
00000000
00001000
01000000
00010000
,
01000000
00100000
10000000
00100000
00000000
00000000
10000000
00000000
01000000
00000000
00000000
01010000
,
00000000
00000000
00000000
01000000
00000000
00100000
00000000
00000000
01100000
00000000
00000000
00000000
,
10000000
00000000
00000000
00010000
00000000
00000000
00001000
00000000
,
00000000
00022000
00000000
00000000
00000000
00000000
00000000
00000000
,
00000000
00000000
00000000
00000000
,
00000000
00000000
00000000
00000000
,
00000000
00000000
00033000
00000000
,
00000000
00000000
00000000
00000000
;
