
//----- song ID: aceo -----//
#TITLE:Ace out;
#ARTIST:BEMANI Sound Team "SYUNN";
#BANNER:Ace out.png;
#BACKGROUND:Ace out-bg.png;
#CDTITLE:./CDTitles/DDR A20.png;
#MUSIC:Ace out.ogg;
#SAMPLESTART:1.776;
#SAMPLELENGTH:15;
#BPMS:0=135,84=135.135,85=135.747,86=136.674,87=136.986,88=137.615,89=138.249,90=139.211,91=139.535,92=140.187,93=140.845,94=141.509,95=141.844,96=142.857,97=143.198,98=143.885,99=144.578,100=145;
#NOTES:
     dance-single:
     :
     Beginner:
     3:
     :
0000
0000
0000
0000
,
0000
0000
0000
0000
,
0000
0000
0000
0000
,
0000
0000
0000
0000
,
0000
0000
0000
0000
,
0001
0000
0001
0000
,
0010
0000
0010
0000
,
1000
0000
1000
0000
,
0100
0000
0100
0000
,
1001
0000
0000
0000
,
0000
0000
0000
0000
,
1001
0000
0000
0000
,
0000
0000
0000
0000
,
1000
1000
1000
0000
,
1000
0000
0100
0000
,
0010
0010
0010
0000
,
0100
0000
0000
0000
,
0001
0001
0001
0000
,
0100
0000
0010
0000
,
0100
0100
0100
0000
,
0001
0000
0000
0000
,
1001
0000
0000
0000
,
0000
0000
0000
0000
,
1001
0000
0000
0000
,
0000
0000
0000
0000
,
1001
0000
0000
0000
,
1001
0000
0000
0000
,
0001
0000
1000
0000
,
1001
0000
0000
0000
,
0001
0000
0010
0000
,
0001
0000
0010
0000
,
0001
0000
0010
0000
,
0100
0000
0000
0000
,
1000
0000
0010
0000
,
1000
0000
0010
0000
,
1000
0000
0100
0000
,
1000
0000
0000
0000
,
0001
0000
0010
0000
,
0001
0000
1000
0000
,
0010
0000
1000
0000
,
0100
0000
0001
0000
,
0010
0000
0001
0000
,
0010
0000
1000
0000
,
0100
0000
1000
0000
,
1000
0000
0000
0000
,
1001
0000
0000
0000
,
0000
0000
0000
0000
,
1001
0000
0000
0000
,
0000
0000
0000
0000
,
1000
0000
1000
0000
,
1000
0000
0000
0000
,
0001
0000
0001
0000
,
0001
0000
0000
0000
,
0001
0000
0010
0000
,
0001
0000
0010
0000
,
1000
0000
0100
0000
,
1000
0000
0100
0000
,
1000
0000
0010
0000
,
1000
0000
0010
0000
,
0001
0000
0100
0000
,
0001
0000
0000
0000
,
1000
1000
1000
0000
,
0001
0001
0001
0000
,
2000
0000
3000
0000
,
0002
0000
0003
0000
,
0010
0010
0010
0000
,
0100
0100
0100
0000
,
0020
0000
0030
0000
,
0200
0000
0300
0000
,
1001
0000
0000
0000
,
0000
0000
0000
0000
;
#NOTES:
     dance-single:
     :
     Easy:
     5:
     :
0000
0000
0000
0000
,
0000
0000
0000
0000
,
0000
0000
0000
0000
,
0000
0000
0000
0000
,
0000
0000
0000
0000
,
0010
1000
0100
0000
,
0010
0001
0100
0000
,
0100
0001
0010
0000
,
0100
1000
0010
0000
,
1001
0000
0000
0000
,
1001
0000
0000
0000
,
0001
1000
0001
1000
,
0020
0000
0000
0030
,
0010
0010
0010
0000
,
0010
1000
0100
0010
,
0001
0001
0001
0000
,
0001
0100
1000
0100
,
0010
0010
0010
0000
,
0010
1000
0100
0010
,
0100
0100
0100
0000
,
1000
0001
1000
0001
,
1001
0000
0100
0000
,
0010
0000
0100
0000
,
0001
0000
1000
0000
,
0001
0000
1000
0000
,
0001
0001
0010
0010
,
0100
0100
1000
1000
,
0001
0010
0100
1000
,
2002
0000
0000
3003
,
1000
1000
0100
0000
,
1000
0100
0010
0000
,
0001
0001
0100
0000
,
0001
0100
0010
0000
,
1000
1000
0010
0000
,
1000
0010
0100
0000
,
0001
0001
0010
0000
,
0220
0000
0000
0330
,
0001
0100
0001
0100
,
1000
0100
0001
0000
,
1000
0100
1000
0100
,
0001
0100
1000
0000
,
0001
0010
0001
0010
,
1000
0010
0001
0000
,
1000
0010
0001
0010
,
2000
0000
0000
3000
,
1000
0010
0010
0000
,
0010
0001
0001
0000
,
0001
0100
0100
0000
,
0100
1000
1000
0000
,
1000
0100
1000
0100
,
0001
0100
0001
0000
,
0001
0010
0001
0010
,
2002
0000
0000
3003
,
0001
1000
0001
1000
,
0100
0010
0100
0010
,
0001
1000
0001
1000
,
0010
0100
0010
0100
,
0001
1000
0100
0010
,
0001
1000
0010
0100
,
0001
0010
0100
1000
,
0100
0010
0001
0000
,
1000
1000
0100
0010
,
0001
1000
1001
0000
,
0100
0100
0001
1000
,
0100
0010
0110
0000
,
0001
0001
0010
0010
,
1000
1000
0100
0100
,
0001
0010
1000
0010
,
0001
0100
1000
0000
,
1001
0000
0000
0000
,
0000
0000
0000
0000
;
#NOTES:
     dance-single:
     :
     Medium:
     9:
     :
0000
0000
0000
0000
,
0000
0000
0000
0000
,
0000
0000
0000
0000
,
0000
0000
0000
0000
,
0000
0000
0000
0000
,
0001
0010
0001
0001
,
1000
0010
1000
1000
,
0001
0010
0100
0100
,
1000
0010
0100
0100
,
1001
0000
0000
0000
,
1001
0000
0000
0000
,
1001
0000
1001
0000
,
0100
0100
0100
0000
,
0100
0000
0010
0000
0001
0010
0001
0000
,
0100
0000
0010
0000
1000
0010
1000
0000
,
0001
0000
0010
0000
0100
1000
0100
0000
,
1000
0000
0010
0000
0100
0001
0100
0000
,
0001
0000
0010
0000
0100
1000
0001
0000
,
1000
0000
0010
0000
0100
0001
1000
0000
,
0100
0010
0001
0000
0100
0010
1000
0000
,
0220
0000
0000
0330
,
0001
0001
0100
0000
,
1000
1000
0100
0000
,
0001
0001
0100
0000
,
1000
1000
0100
0000
,
0001
0100
1000
0100
,
0001
0100
1000
0100
,
0001
0100
1000
0100
,
0010
0010
0020
0030
,
1000
1001
0010
0110
,
0001
0010
0001
0000
1000
0100
0010
0000
,
0001
1001
0100
0110
,
1000
0100
1000
0000
0001
0010
0100
0000
,
1000
1001
0001
1001
,
0001
0100
1000
0000
0100
0001
0010
0000
,
0100
1000
0010
0100
0001
0010
0100
0000
,
2002
0000
0000
3003
,
1000
0100
1000
0000
1000
0100
0010
0000
,
0001
0100
0001
0010
0001
0000
1001
0000
,
0001
0100
0001
0000
0001
0100
0010
0000
,
1000
0010
1000
0100
1000
0000
1001
0000
,
1000
0010
0001
0000
1000
0100
0001
0000
,
1000
0100
0001
0100
1000
0000
1001
0000
,
0001
0100
0001
0100
0010
1000
0010
2000
,
0002
0000
0000
3003
,
1000
1000
0010
0010
,
0001
0001
0010
0010
,
1000
1000
0100
0100
,
0001
0001
0100
0100
,
1000
0010
1000
0000
0010
0001
0010
0000
,
0001
0100
0001
0000
0100
1000
0100
0000
,
0010
1000
0010
0000
1000
0100
1000
0000
,
2002
0000
0000
3003
,
0010
1000
0010
0000
0100
0001
0010
0000
,
0001
1000
0001
0000
0100
0000
0100
0000
,
1000
0100
1000
0000
0001
1000
0010
0000
,
0100
0010
0100
0000
0001
0000
0001
0000
,
1000
0010
0100
0000
0001
1000
0010
0000
,
0100
0001
0100
0000
0010
0000
0010
0000
,
0001
1000
0100
0000
0010
0001
1000
0000
,
0100
1000
0100
0000
1000
0000
1000
0000
,
0001
0000
0000
0000
0110
0000
0000
0000
1000
0000
0000
1000
0000
0000
1000
0000
,
0100
0000
0000
0000
1001
0000
0000
0000
0010
0000
0000
0010
0000
0000
0010
0000
,
1000
0000
0000
0000
0110
0000
0000
0000
0001
0000
0000
0001
0000
0000
0001
0000
,
0010
0000
0000
0000
1001
0000
0000
0000
0100
0000
0000
0100
0000
0000
0100
0000
,
0001
0010
0100
0000
1000
0010
0100
0000
,
0001
0100
0010
0000
1000
0100
0010
0000
,
0001
0010
0001
0010
0100
1000
0100
1000
,
0010
0000
0000
0000
0210
0000
0000
0000
0010
0000
0000
0010
0000
0000
0010
0000
,
0300
0000
0000
0000
,
0000
0000
0000
0000
;
#NOTES:
     dance-single:
     :
     Hard:
     14:
     :
0000
0000
0000
0000
,
0000
0000
0000
0000
,
0000
0000
0000
0000
,
0000
0000
0000
0000
,
0000
0000
0000
0000
,
0001
0001
1000
1000
,
0001
0001
1000
1000
,
0001
1000
0001
1000
,
0001
1000
0001
1000
,
0001
0000
0010
0000
0001
0000
0000
0000
0100
0000
0000
0100
0000
0000
0100
0000
,
0010
0000
1000
0000
0010
0000
0000
0000
0100
0000
0000
0100
0000
0000
0100
0000
,
0010
1000
0100
0000
0010
0001
0100
0000
,
0001
1000
0001
1000
0001
1000
0001
1000
0002
0000
0000
0000
0003
0000
0000
0000
,
1001
0000
0000
0000
1100
0000
0000
0010
0001
0010
0000
0000
0110
0000
1000
0000
,
1100
0000
0000
0000
1001
0000
0000
0001
0100
0001
0000
0000
0011
0000
1000
0000
,
1010
0000
0000
0000
0110
0000
0000
1000
0010
1000
0000
0000
1001
0000
0100
0000
,
0101
0000
0000
0000
1100
0000
0000
0100
0010
0100
0000
0000
0110
0000
0100
0000
,
0110
0000
0000
0000
0011
0000
0000
1000
0010
1000
0000
0000
1100
0000
0001
0000
,
0101
0000
0000
0000
0110
0000
0000
0001
1000
0001
0000
0000
0011
0000
1000
0000
,
1001
0000
0000
0000
0110
0000
0000
0100
1000
0100
0000
0000
1100
0000
0001
0000
,
0201
0000
0000
0000
0010
0000
0000
0010
0000
0310
0000
0000
1001
0000
0000
0000
,
0001
0000
0100
0000
0010
0000
0000
0000
1000
0000
0000
1000
0000
0000
1000
0000
,
0100
0000
0010
0000
0001
0000
0000
0000
0100
0000
0000
0100
0000
0000
0100
0000
,
0100
0000
0001
0000
1000
0000
0000
0000
0010
0000
0000
0010
0000
0000
0010
0000
,
1000
0000
0100
0000
0010
0000
0000
0000
0001
0000
0000
0001
0000
0000
0001
0000
,
1000
1100
0100
0101
,
0001
0011
0010
1010
,
1000
0100
0001
0000
0010
1000
0100
0000
,
1000
0001
0100
0010
0100
0000
0010
0000
0220
0000
0000
0000
0330
0000
0000
0000
,
1000
0000
0001
0000
0010
0000
0100
1000
0100
0000
0010
0000
0100
1000
0100
0000
,
1000
0010
1000
0000
0010
0100
0010
0000
1000
0000
0001
0000
1001
0000
0000
0000
,
0001
0000
1000
0000
0010
0000
0100
0001
0100
0000
0010
0000
0100
0001
0100
0000
,
0010
1000
0010
0000
0100
0000
0010
0000
2000
0000
0000
0000
3002
0000
0000
0000
,
1003
0000
0001
0000
0010
0000
0100
0010
0100
0000
1000
0000
0100
0010
0100
0000
,
1000
0010
0100
0000
0010
0100
0010
0000
1000
0000
0001
0000
0010
0000
0100
0000
,
1000
0000
0001
0000
0100
0000
1000
0100
0000
0100
0001
0000
0010
0000
0100
0000
,
2002
0000
0000
3003
,
1000
0000
0001
0000
0010
0000
0100
1000
0001
0000
0100
0000
0001
1000
0100
0000
,
0010
0001
1000
0000
0010
1000
0001
0000
0100
0000
0010
0000
0110
0000
0000
0000
,
1000
0000
0001
0000
0100
0000
0010
1000
0100
0000
0010
0000
0100
1000
0010
0000
,
0100
0001
0010
0000
0100
0000
1000
0000
0002
0000
0000
0000
2003
0000
0000
0000
,
3001
0000
1000
0000
0100
0000
0010
0001
1000
0000
0001
0000
1000
0001
0010
0000
,
0100
1000
0001
0000
1000
0010
0100
0000
0001
0000
0010
0000
0100
0000
0010
0000
,
0001
0100
0001
0001
1000
0010
1000
1000
,
2002
0000
0000
3003
,
1000
0000
0000
0010
0000
0000
1000
0000
0000
0000
0100
0000
0100
0000
0010
0000
,
0001
0000
0000
0100
0000
0000
0001
0000
0000
0000
0010
0000
0010
0000
0100
0000
,
0001
0000
0000
0100
0000
0000
1000
0000
0000
0000
0001
0000
0001
0000
0100
0000
,
1000
0000
0000
0100
0000
0000
0001
0000
0000
0000
1000
0000
1000
0000
0010
0000
,
1000
1001
1000
0100
,
0010
0110
0100
1000
,
0001
1001
0001
0100
,
0220
0000
0000
0330
,
0000
0010
1000
0100
0000
0001
0100
1000
,
0000
0010
0100
0001
0000
0100
1000
0001
,
0000
0010
1000
0001
0000
1000
0001
0100
,
0000
0010
0100
0010
0000
1000
0001
1000
,
0000
0100
0010
0001
0000
1000
0100
0010
,
0000
0001
0100
1000
0000
0001
0010
1000
,
0000
0001
0100
0010
0000
0001
0100
0010
,
0000
1000
0010
0100
0000
0010
2002
0000
,
3003
0000
0000
0000
0001
0000
0100
0000
0010
0000
1000
0100
0000
1000
0100
0000
,
1000
0000
0001
0000
0100
0000
0010
0000
0100
0000
0001
0010
0000
0001
0010
0000
,
0001
0000
1000
0000
0010
0000
0100
0000
0001
0000
1000
0010
0000
1000
0010
0000
,
1000
0000
0100
0000
0010
0000
0001
0000
0100
0000
0001
0010
0000
0001
0010
0000
,
0001
1000
0001
0000
1000
0001
0100
0000
0010
1000
0010
0000
1000
0001
1000
0000
,
0001
0010
0001
0000
0010
0100
1000
0000
0010
0100
0001
0000
1000
0001
0100
0000
,
0001
1000
0001
1000
0100
1000
0100
0000
0010
0100
0010
0100
0010
0001
0010
0000
,
0001
0000
0100
0000
0010
1000
0010
0100
0001
1000
0001
0010
0000
0010
0100
0000
,
0110
0000
0000
0000
,
0000
0000
0000
0000
;
#NOTES:
     dance-single:
     :
     Challenge:
     14:
     :
0000
0000
0000
0000
,
0000
0000
0000
0000
,
0000
0000
0000
0000
,
0000
0000
0000
0000
,
0000
0000
0000
0000
,
0001
0100
0010
0000
1000
0100
0010
0000
,
0001
1000
0100
0000
1000
0001
0100
0000
,
0010
1000
0100
0000
0010
0001
0010
0000
,
0100
1000
0001
0100
0010
0000
0100
0000
,
0220
0000
0000
0000
,
0000
0000
0000
0000
,
0000
0000
0000
0000
,
0000
0000
0000
0000
0000
0330
MMMM
0000
,
0010
0000
0000
0000
1001
0000
0000
0001
0100
0010
0000
0000
MMMM
0000
0010
0000
,
1000
0000
0000
0000
1001
0000
0000
1000
0100
0010
0000
0000
MMMM
0000
0010
0000
,
0001
0000
0000
0000
0101
0000
0000
0010
0100
0010
0000
0000
MMMM
0000
0010
0000
,
0100
0000
0000
0000
0101
0000
0000
0001
1000
0001
0000
0000
MMMM
0000
1000
0100
,
0010
0000
0000
0000
0101
0000
0000
0010
1000
0100
0000
0000
MMMM
0000
0100
0000
,
0010
0000
0000
0000
1010
0000
0000
0100
0001
0010
0000
0000
MMMM
0000
0010
0000
,
0100
0000
0000
0000
1100
0000
0000
0001
0010
0001
0000
0000
MMMM
0000
0001
0000
,
2002
0000
0000
0000
0000
3003
MMMM
0000
,
0001
0100
MMMM
0000
1000
0100
MMMM
0000
,
0001
0010
MMMM
0000
1000
0010
MMMM
0000
,
0001
1000
MMMM
0000
1000
0001
MMMM
0000
,
0010
0100
MMMM
0000
0100
0010
MMMM
0000
,
0011
MMMM
0101
MMMM
,
1010
MMMM
1100
MMMM
,
1001
MMMM
0110
MMMM
,
0001
1000
0001
1000
0001
0000
1000
0000
2002
0000
3003
0000
MMMM
0000
0000
0000
,
1000
0000
0010
0000
0100
0000
0001
0010
0001
0000
0100
0000
0001
0000
0010
0000
,
MMMM
0110
MMMM
1100
MMMM
1001
MMMM
0101
,
0100
0000
0010
0000
1000
0000
0100
1000
0100
0000
0010
0000
0100
0000
1000
0000
,
MMMM
1010
MMMM
0110
MMMM
0101
MMMM
0011
,
0010
0000
0001
0000
1000
0000
0100
0010
0001
0000
0100
0000
1000
0000
0100
0000
,
MMMM
0101
MMMM
0011
MMMM
0110
MMMM
1100
,
1000
0000
0001
0000
0100
0000
0010
0100
MMMM
0100
0010
0000
0110
0000
0000
0000
,
2002
0000
0000
0000
0000
3003
MMMM
0000
,
0010
0000
0100
0000
0010
0000
1000
0100
0010
0000
0001
0000
1000
0000
0100
0000
,
MMMM
0010
1000
MMMM
0010
0001
MMMM
0010
,
0100
0000
0001
0000
0010
0000
0100
1000
0001
0000
0100
0000
0010
0000
1000
0000
,
MMMM
0100
0001
MMMM
0100
1000
MMMM
0010
,
0001
0000
0100
0000
0010
0000
1000
0001
1000
0000
0100
0000
0010
0000
0100
0000
,
MMMM
1000
0010
MMMM
1000
0100
MMMM
0001
,
0100
0010
MMMM
MMMM
1000
0001
MMMM
MMMM
,
2002
0000
0000
0000
0000
3003
MMMM
0000
,
MMMM
0001
MMMM
0001
,
MMMM
1000
MMMM
1000
,
0020
0000
0000
0001
0000
0000
1030
0000
,
MMMM
0110
MMMM
1001
,
1000
0100
MMMM
0100
0010
0001
MMMM
0001
,
0100
0010
MMMM
0010
1000
0100
MMMM
0000
,
0001
0010
MMMM
0010
0100
1000
MMMM
1000
,
2002
0000
0000
0000
0000
3003
MMMM
0000
,
MMMM
0100
0001
0010
MMMM
1000
0010
0001
,
MMMM
0100
0010
1000
MMMM
0010
0001
1000
,
MMMM
0100
0001
1000
MMMM
1000
0001
0010
,
MMMM
0100
0010
0100
MMMM
1000
0001
1000
,
MMMM
0010
0100
1000
MMMM
0001
0010
0100
,
MMMM
1000
0010
0001
MMMM
1000
0100
0001
,
MMMM
1000
0010
0100
MMMM
1000
0010
0100
,
MMMM
1000
0100
0010
MMMM
0100
1001
0000
,
0001
0000
0100
0000
0010
0000
0100
0000
0001
0000
1000
0100
MMMM
1000
0100
0000
,
1000
0000
0010
0000
0100
0000
0001
0000
0100
0000
0010
1000
MMMM
0010
1000
0000
,
0001
0000
0010
0000
0100
0000
1000
0000
0001
0000
0100
0001
MMMM
0100
0001
0000
,
1000
0000
0100
0000
1000
0000
0010
0000
0100
0000
0001
0010
MMMM
0010
0001
0000
,
1000
0010
1000
0000
MMMM
0000
0100
0000
0001
0010
0001
0000
MMMM
0000
0010
0000
,
0100
0001
0100
0000
MMMM
0000
1000
0000
0010
0100
0010
0000
MMMM
0000
0100
0000
,
1000
0100
0010
0000
0001
0010
0100
0000
1000
0010
0100
0000
0001
0100
0010
0000
,
MMMM
0000
0110
0000
0010
1000
0100
0000
MMMM
0000
0010
0001
0000
0001
1000
0000
,
1001
0000
0000
0000
,
0000
0000
0000
0000
;
#NOTES:
     dance-double:
     :
     Easy:
     5:
     :
00000000
00000000
00000000
00000000
,
00000000
00000000
00000000
00000000
,
00000000
00000000
00000000
00000000
,
00000000
00000000
00000000
00000000
,
00000000
00000000
00000000
00000000
,
00000001
00000001
00000100
00000000
,
00000001
00000010
00001000
00000000
,
00010000
00010000
01000000
00000000
,
00010000
01000000
10000000
00000000
,
10010000
00000000
00000000
00000000
,
00011000
00000000
00000000
00000000
,
00001000
00000001
00001000
00000001
,
00000100
00000010
00000100
00000000
,
00000001
00000010
00000100
00001000
,
00000010
00010000
00001000
00010000
,
00001000
00100000
01000000
10000000
,
00100000
01000000
00100000
00100000
,
10000000
01000000
00100000
00010000
,
01000000
00001000
00010000
00001000
,
00010000
00000010
00000100
00000001
,
00002002
00000000
00000000
00003003
,
00000110
00000000
00001000
00000000
,
00011000
00000000
00100000
00000000
,
01100000
00000000
00010000
00000000
,
00011000
00000000
00000100
00000000
,
00000010
00000001
00000010
00000000
,
00000001
00000100
00001000
00000000
,
00010000
01000000
00010000
00000000
,
10000000
01000000
00100000
00000000
,
10000000
01000000
10000000
01000000
,
00100000
00001000
00010000
00000000
,
00000100
00001000
00000100
00001000
,
00000001
00000010
00000001
00000000
,
00000100
00000010
00000100
00000010
,
00010000
00001000
00010000
00000000
,
00001000
00100000
01000000
00000000
,
02200000
00000000
00000000
03300000
,
10000000
00100000
10000000
00100000
,
01000000
00001000
00010000
00001000
,
00010000
00000010
00010000
00000010
,
00000100
00000001
00000010
00000000
,
00000001
00001000
00000001
00001000
,
00000100
00010000
00000100
00010000
,
00001000
00100000
00001000
00010000
,
00002000
00000000
00000000
00003000
,
00010000
00000000
00100000
00000000
,
10000000
00000000
01000000
00000000
,
00001000
00000000
00000010
00000000
,
00000001
00000000
00000100
00000000
,
00010000
00000000
01000000
00000000
,
10000000
00000000
00100000
00000000
,
00001000
00000000
00000100
00000000
,
00000002
00000000
00000000
00000003
,
00000001
00000001
00000010
00000010
,
00000100
00000100
00001000
00001000
,
00010000
00010000
00100000
00100000
,
01000000
01000000
10000000
00000000
,
10000000
10000000
00100000
00100000
,
01000000
01000000
00010000
00010000
,
00001000
00001000
00000010
00000010
,
00000100
00000100
00000001
00000000
,
00000010
00000010
00001000
00010000
,
01000000
00100000
00010000
00000000
,
01000000
01000000
00100000
00010000
,
00001000
00000100
00000001
00000000
,
00000001
00000010
00001000
00010000
,
00001000
00000100
00001000
00010000
,
00100000
00010000
00001000
00010000
,
01000000
10000000
00100000
00000000
,
10010000
00000000
00000000
00000000
,
00000000
00000000
00000000
00000000
;
#NOTES:
     dance-double:
     :
     Medium:
     9:
     :
00000000
00000000
00000000
00000000
,
00000000
00000000
00000000
00000000
,
00000000
00000000
00000000
00000000
,
00000000
00000000
00000000
00000000
,
00000000
00000000
00000000
00000000
,
10000000
01000000
00100000
00010000
,
01000000
00100000
00010000
00001000
,
00010000
00100000
00010000
00001000
,
00000100
00000010
00000001
00000010
,
00002000
00000100
00003100
00000000
,
00000002
00000100
00000103
00000000
,
00000001
00000010
00000100
00010000
,
00001000
00010000
00001000
00020000
00002000
00000000
00033000
00000000
,
00100000
00000000
00010000
00000000
10000000
01000000
00100000
00000000
,
00010000
00000000
01000000
00000000
00001000
00100000
00001000
00000000
,
00010000
00000000
00000100
00000000
00001000
00000010
00001000
00000000
,
00000001
00000000
00000100
00000000
00000001
00000010
00000100
00000000
,
00001000
00000000
00000001
00000000
00000100
00000010
00000100
00000000
,
00001000
00000000
00010000
00000000
00001000
00100000
00010000
00000000
,
00100000
00000000
01000000
00000000
10000000
00100000
01000000
00000000
,
02200000
00000000
00000000
03300000
,
10000000
01000000
00100000
00000000
,
01000000
00010000
00001000
00000000
,
00010000
00001000
00000010
00000000
,
00000001
00001000
00000001
00000000
,
00000001
00000100
00001000
00000100
,
00000010
00010000
00001000
00010000
,
01000000
10000000
00100000
01000000
,
00100000
00100000
00200000
00300000
,
10000000
10010000
01000000
01100000
,
00100000
00010000
00100000
00000000
00001000
00010000
00001000
00000000
,
00010000
00011000
00000100
00000110
,
00000001
00000010
00000100
00000000
00001000
00000010
00000100
00000000
,
00000010
00000110
00001000
00001001
,
00000100
00010000
00001000
00000000
00010000
00001000
00100000
00000000
,
00010000
10000000
01000000
00100000
00010000
01000000
00100000
00000000
,
20020000
00000000
00000000
30030000
,
00010000
00100000
01000000
00000000
01000000
10000000
00100000
00000000
,
01000000
00010000
00100000
00001000
00010000
00000000
00011000
00000000
,
00010000
00000100
00001000
00000000
00001000
00000010
00000100
00000000
,
00000001
00001000
00000100
00000010
00000001
00000000
00001001
00000000
,
00000100
00000001
00000010
00000000
00000010
00000100
00010000
00000000
,
00001000
01000000
00100000
10000000
00100000
00000000
01100000
00000000
,
10000000
00100000
10000000
00100000
01000000
00001000
00010000
00000000
,
00022000
00000000
00000000
00033000
,
00001000
00000100
00000001
00000001
,
00000010
00001000
00010000
00010000
,
01000000
10000000
00100000
00100000
,
00010000
00001000
00010000
00010000
,
00100000
10000000
01000000
01000000
,
00100000
00010000
00001000
00001000
,
00000100
00000010
00000001
00000001
,
00002002
00000000
00000000
00003003
,
00000001
00000010
00000001
00000000
00001000
00000100
00001000
00000000
,
00000010
00010000
00000010
00000000
00010000
00001000
00010000
00000000
,
00001000
01000000
00001000
00000000
01000000
00010000
01000000
00000000
,
00100000
10000000
00100000
00000000
01000000
00100000
01000000
00000000
,
00100000
10000000
00100000
00000000
01000000
00010000
01000000
00000000
,
00010000
00100000
00010000
00000000
00100000
00001000
00100000
00000000
,
00001000
00010000
00001000
00000000
00010000
00000010
00010000
00000000
,
00000010
00000100
00000010
00000000
00001000
00000001
00001000
00000000
,
00000001
00000000
00000000
00000000
00000110
00000000
00000000
00000000
00001000
00000000
00000000
00001000
00000000
00000000
00001000
00000000
,
00000100
00000000
00000000
00000000
00011000
00000000
00000000
00000000
01000000
00000000
00000000
01000000
00000000
00000000
01000000
00000000
,
00010000
00000000
00000000
00000000
01100000
00000000
00000000
00000000
10000000
00000000
00000000
10000000
00000000
00000000
10000000
00000000
,
01000000
00000000
00000000
00000000
10010000
00000000
00000000
00000000
00100000
00000000
00000000
00100000
00000000
00000000
00100000
00000000
,
10000000
01000000
00100000
00000000
01000000
00100000
00010000
00000000
,
00001000
00000100
00000010
00000000
00000100
00000010
00000001
00000000
,
00000001
00000100
00000010
00010000
00001000
00010000
00001000
01000000
,
00010000
00000000
00000000
00000000
00200000
00000000
00000000
00000000
01000000
00000000
00000000
01000000
00000000
00000000
01000000
00000000
,
00300000
00000000
00000000
00000000
,
00000000
00000000
00000000
00000000
;
#NOTES:
     dance-double:
     :
     Hard:
     13:
     :
00000000
00000000
00000000
00000000
,
00000000
00000000
00000000
00000000
,
00000000
00000000
00000000
00000000
,
00000000
00000000
00000000
00000000
,
00000000
00000000
00000000
00000000
,
00001000
00000010
00001000
00001000
,
00010000
00100000
00010000
00010000
,
00001000
00000100
00001000
00010000
,
01000000
00010000
00001000
00000000
,
00022000
00000000
00000000
00000000
,
00000000
00000000
00000000
00033000
,
00001000
00000010
00000001
00000100
00000010
00010000
00001000
00100000
,
01000000
10000000
01000000
00000000
00100000
00010000
00100000
00001000
00010000
00000000
00000000
00001000
00000000
00000000
00000010
00000000
,
00000110
00000000
00000000
00000000
00000011
00000000
00000000
00000001
00000100
00000010
00000000
00000000
00001010
00000000
00010000
00000000
,
00001000
00000000
00000000
00000000
00011000
00000000
00000000
00100000
00010000
01000000
00000000
00000000
01100000
00000000
10000000
00000000
,
00100000
00000000
00000000
00000000
10010000
00000000
00000000
01000000
00100000
00010000
00000000
00000000
00101000
00000000
00001000
00000000
,
00010000
00000000
00000000
00000000
00001010
00000000
00000000
00000100
00000001
00001000
00000000
00000000
00001001
00000000
00000100
00000010
,
00000001
00000000
00000000
00000000
00000101
00000000
00000000
00000010
00001000
00000100
00000000
00000000
00011000
00000000
00010000
00000000
,
01000000
00000000
00000000
00000000
11000000
00000000
00000000
10000000
00010000
00100000
00000000
00000000
01100000
00000000
01000000
00000000
,
00010000
00000000
00000000
00000000
00011000
00000000
00000000
00001100
00000000
00000110
00000000
00000000
00000010
00000000
00000100
00000000
,
00002002
00000000
00000000
00003003
,
00000001
00000010
00000100
00010000
00001000
00010000
00001000
00000000
,
00010000
00001000
00100000
01000000
10000000
01000000
10000000
00000000
,
10000000
00100000
01000000
00001000
00010000
00001000
00010000
00000000
,
00001000
00010000
00000010
00000100
00000001
00000100
00000001
00000000
,
00000001
00000100
00000010
00000000
00000010
00010000
00001000
00000000
,
00001000
00100000
00010000
00000000
00010000
00100000
01000000
00000000
,
10000000
01000000
00010000
00001000
00000010
00000001
00000100
00001000
,
00010000
00100000
10000000
00000000
20020000
00000000
30030000
00000000
,
00100000
00000000
10000000
00000000
01000000
00000000
00100000
00001000
00100000
00000000
00001000
00000000
00010000
00000100
00010000
00000000
,
00001000
00000010
00000001
00001000
00000100
00010000
00001000
00100000
,
01000000
00000000
10000000
00000000
00010000
00000000
01000000
00100000
01000000
00000000
10000000
00000000
01000000
00001000
01000000
00000000
,
00010000
00100000
00001000
00010000
00001000
00000100
00000001
00000000
,
00000001
00000000
00001000
00000000
00000100
00000000
00000010
00000100
00000010
00000000
00001000
00000000
00010000
00001000
00010000
00000000
,
01000000
00100000
00010000
01000000
00100000
00010000
00001000
00000100
,
00000001
00000000
00000010
00000000
00001000
00000000
00010000
01000000
00000000
01000000
00100000
00000000
00010000
00000000
00000000
00000000
,
20020000
00000000
00000000
30030000
,
10000000
00000000
00010000
00000000
01000000
00000000
00001000
00100000
00001000
00000000
00010000
00000000
00001000
01000000
00001000
00000000
,
00010000
00100000
00010000
00001000
00000100
00000010
00000100
00000001
,
00001000
00000000
00000100
00000000
00000010
00000000
00001000
00000010
00001000
00000000
00000010
00000000
00000001
00000010
00000001
00000000
,
00001000
00000010
00000100
00000000
00000010
00000000
00010000
00000000
00001000
00000000
01000000
00000000
01100000
00000000
00000000
00000000
,
10000000
00000000
00010000
00000000
01000000
00000000
00100000
00010000
00100000
00000000
10000000
00000000
01000000
00100000
01000000
00000000
,
00010000
00001000
00010000
00000000
00001000
00000000
00000010
00000001
00000010
00000000
00000001
00000000
00001000
00000000
00001000
00000000
,
00000001
00000100
00000010
00010000
00001000
01000000
00100000
20000000
,
00020000
00000000
00000000
30030000
,
00100000
00000000
00000000
01000000
00000000
00000000
00100000
00000000
00000000
00000000
01000000
00000000
00001000
00000000
00010000
00000000
,
00001000
00000000
00000000
00010000
00000000
00000000
00001000
00000000
00000000
00000000
00010000
00000000
00000100
00000000
00000100
00000000
,
00001000
00000000
00000000
00000010
00000000
00000000
00001000
00000000
00000000
00000000
00000010
00000000
00000100
00000000
00000010
00000000
,
00000100
00000000
00000000
00000001
00000000
00000000
00000100
00000000
00000000
00000000
00000001
00000000
00001000
00000000
00000001
00000000
,
00000010
00000001
00000010
00000000
00000100
00001000
00000100
00000000
,
00010000
00001000
00010000
00000000
00001000
00100000
00010000
00000000
,
10000000
00100000
01000000
00000000
00001000
00010000
00001000
00000000
,
00022000
00000000
00000000
00033000
,
00000000
00000100
00001000
00000100
00000000
00000010
00000001
00000010
,
00000000
00000001
00001000
00000100
00000000
00010000
00001000
00010000
,
00000000
00100000
10000000
00100000
00000000
10000000
01000000
10000000
,
00000000
00100000
01000000
00001000
00000000
00010000
00001000
00010000
,
00000000
00001000
00000010
00000001
00000000
00000010
00000001
00001000
,
00000000
00000001
00000100
00001000
00000000
00001000
00010000
00100000
,
00000000
10000000
00100000
01000000
00000000
00100000
01000000
00010000
,
00000000
10000000
01000000
00010000
00000000
00010000
00001000
00000010
,
00000001
00000000
00000100
00000000
00000001
00000000
00000010
00000000
00001000
00000000
00000010
00000100
00000000
00000100
00010000
00000000
,
00001000
00000000
00100000
00000000
00010000
00000000
01000000
00000000
10000000
00000000
01000000
00100000
00000000
00100000
10000000
00000000
,
01000000
00000000
00100000
00000000
00001000
00000000
00010000
00000000
00000100
00000000
00000010
00000001
00000000
00000001
00001000
00000000
,
00000001
00000000
00000100
00000000
00001000
00000000
00010000
00000000
00001000
00000000
00000010
00001000
00000000
00001000
00010000
00000000
,
01000000
00000000
10000000
00000000
00100000
01000000
00100000
00000000
10000000
00000000
01000000
00000000
00010000
00001000
00010000
00000000
,
00001000
00000000
00000010
00000000
00000001
00000100
00000001
00000000
00000010
00000000
00001000
00000000
00000010
00000100
00000010
00000000
,
00000001
00000100
00000001
00000100
00000010
00001000
00000010
00000000
00010000
00001000
00010000
00001000
00100000
00010000
00100000
00000000
,
01000000
00000000
10000000
00100000
01000000
00001000
01000000
00010000
01000000
00000000
00001000
00010000
00000000
00010000
00001000
00000000
,
00011000
00000000
00000000
00000000
,
00000000
00000000
00000000
00000000
;
#NOTES:
     dance-double:
     :
     Challenge:
     14:
     :
00000000
00000000
00000000
00000000
,
00000000
00000000
00000000
00000000
,
00000000
00000000
00000000
00000000
,
00000000
00000000
00000000
00000000
,
00000000
00000000
00000000
00000000
,
00010000
00001000
00010000
00000000
00001000
00000010
00000001
00000000
,
00000100
00000010
00001000
00000000
00000100
00000010
00000100
00000000
,
00010000
00001000
00010000
00000000
00001000
00010000
00100000
00000000
,
01000000
00100000
10000000
00000000
01000000
00010000
00001000
00000000
,
00022000
00000000
00000000
00000000
,
00000000
00000000
00000000
00000000
,
00000000
00000000
00000000
00000000
,
00000000
00000000
00000000
00000000
00000000
00033000
MMMMMMMM
00000000
,
00001000
00000000
00000000
00000000
00010100
00000000
00000000
00001000
00000100
00001000
00000000
00000000
MMMMMMMM
00000000
00000010
00000000
,
00000001
00000000
00000000
00000000
00001001
00000000
00000000
00000010
00000100
00000010
00000000
00000000
MMMMMMMM
00000000
00000010
00000000
,
00010000
00000000
00000000
00000000
00011000
00000000
00000000
00001000
00100000
00001000
00000000
00000000
MMMMMMMM
00000000
00010000
00000000
,
01000000
00000000
00000000
00000000
01100000
00000000
00000000
00100000
10000000
00100000
00000000
00000000
MMMMMMMM
00000000
01000000
00100000
,
00010000
00000000
00000000
00000000
00101000
00000000
00000000
00010000
00001000
00010000
00000000
00000000
MMMMMMMM
00000000
00001000
00000000
,
00000100
00000000
00000000
00000000
00000110
00000000
00000000
00000001
00001000
00000001
00000000
00000000
MMMMMMMM
00000000
00000100
00000000
,
00001000
00000000
00000000
00000000
00011000
00000000
00000000
00001000
00100000
00001000
00000000
00000000
MMMMMMMM
00000000
00001000
00000000
,
00022000
00000000
00000000
00000000
00000000
00033000
MMMMMMMM
00000000
,
00100000
00010000
MMMMMMMM
00000000
00100000
01000000
MMMMMMMM
00000000
,
00010000
00001000
MMMMMMMM
00000000
00000100
00000010
MMMMMMMM
00000000
,
00000100
00000001
MMMMMMMM
00000000
00000100
00001000
MMMMMMMM
00000000
,
00010000
00001000
MMMMMMMM
00000000
00010000
10000000
MMMMMMMM
00000000
,
10100000
MMMMMMMM
01010000
MMMMMMMM
,
00011000
MMMMMMMM
00001010
MMMMMMMM
,
00000001
00000010
00000100
00001000
00010000
00100000
01000000
10000000
,
00100000
00010000
00001000
00000000
00022000
00033000
MMMMMMMM
00000000
,
00001000
00000000
00100000
00000000
00010000
00000000
01000000
00100000
01000000
00000000
00100000
00000000
10000000
00000000
01000000
00000000
,
0010MMMM
MMMM1000
0001MMMM
MMMM0010
0001MMMM
MMMM1000
0010MMMM
MMMM1000
,
00010000
00000000
00000100
00000000
00001000
00000000
00000001
00000010
00000001
00000000
00000100
00000000
00000001
00000000
00001000
00000000
,
MMMM0010
0001MMMM
MMMM1000
0010MMMM
MMMM1000
0001MMMM
MMMM0010
0001MMMM
,
00001000
00000000
00010000
00000000
01000000
00000000
00100000
00010000
00100000
00000000
00001000
00000000
00010000
00000000
00001000
00000000
,
MMMM0100
MMMM1000
0001MMMM
0100MMMM
0001MMMM
MMMM1000
MMMM0010
MMMM1000
,
00010000
00000000
00001000
00000000
00000100
00000000
00000001
00000010
MMMMMMMM
00000010
00000100
00000000
00010000
00000000
00001000
00000000
,
00022000
00000000
00000000
00000000
00000000
00033000
MMMMMMMM
00000000
,
00001000
00000000
00010000
00000000
00001000
00000000
01000000
00010000
10000000
00000000
01000000
00000000
00100000
00000000
00010000
00000000
,
MMMMMMMM
0010MMMM
0001MMMM
MMMMMMMM
MMMM0100
MMMM0001
MMMMMMMM
MMMM0010
,
00000100
00000000
00000001
00000000
00001000
00000000
00000100
00000010
00000001
00000000
00001000
00000000
00000010
00000000
00010000
00000000
,
MMMMMMMM
MMMM0100
MMMM1000
MMMMMMMM
0010MMMM
0100MMMM
MMMMMMMM
1000MMMM
,
00100000
00000000
00010000
00000000
00100000
00000000
10000000
01000000
00100000
00000000
00001000
00000000
00010000
00000000
00000100
00000000
,
MMMM0010
MMMMMMMM
0001MMMM
MMMM1000
MMMMMMMM
0010MMMM
0001MMMM
MMMM1000
,
00000100
00000001
MMMMMMMM
MMMMMMMM
00010000
00001000
MMMMMMMM
MMMMMMMM
,
00022000
00000000
00000000
00000000
00000000
00033000
MMMMMMMM
00000000
,
00100000
00000000
00010000
00000000
MMMMMMMM
01000000
MMMMMMMM
01000000
,
00100000
00000000
00001000
00000000
MMMMMMMM
00001000
MMMMMMMM
00001000
,
00021000
00000000
00000000
00000100
00000000
00000000
00030010
00000000
,
00000100
00000000
00000001
00000000
MMMMMMMM
00000001
00001000
00000000
,
00000001
00000100
MMMMMMMM
00000100
00000010
00001000
MMMMMMMM
00010000
,
00001000
00100000
MMMMMMMM
00100000
00010000
10000000
MMMMMMMM
10000000
,
00100000
01000000
MMMMMMMM
01000000
00010000
00100000
MMMMMMMM
00010000
,
00022000
00000000
00000000
00000000
00000000
00033000
MMMMMMMM
00000000
,
MMMMMMMM
00000001
00001000
00000100
0001MMMM
00000010
00010000
00001000
,
MMMMMMMM
01000000
10000000
00100000
MMMMMMMM
01000000
00100000
00010000
,
MMMMMMMM
00001000
00010000
00000100
0001MMMM
00000010
00001000
00000100
,
MMMMMMMM
00000001
00000010
00001000
MMMMMMMM
00000001
00000100
00000100
,
MMMMMMMM
00000010
00000100
00001000
MMMM0100
00010000
00001000
00100000
,
MMMMMMMM
01000000
00100000
10000000
MMMMMMMM
01000000
00010000
10000000
,
MMMMMMMM
00100000
00001000
00010000
MMMM1000
01000000
00001000
00010000
,
MMMMMMMM
00001000
00000100
00000010
MMMMMMMM
00010000
00011000
00000000
,
00001000
00000000
00010000
00000000
01000000
00000000
00100000
00000000
00010000
00000000
00000000
01010000
00000000
00000000
MMMMMMMM
00000000
,
10000000
00000000
01000000
00000000
00100000
00000000
00001000
00000000
00010000
00000000
00000000
00010100
00000000
00000000
MMMMMMMM
00000000
,
00001000
00000000
00000010
00000000
00000001
00000000
00000010
00000000
00000100
00000000
00000000
00000101
00000000
00000000
MMMMMMMM
00000000
,
00000010
00000000
00010000
00000000
00001000
00000000
00010000
00000000
00100000
00000000
00000000
10100000
00000000
00000000
MMMMMMMM
00000000
,
10000000
00100000
10000000
00000000
MMMMMMMM
00000000
01000000
00000000
00010000
00100000
00010000
00000000
MMMMMMMM
00000000
00001000
00000000
,
00010000
00000100
00010000
00000000
MMMMMMMM
00000000
00000100
00000000
00000001
00000010
00000001
00000000
MMMMMMMM
00000000
00000100
00000000
,
00000010
00000001
00001000
00000000
00000100
00010000
00001000
00000000
00100000
00010000
00100000
00000000
01000000
10000000
00010000
00000000
,
MMMMMMMM
00000000
0010MMMM
00000000
0001MMMM
00000000
MMMM1000
00000000
MMMM0010
00000000
00000100
00010000
MMMMMMMM
00010000
00001000
00000000
,
00011000
00000000
00000000
00000000
,
00000000
00000000
00000000
00000000
;
