
//----- song ID: alpa -----//
#TITLE:ALPACORE;
#ARTIST:Cranky;
#BANNER:ALPACORE.png;
#BACKGROUND:ALPACORE-bg.png;
#CDTITLE:./CDTitles/DDR A20.png;
#MUSIC:ALPACORE.ogg;
#SAMPLESTART:28.796;
#SAMPLELENGTH:15;
#BPMS:0=175;
#NOTES:
     dance-single:
     :
     Beginner:
     4:
     :
0000
0000
0000
0000
,
0000
0000
0000
0000
,
0000
0000
0000
0000
,
0000
0000
0000
0000
,
0000
0000
0000
0000
,
0001
0000
0001
0000
,
0010
0000
0010
0000
,
1000
0000
0000
0000
,
0000
0000
0000
0000
,
1001
0000
0000
0000
,
0000
0000
0000
0000
,
1001
0000
0000
0000
,
0000
0000
0000
0000
,
0001
0001
0001
0001
,
0000
0000
0000
0000
,
0002
0000
0000
0000
,
0003
0000
0000
0000
,
1000
1000
1000
1000
,
0000
0000
0000
0000
,
2000
0000
0000
0000
,
3000
0000
0000
0000
,
0001
0000
0010
0000
,
0001
0000
0100
0000
,
1000
0000
0010
0000
,
1000
0000
0100
0000
,
0001
0000
1000
0000
,
0001
0000
1000
0000
,
0000
0000
0000
0000
,
0000
0000
0000
0000
,
0010
0010
0010
0000
,
0001
0001
0001
0000
,
0100
0100
0100
0000
,
1000
1000
1000
0000
,
0010
0010
0010
0000
,
0100
0100
0100
0000
,
1001
0000
0000
0000
,
0200
0000
0300
0000
,
0100
0000
0001
0000
,
0100
0000
0001
0000
,
0010
0000
1000
0000
,
0010
0000
1000
0000
,
0100
0000
1000
0000
,
0100
0000
1000
0000
,
0010
0000
0100
0000
,
0010
0000
0000
0000
,
1001
0000
0000
0000
,
1001
0000
0000
0000
,
1001
0000
0000
0000
,
0010
0010
0010
0000
,
1001
0000
0000
0000
,
1001
0000
0000
0000
,
1001
0000
0000
0000
,
0100
0100
0100
0000
,
1000
0000
0010
0000
,
1000
0000
0010
0000
,
0001
0000
0010
0000
,
0001
0000
0000
0000
,
0000
0000
0001
0000
,
0100
0000
0001
0000
,
1000
0000
0100
0000
,
1000
0000
0000
0000
,
1001
0000
0000
0000
,
1001
0000
0000
0000
,
1001
0000
0000
0000
,
1001
0000
0000
0000
,
0001
0001
0001
0000
,
1000
1000
1000
0000
,
0000
0000
0000
0000
,
0000
0000
0000
0000
,
0001
0001
0001
0000
,
0010
0010
0010
0000
,
1000
1000
1000
0000
,
0100
0100
0100
0000
,
0001
0001
0001
0000
,
1000
1000
1000
0000
,
0010
0000
0100
0000
,
0010
0010
0010
0000
,
1001
0000
0000
0000
,
0000
0000
0000
0000
;
#NOTES:
     dance-single:
     :
     Easy:
     9:
     :
0000
0000
0000
0000
,
0000
0000
0000
0000
,
0000
0000
0000
0000
,
0000
0000
0000
0000
,
0000
0000
0000
0000
,
0001
0010
0100
1000
,
0001
0010
0100
1000
,
0000
0000
0000
0000
,
0000
0000
0000
0000
,
2002
0000
0000
0000
,
0000
0000
0000
0000
,
3003
0000
0000
0000
,
0000
0000
0000
0000
,
0010
0010
0010
0000
,
0000
0000
0000
0000
,
1000
0001
1000
0001
,
1000
0000
0000
0000
,
0010
0010
0010
0000
,
0000
0000
0000
0000
,
0001
1000
0001
1000
,
0001
0000
0000
0000
,
0001
0010
0001
0010
,
0100
1000
0100
1000
,
0001
1000
0001
1000
,
0001
0100
0001
0100
,
0010
0010
1000
1000
,
0100
0100
0010
0010
,
0000
0000
0000
0000
,
0000
0000
0000
0000
,
0001
1000
0001
1000
,
0010
0000
0100
0000
0010
0000
0100
0010
,
0100
0001
0100
0001
,
1000
0000
0010
0000
1000
0010
1000
0000
,
0001
0010
0001
0010
,
0100
0000
1000
0000
0100
0000
1000
0100
,
1000
0001
0001
0001
,
1001
0000
0110
0000
,
0001
0000
1000
0000
0010
0100
0010
0000
,
1000
0000
0001
0000
0010
0100
0010
0000
,
0001
0100
1000
0100
,
0002
0003
2000
3000
,
0001
1000
0010
0100
,
0001
1000
0001
0000
1000
0001
1000
0001
,
1000
0000
1100
0000
,
0022
0000
0000
0033
,
0001
0000
1000
0000
0010
0100
0001
0000
,
1000
0000
0100
0000
0010
0001
1000
0000
,
0001
0000
0100
0000
0001
1000
0100
0000
,
0110
0000
1001
0000
,
1000
0000
0001
0000
0100
0010
1000
0000
,
0001
0000
0010
0000
0100
1000
0001
0000
,
0100
0000
0001
0000
1000
0001
0010
0000
,
0110
0000
1001
0000
,
0001
0001
1000
1000
,
0010
0010
0200
0300
,
0010
0010
1000
1000
,
0200
0300
0110
1001
,
0000
0010
0001
0001
,
0010
0010
0100
0100
,
1000
0001
1000
0001
,
0200
0000
0000
0300
,
0001
0010
1000
1001
,
1000
0010
0001
1001
,
0001
0100
1000
1001
,
1000
0100
0001
1001
,
0010
0001
0100
0110
,
0010
1000
0100
0110
,
0000
0000
0000
0000
,
0000
0000
0000
0000
,
0001
1000
0100
1000
0001
0000
0100
0000
,
0001
1000
0010
1000
0001
0000
0010
0000
,
1000
0001
0100
0001
1000
0000
0100
0000
,
1000
0001
0010
0001
1000
0000
0010
0000
,
1000
0100
1000
0100
1000
0000
0110
0000
,
0001
0100
0001
0100
0001
0000
0110
0000
,
0110
0000
1001
0000
,
1010
0011
1100
0101
,
1001
0000
0000
0000
,
0000
0000
0000
0000
;
#NOTES:
     dance-single:
     :
     Medium:
     12:
     :
0000
0000
0000
0000
,
0000
0000
0000
0000
,
0000
0000
0000
0000
,
0000
0000
0000
0000
,
0000
0000
0000
0000
,
0001
0010
0001
0000
1000
0100
1000
0000
,
0010
1000
0010
0000
0100
0001
0100
0000
,
0000
0000
0000
0000
,
0000
0000
0000
0000
,
1001
0000
0000
0000
,
0000
0000
0000
0000
,
0020
0000
0000
0000
,
0030
0000
0000
0000
,
0001
0000
0000
1000
0000
0000
0010
0000
0000
0100
0000
0000
0001
0000
1000
0000
,
0000
0000
0000
0000
,
0001
0100
0001
0000
1000
0010
0100
0000
,
1001
0000
0000
0000
,
1000
0000
0000
0001
0000
0000
0010
0000
0000
0100
0000
0000
1000
0000
0001
0000
,
0000
0000
0000
0000
,
1000
1100
0001
0101
,
0110
0000
0000
0000
,
0001
0000
0000
0010
0000
0000
0100
0000
0000
1000
0000
0000
1001
0000
0000
0000
,
1000
0000
0000
0010
0000
0000
0100
0000
0000
0001
0000
0000
1001
0000
0000
0000
,
0001
0000
0000
0100
0000
0000
0010
0000
0000
1000
0000
0000
1001
0000
0000
0000
,
1000
0000
0000
0100
0000
0000
0010
0000
0000
0001
0000
0000
1001
0000
0000
0000
,
1000
0000
0000
0010
0000
0000
0100
0000
0001
0000
0000
0010
0000
0000
0100
0000
,
1000
0000
0000
0010
0000
0000
0100
0000
0001
0000
0000
0010
0000
0000
0100
0000
,
0000
0000
0000
0000
,
0000
0000
0000
0000
,
0001
1000
0001
1000
0010
1000
0010
0100
,
0001
0100
0001
0100
0010
1000
0010
0010
,
1000
0100
1000
0100
0010
0100
0010
0100
,
0010
0001
1000
0001
1000
1000
1000
1000
,
0010
0100
0010
0100
0001
1000
0001
1000
,
0100
0010
0100
1000
0001
0010
0100
0100
,
0110
0000
1000
0001
0010
0010
0010
0000
,
0110
1000
1010
0001
,
0011
0000
0110
0000
1000
0100
1000
0100
,
0110
0000
0011
0000
0001
0100
0001
0100
,
0110
0000
1001
0000
0010
0100
0010
0100
,
0002
0023
0230
2300
,
3001
0100
0010
0100
0001
0100
0010
0100
,
0001
0001
0001
0000
1000
1000
0100
1000
,
1100
0010
0011
0100
,
0110
1001
0110
1001
,
1000
0000
0000
0010
0000
0000
0100
0000
0001
0000
0000
0000
0010
0000
0100
0000
,
1000
0000
0000
0001
0000
0000
0100
0000
0001
0000
0000
0000
0010
0000
0100
0000
,
0010
0000
0000
0001
0000
0000
0100
0000
0010
0000
0000
0000
1000
0000
0010
0000
,
1000
0001
1000
0000
0110
0000
1001
0000
,
0001
0000
0000
0100
0000
0000
0010
0000
1000
0000
0000
0000
0100
0000
0010
0000
,
0001
0000
0000
1000
0000
0000
0010
0000
1000
0000
0000
0000
0100
0000
0010
0000
,
0100
0000
0000
1000
0000
0000
0010
0000
0100
0000
0000
0000
0001
0000
0100
0000
,
0110
1001
1010
0101
,
1000
1010
0010
0011
,
1000
1100
0100
0101
,
0001
0011
0010
1010
,
1002
0000
0100
0103
,
0000
0110
1010
1010
,
0101
0101
1001
1001
,
0100
0110
1001
1001
,
0020
0100
0100
0130
,
0010
1000
0000
0010
1000
0000
0000
0000
0100
0000
0000
0000
0100
0000
0000
0000
,
0010
0001
0000
0010
0001
0000
0000
0000
0100
0000
0000
0000
0100
0000
0000
0000
,
0001
1000
0000
0001
1000
0000
0000
0000
0010
0000
0000
0000
0010
0000
0000
0000
,
1000
0001
0000
1000
0001
0000
0000
0000
0010
0000
0000
0000
0010
0000
0000
0000
,
0001
0010
1000
0000
0001
0100
1000
0000
,
1000
0010
0001
0000
1000
0100
0001
0000
,
0000
0000
0000
0000
,
0000
0000
0000
0000
,
0001
0100
0000
0001
0100
0000
0001
0100
0000
0001
0100
0000
0001
0000
0000
0000
,
1000
0100
0000
1000
0100
0000
1000
0100
0000
1000
0100
0000
1000
0000
0000
0000
,
0001
0010
0000
0001
0010
0000
0001
0010
0000
0001
0010
0000
0001
0000
0000
0000
,
1000
0010
0000
1000
0010
0000
1000
0010
0000
1000
0010
0000
1000
0000
0000
0000
,
0001
1000
0000
0001
1000
0000
0001
1000
0001
0000
0000
0000
1001
0000
0000
0000
,
0100
0010
0000
0100
0010
0000
0100
0010
0100
0000
0000
0000
0110
0000
0000
0000
,
0001
0010
0000
0100
1000
0000
0000
0000
0010
1000
0000
0001
0100
0000
0000
0000
,
0001
1000
0000
0010
0100
0000
0001
1000
0001
0000
0000
0000
1000
0000
0000
0000
,
1001
0000
0000
0000
,
0000
0000
0000
0000
;
#NOTES:
     dance-single:
     :
     Hard:
     16:
     :
0000
0000
0000
0000
,
0000
0000
0000
0000
,
0000
0000
0000
0000
,
0000
0000
0000
0000
,
0000
0000
0000
0000
,
0001
0010
0001
0000
1000
0010
1000
0000
0001
0100
0001
0000
1000
0100
1000
0000
,
0001
0010
0001
0000
1000
0010
1000
0000
0001
0100
0001
0000
1000
0100
1000
0000
,
0000
0000
0000
0000
,
0000
0000
0000
0000
,
0220
0000
0000
0000
,
0000
0000
0000
0330
,
2002
0000
0000
0000
,
3003
0000
0000
0000
,
0001
0010
0000
0001
0100
0000
0001
1000
0000
0001
0100
0000
0010
0000
1000
0000
,
0002
0000
0000
0000
0000
0000
0000
0000
0000
0000
0000
0000
0003
0000
1000
0100
,
1000
0000
0001
0000
1000
0000
0100
0010
0100
0010
0000
0001
0100
0000
0010
1000
,
0002
0000
0000
0003
,
1000
0010
0000
1000
0100
0000
1000
0001
0000
1000
0100
0000
0010
0000
0001
0000
,
2000
0000
0000
0000
0000
0000
0000
0000
0000
0000
0000
0000
3000
0000
0001
0100
,
0001
0010
0100
0010
0100
1000
0001
0100
1000
0100
0001
1000
,
0002
0000
0000
0003
,
1000
0100
0000
1000
0001
0000
1000
0010
0000
1000
0001
0000
1000
0000
0001
0000
,
1000
0010
0000
1000
0001
0000
1000
0100
0000
1000
0001
0000
0100
0000
0100
0000
,
0001
0100
0000
0001
1000
0000
0001
0010
0000
0001
1000
0000
0001
0000
1000
0000
,
0001
0010
0000
0001
1000
0000
0001
0100
0000
0001
1000
0000
0010
0000
0010
0000
,
1000
0010
0000
1000
0010
0000
0100
0001
0010
0001
0000
0010
0001
0000
0010
0100
,
1000
0100
0000
1000
0100
0000
0010
0001
0100
0001
0000
0100
0001
0000
0100
0010
,
0000
0000
0000
0000
,
0000
0000
0000
0000
,
1000
0010
1000
0000
0001
0100
0001
0000
1000
0010
1000
0000
0001
0100
0001
0000
,
1000
0100
1000
0000
0001
0010
0001
0000
1000
0100
1000
0000
0001
0010
0001
0010
,
0100
1000
0100
0000
1000
0100
1000
0000
0001
0100
0001
0000
0100
0001
0100
0000
,
0010
0000
1000
0000
0100
0000
0001
0000
0100
0000
0010
0000
0100
0000
0100
0010
,
0100
0000
0010
0100
0010
0000
0001
1000
0001
0000
1000
0001
1000
0000
0010
0100
,
0010
0000
0100
0010
0100
0000
0001
1000
0001
0000
1000
0001
1000
0000
0001
0000
,
0110
0000
0000
0000
1000
0100
0010
0000
0001
0000
0001
0000
1000
0000
0000
0000
,
1001
0000
0000
0000
0100
0000
0000
0100
0010
0000
0000
0000
0110
0000
0000
0000
,
0001
1000
0001
0000
1000
0100
1000
0100
0010
0100
0010
0000
0110
0000
0001
0000
,
1001
0000
1001
0000
1001
0000
0000
0000
0001
0010
0100
0000
1000
0100
0010
0000
,
0001
0100
0001
0000
1001
1001
0110
0110
,
0010
1000
0100
0000
0010
0001
0100
0000
0010
1000
0100
0000
0010
0100
0010
0100
,
0010
0001
0010
0000
0001
1000
0001
0000
1000
0010
1000
0000
0010
0100
0010
0100
,
0010
0000
0010
0000
0110
0000
0000
0000
1000
0010
0100
0000
0001
0000
0001
0000
,
1000
0000
0000
0000
0100
0000
0000
0100
0010
0000
0000
0000
0001
0000
0000
0001
,
1000
0100
1000
0100
0010
0000
0001
0000
0100
0000
0010
0000
1001
0000
0000
0000
,
0010
1000
0000
0010
0100
0000
0010
1000
0010
0000
1000
0000
0001
0000
0000
0000
,
0010
0001
0000
0010
0100
0000
0010
0001
0010
0000
0001
0000
1000
0000
0000
0000
,
0010
1000
0000
0010
0100
0000
0010
1000
0010
0000
1000
0000
0100
0000
0010
0000
,
0110
0000
0110
0000
0110
0000
0000
0000
0110
0000
0000
0000
1001
0000
0100
0001
,
0100
0001
0000
0100
0010
0000
0100
0001
0100
0000
0001
0000
1000
0000
0000
0000
,
0100
1000
0000
0100
0010
0000
0100
1000
0100
0000
1000
0000
0001
0000
0000
0000
,
0100
0001
0000
0100
0010
0000
0100
0001
0100
0000
0001
0000
0010
0000
0100
0000
,
0110
0000
0000
1000
0000
0000
1001
0000
0001
1000
0001
1000
,
0001
0011
1100
1100
,
0001
0010
0100
1000
0010
0100
0002
0000
1003
0002
0000
1003
,
0001
0011
1010
0011
,
2000
0000
0000
0000
0000
0000
3001
0000
0100
0010
0100
0010
,
0000
1010
0101
1001
,
0001
0010
0100
0010
0100
1000
0010
1000
0001
1000
0001
0100
,
0001
0000
0000
0000
0000
0000
0000
0000
0000
0000
0000
0000
1000
0000
0000
0000
0000
0000
1000
0000
0000
0100
0000
0000
1000
0000
0000
0000
0000
0000
0000
0000
0000
0000
0000
0000
0010
0000
0000
0000
0100
0000
0000
0000
0010
0000
0000
0000
,
0200
0000
0000
0300
,
0001
0010
0000
0010
0100
0000
0100
1000
0000
1000
0001
0000
1001
0000
0000
0000
,
1000
0010
0000
0010
0100
0000
0100
0001
0000
0001
1000
0000
1001
0000
0000
0000
,
0001
0100
0000
0100
0010
0000
0010
1000
0000
1000
0001
0000
1001
0000
0000
0000
,
1000
0100
0000
0100
0010
0000
0010
0001
0000
0001
1000
0000
1001
0000
0000
0000
,
1000
0000
0010
0100
0001
0000
1000
0010
0100
0000
0001
1000
0010
0000
0000
0000
,
1000
0000
0100
0010
0001
0000
1000
0100
0010
0000
0001
1000
0100
0000
0000
0000
,
0000
0000
0000
0000
,
0000
0000
0000
0000
,
0001
0100
0000
0010
0100
0000
0010
1000
0100
0010
0100
0000
0010
0000
0001
0000
,
1000
0010
0000
0100
0010
0000
0100
0001
0010
0100
0010
0000
0100
0000
0010
0000
,
0001
0010
0000
0100
1000
0000
0010
0100
0001
0010
0100
0000
1000
0000
0001
0000
,
1000
0000
0000
0000
0001
0000
0010
0001
1000
0000
0000
0000
1001
0000
0001
0000
,
1000
0100
1000
0000
0010
0000
0100
0001
0100
0010
0000
0010
1000
0000
0001
0000
,
1000
0100
0000
0010
0001
0000
0100
0010
1000
0001
1000
0000
0010
0000
0100
0000
,
0001
0010
0001
0010
0100
1000
0100
1000
0001
0010
0001
0010
0100
1000
0100
1000
,
0001
0000
0010
0100
1000
0000
0010
0100
0001
0010
0001
0010
0100
0010
0100
1000
,
0001
0000
0000
0000
,
0000
0000
0000
0000
;
#NOTES:
     dance-single:
     :
     Challenge:
     17:
     :
0000
0000
0000
0000
,
0000
0000
0000
0000
,
0000
0000
0000
0000
,
0000
0000
0000
0000
,
0000
0000
0000
0000
,
1000
0010
1000
0000
0100
0001
0100
0000
0010
1000
0010
0000
0001
0100
0001
0000
,
1000
0100
1000
0100
0010
0001
1000
0010
0100
0001
0100
0001
0010
0100
1000
0001
,
0200
0000
0000
0000
,
1000
0000
0000
0000
0001
0000
0000
0000
0310
0000
1000
0100
0010
0000
0000
0000
,
0220
0000
0000
0000
,
0000
0000
0000
0330
,
1001
0000
0000
0000
,
0000
0000
0000
0000
,
0001
0010
0000
1000
0010
0000
0001
0100
0000
1000
0001
0000
0010
0000
0100
0000
,
0210
0000
0000
0000
0000
0000
0000
0000
0000
0000
0000
0000
0000
0000
0310
1000
,
0100
0000
0110
0000
0011
0000
0100
1000
0100
0001
0000
0100
0010
0000
0001
0100
,
1000
0000
0000
0000
,
1000
0010
0000
0001
0010
0000
1000
0100
0000
0001
1000
0000
0010
0000
0100
0000
,
0210
0000
0000
0000
0000
0000
0000
0000
0000
0000
0000
0000
0000
0000
0310
0001
,
0100
0100
0010
1000
0100
0100
1000
0010
0001
0010
0100
0001
,
1001
0000
0000
0000
,
1000
0010
0000
0010
0001
0000
0001
0010
0000
0010
0000
0010
0100
0000
0110
0000
,
1000
0100
0000
0100
0001
0000
0001
0100
0000
0100
0010
0000
0011
0000
0001
0000
,
1000
0100
0000
0100
1000
0000
1000
0010
0000
0100
0000
0001
0010
0000
0011
0000
,
0010
0001
0000
0001
0010
0000
0010
0100
0000
0100
0010
0000
0011
0000
1001
0000
,
1000
0010
0000
1000
0100
0000
0011
0000
1000
0100
0000
0010
0001
0000
1010
0000
,
0001
0100
0000
0001
0010
0000
1100
0000
0100
0010
0000
0001
1000
0000
0110
0000
,
0000
0000
0000
0000
,
0010
0100
0010
1001
,
0010
0001
0100
0000
0010
1000
0100
0000
0010
0001
0100
0000
0010
1000
0100
0000
,
0010
0001
1000
0000
0100
1000
0001
0000
0100
0010
0100
0000
0110
0000
0110
0000
,
0100
0001
0010
0000
0100
1000
0010
0000
0100
0001
0010
0000
0100
1000
0010
0000
,
0200
0000
0301
0000
0020
0000
1030
0000
0110
0000
0110
0000
0100
0000
1000
0010
,
0001
0000
0010
0100
0010
0000
1000
0010
0100
0000
0001
0010
0100
0000
1000
0001
,
0100
0000
0001
0010
0100
0000
0010
0100
1000
0000
0001
0100
1000
0000
0100
0000
,
0101
0000
0000
0000
0010
1000
0100
0000
0010
0000
0100
0000
0110
0000
0000
0000
,
2002
3003
0220
0330
,
1000
0100
1000
0000
0001
0100
0001
0000
1000
0010
1000
0000
0001
0010
0001
0000
,
1010
0000
0101
0000
1001
0000
0000
0000
0001
0010
0001
0000
1000
0100
1000
0000
,
0010
0100
0010
0100
0001
0010
0100
0000
1000
0100
1000
0100
0010
0001
0100
0000
,
0010
1000
0010
0000
0100
0001
0100
0000
0010
0100
0010
0000
1000
0001
1000
0000
,
0001
0010
0001
0000
1000
0010
1000
0000
0001
0100
0001
0000
1000
0100
1000
0000
,
0101
0000
1010
0000
1001
0000
0000
0000
1000
0100
1000
0000
0110
0000
0110
0000
,
0100
0010
0100
0010
1000
0100
0010
0000
0001
0010
0001
0010
0100
1000
0010
0000
,
0100
0001
0100
0010
1000
0001
0010
0100
1000
0001
0100
0010
1000
0001
1000
0100
,
0010
0001
0000
0010
0001
0000
0100
0000
0010
1000
0010
0100
0001
0000
0010
0000
,
0100
1000
0000
0100
0010
0000
0001
0000
1000
0010
0100
0001
1000
0000
0010
0000
,
0100
0010
0000
1000
0001
0000
0100
0000
0010
1000
0001
0100
0010
0000
0100
0000
,
1010
0011
0101
0000
1100
0000
0110
1001
,
0010
1000
0000
0100
0010
0000
0001
0010
0100
1000
0010
0000
0100
0000
0010
0000
,
0100
0010
0000
1000
0001
0000
0010
0001
0010
0100
1000
0000
0001
0000
1000
0000
,
0010
0100
0000
0001
0010
0000
0100
1000
0010
0100
0001
0000
1000
0000
0010
1000
,
1010
0000
0000
0101
0000
0000
0110
0000
1001
0001
1000
0001
,
2000
0000
3000
2000
0000
3000
0002
0000
0003
0002
0000
0003
,
0010
0001
0001
0010
0100
0100
1000
0000
0001
1000
0000
0001
,
0100
0010
0010
0100
1000
1000
0100
0010
0010
0100
0001
0001
,
0020
0000
0000
0000
0000
0000
0000
0000
0000
0000
0000
0000
0000
0000
0000
0000
0000
0000
0000
0000
0000
0130
0000
0000
0010
0000
0000
0000
0000
0000
0100
0000
1000
0000
0100
0000
1000
0000
0000
0000
0010
0000
0000
0000
0100
0000
0000
0000
,
0000
0000
0000
1001
0010
0010
0100
0001
0001
0010
0100
0100
,
1000
0001
0001
1000
0010
0010
1000
0100
0100
0010
0001
0001
,
1001
0000
0000
0000
0100
0000
1000
0001
1000
0000
0000
0000
1000
0010
0100
0001
,
0020
0000
0030
1001
,
0001
0100
0000
0100
1000
0000
1000
0100
0000
0100
0000
0100
0010
0000
0110
0000
,
0001
0010
0000
0010
1000
0000
1000
0010
0000
0010
0100
0000
1100
0000
1000
0000
,
0001
0010
0000
0010
0001
0000
0001
0100
0000
0010
0000
1000
0100
0000
1100
0000
,
0100
1000
0000
1000
0100
0000
0100
0010
0000
0010
0100
0000
1100
0000
1001
0000
,
0001
0100
0000
0001
0010
0000
1100
0000
0001
0010
0000
0001
0022
0000
0033
0000
,
1000
0010
0000
1000
0100
0000
0011
0000
0010
0100
0000
1000
2002
0000
3003
0000
,
0000
0000
0000
0000
,
0000
0000
0000
0110
,
0010
0100
0010
1000
0100
0000
0010
0000
0001
0010
0001
0000
0011
0000
1001
0000
,
0010
0100
0010
0001
0100
0000
0010
0000
1000
0010
1000
0000
1010
0000
1001
0000
,
0001
0100
0010
1000
0010
0000
0100
0000
0001
0100
0010
0000
1010
0000
0110
0000
,
0010
1000
0100
0000
1001
0000
0000
1000
1001
0000
0000
0000
0011
0000
1100
0000
,
0100
0010
0100
1000
0010
0000
0100
0000
0101
0000
0000
0000
1000
0010
0100
0001
,
0100
0010
0100
0001
0010
0000
0100
0000
1000
0100
1000
0000
1100
0000
1001
0000
,
0001
0010
0001
0010
0100
1000
0100
1000
0010
1000
0010
1000
0001
0100
0001
0100
,
0010
0000
0100
0001
0010
0000
0100
1000
0010
0100
0001
0010
0100
1000
0010
0100
,
0010
0000
0000
0000
,
0000
0000
0000
0000
;
#NOTES:
     dance-double:
     :
     Easy:
     9:
     :
00000000
00000000
00000000
00000000
,
00000000
00000000
00000000
00000000
,
00000000
00000000
00000000
00000000
,
00000000
00000000
00000000
00000000
,
00000000
00000000
00000000
00000000
,
10000000
01000000
00100000
00010000
,
00001000
00000100
00000010
00000001
,
00000000
00000000
00000000
00000000
,
00000000
00000000
00000000
00000000
,
00002002
00000000
00000000
00000000
,
00000000
00000000
00000000
00000000
,
00003003
00000000
00000000
00000000
,
00000000
00000000
00000000
00000000
,
00000010
00000010
00000010
00000010
,
00000000
00000000
00000000
00000000
,
00001000
00010000
00001000
00010000
,
00001000
00000000
00000000
00000000
,
00100000
00100000
00100000
00100000
,
00000000
00000000
00000000
00000000
,
00010000
00001000
00010000
00001000
,
00010000
00000000
00000000
00000000
,
00000010
00000001
00000010
00000001
,
00000100
00001000
00000100
00001000
,
00010000
00100000
00010000
00100000
,
10000000
01000000
10000000
01000000
,
00100000
00010000
00100000
00001000
,
00010000
00000100
00001000
00000100
,
00000000
00000000
00000000
00000000
,
00000000
00000000
00000000
00000000
,
00000001
00001000
00000010
00000100
,
00001000
00010000
00001000
00000000
00010000
00001000
00010000
00000000
,
01000000
10000000
00010000
00100000
,
01000000
10000000
00200000
00300000
,
10000000
00010000
00100000
01000000
,
00010000
00001000
00010000
00000000
00001000
00010000
00001000
00000000
,
00000200
00000300
00000001
00001000
,
00000020
00000030
00000200
00000300
,
00000001
00001000
00000100
00010000
,
00001000
00010000
00001000
00000000
00100000
00000000
00010000
00000000
,
10000000
00000000
00100000
00000000
01000000
00001000
00010000
00000000
,
00002000
00003000
00020000
00030000
,
00000010
00000100
00000001
00000010
,
00001000
00000001
00000100
00001000
,
00001001
00000000
00000110
00000000
,
00010000
00010000
00010000
00000000
,
00100000
10000000
00010000
00000000
10000000
00000000
01000000
00000000
,
00100000
00010000
01000000
00000000
00100000
00000000
01000000
00000000
,
00001000
00010000
00001000
00000000
00010000
00000000
00001000
00000000
,
00022000
00000000
00033000
00000000
,
00000010
00000001
00001000
00000000
00000001
00000000
00000100
00000000
,
00000010
00001000
00000100
00000000
00000010
00000000
00000100
00000000
,
00010000
00001000
00010000
00000000
00001000
00000000
01000000
00000000
,
00100000
00100000
01100000
00000000
,
10000000
01000000
00010000
00010000
,
00001000
00000100
00000001
00000001
,
00000010
00001000
00010000
00001000
,
00000100
00000000
00000110
00001001
,
00000000
00000001
00000010
00000010
,
00001000
00010000
00100000
00100000
,
10000000
01000000
00010000
00001000
,
00020000
00001000
00031000
00000000
,
00010000
01000000
10000000
10010000
,
10000000
00100000
00010000
00011000
,
00001000
00000100
00000001
00001001
,
00000001
00000010
00001000
00011000
,
00010000
01000000
00010000
00000000
01000000
10000000
01000000
00000000
,
10000000
00100000
01000000
00000000
00001000
00010000
00000100
00000000
,
00000000
00000000
00000000
00000000
,
00000000
00000000
00000000
00000000
,
00000010
00000100
00000010
00000100
00000010
00000000
00001001
00000000
,
00000100
00000010
00000100
00000010
00000100
00000000
00001001
00000000
,
00000100
00010000
00001000
00010000
00001000
00000000
00011000
00000000
,
00010000
00001000
00100000
00001000
00100000
00000000
10010000
00000000
,
01000000
10000000
00100000
00000000
00010000
00000000
00011000
00000000
,
00000100
00000001
00000010
00000000
00001000
00000000
00011000
00000000
,
00010000
00100000
00010000
00000000
00001000
00000010
00001000
00000000
,
00010000
01000000
00010000
00001000
,
00000100
00000000
00000000
00000000
,
00000000
00000000
00000000
00000000
;
#NOTES:
     dance-double:
     :
     Medium:
     12:
     :
00000000
00000000
00000000
00000000
,
00000000
00000000
00000000
00000000
,
00000000
00000000
00000000
00000000
,
00000000
00000000
00000000
00000000
,
00000000
00000000
00000000
00000000
,
10000000
01000000
10000000
00000000
00010000
00100000
00001000
00000000
,
00010000
00001000
00010000
00000000
00000100
00001000
00000001
00000000
,
00000000
00000000
00000000
00000000
,
00000000
00000000
00000000
00000000
,
00001001
00000000
00000000
00000000
,
00000000
00000000
00000000
00000000
,
00022000
00000000
00000000
00000000
,
00033000
00000000
00000000
00000000
,
00100000
00000000
00000000
10000000
00000000
00000000
01000000
00000000
00000000
00100000
00000000
00000000
00010000
00000000
10000000
00000000
,
00000000
00000000
00000000
00000000
,
00000001
00000100
00001000
00000000
00001000
00000100
00000001
00000000
,
00001001
00000000
00000000
00000000
,
00000010
00000000
00000000
00001000
00000000
00000000
00000100
00000000
00000000
00000010
00000000
00000000
00000001
00000000
00001000
00000000
,
00000000
00000000
00000000
00000000
,
00100000
10100000
00010000
01010000
,
01100000
00000000
00000000
00000000
,
00100000
00000000
00000000
10000000
00000000
00000000
00010000
00000000
00000000
01000000
00000000
00000000
00100000
00000000
10000000
00000000
,
01000000
00000000
00000000
00010000
00000000
00000000
00001000
00000000
00000000
00010000
00000000
00000000
00000100
00000000
00001000
00000000
,
00000100
00000000
00000000
00000010
00000000
00000000
00000001
00000000
00000000
00001000
00000000
00000000
00000001
00000000
00000100
00000000
,
00000010
00000000
00000000
00010000
00000000
00000000
00001000
00000000
00000000
00010000
00000000
00000000
01000000
00000000
00100000
00000000
,
00010000
00000000
00000000
00010000
00000000
00000000
01000000
00000000
00100000
00000000
00000000
00100000
00000000
00000000
00010000
00000000
,
00001000
00000000
00000000
00001000
00000000
00000000
00000100
00000000
00000010
00000000
00000000
00000010
00000000
00000000
00001000
00000000
,
00000000
00000000
00000000
00000000
,
00000000
00000000
00000000
00000000
,
00000001
00000010
00000001
00000010
00000100
00001000
00000010
00000100
,
00000001
00000100
00000010
00001000
00000100
00010000
00001000
00010000
,
00001000
00000010
00001000
00000010
00001000
00010000
01000000
00010000
,
01000000
00100000
00001000
00010000
00000010
00010000
00001000
00001000
,
00010000
01000000
00010000
01000000
10000000
00100000
10000000
00100000
,
01000000
00010000
10000000
01000000
00100000
00010000
01000000
00010000
,
00100000
00001000
00010000
00001000
00010000
00000100
00010000
00001000
,
00011000
00100000
00011000
00000010
,
00000101
00000000
00000011
00000000
00000100
00001000
00000100
00001000
,
00001010
00000000
00011000
00000000
01000000
00010000
01000000
00010000
,
01010000
00000000
01100000
00000000
00010000
00100000
00010000
00100000
,
01100000
11000000
00110000
00011000
,
00001100
00000000
00001010
00000000
00000100
00000001
00000100
00000001
,
00000011
00000000
00001010
00000000
00000100
00010000
00001000
00010000
,
00011000
00100000
00110000
10000000
,
01000000
00010000
00001000
00000010
00000001
00000000
00001001
00000000
,
00000100
00000000
00000000
00000001
00000000
00000000
00000010
00000000
00000100
00000000
00000000
00000000
00001000
00000000
00000010
00000000
,
00000100
00000000
00000000
00001000
00000000
00000000
00010000
00000000
00100000
00000000
00000000
00000000
01000000
00000000
00010000
00000000
,
00100000
00000000
00000000
01000000
00000000
00000000
10000000
00000000
00010000
00000000
00000000
00000000
01000000
00000000
00100000
00000000
,
01000000
01000000
01000000
00000000
01100000
00000000
10010000
00000000
,
01000000
00000000
00000000
10000000
00000000
00000000
00100000
00000000
01000000
00000000
00000000
00000000
00010000
00000000
00100000
00000000
,
01000000
00000000
00000000
00010000
00000000
00000000
00001000
00000000
00000010
00000000
00000000
00000000
00000100
00000000
00001000
00000000
,
00000010
00000000
00000000
00000100
00000000
00000000
00000001
00000000
00001000
00000000
00000000
00000000
00000100
00000000
00000010
00000000
,
00000001
00000101
00000110
00001010
,
00000100
00000100
00011000
00011000
,
01000000
01000000
00100000
01000000
,
01010000
01010000
00110000
00110000
,
00011000
00000000
00010100
00101000
,
00000000
01100000
11000000
11000000
,
10100000
10100000
00110000
00011000
,
00000100
00000110
00000011
00000011
,
00000200
00000010
00000010
00000310
,
00000001
00000010
00000000
00000001
00000010
00000000
00000000
00000000
00000100
00000000
00001000
00000000
00000010
00000000
00000000
00000000
,
00010000
00001000
00000000
00010000
00001000
00000000
00000000
00000000
00010000
00000000
00001000
00000000
00100000
00000000
00000000
00000000
,
01000000
10000000
00000000
01000000
10000000
00000000
00000000
00000000
00010000
00000000
10000000
00000000
00100000
00000000
00000000
00000000
,
01000000
00010000
00000000
01000000
00010000
00000000
00000000
00000000
00100000
00000000
00001000
00000000
00010000
00000000
00000000
00000000
,
00001000
00000100
00000001
00000010
00001000
00000000
00011000
00000000
,
00010000
01000000
10000000
00100000
00010000
00000000
00011000
00000000
,
00000000
00000000
00000000
00000000
,
00000000
00000000
00000000
00000000
,
00010000
00000010
00000000
00010000
00000010
00000000
00000100
00000000
00000010
00000000
00010000
00000000
00001000
00000000
00010000
00000000
,
00001000
00100000
00000000
00001000
00100000
00000000
01000000
00000000
00100000
00000000
00001000
00000000
00010000
00000000
00001000
00000000
,
00010000
00000100
00000000
00010000
00000100
00000000
00000010
00000000
00000100
00000000
00010000
00000000
00001000
00000000
00010000
00000000
,
00001000
01000000
00000000
00001000
01000000
00000000
00100000
00000000
01000000
00000000
00001000
00000000
00010000
00000000
00000000
00000000
,
00010000
01000000
00010000
00001000
00100000
01000000
10000000
00100000
,
00010000
00001000
00010000
00000100
00001000
00000001
00000010
00000100
,
00010000
00001000
00010000
00000000
00000010
00000000
00000000
00000000
00010000
00001000
00010000
00000000
00000100
00000000
00000000
00000000
,
00001000
00000100
00000010
00000001
00000100
00000010
00001000
00010000
,
01000000
00000000
00000000
00000000
,
00000000
00000000
00000000
00000000
;
#NOTES:
     dance-double:
     :
     Hard:
     16:
     :
00000000
00000000
00000000
00000000
,
00000000
00000000
00000000
00000000
,
00000000
00000000
00000000
00000000
,
00000000
00000000
00000000
00000000
,
00000000
00000000
00000000
00000000
,
10000000
00010000
10000000
00000000
01000000
00000000
00100000
00000000
00001000
00010000
00001000
00000000
00010000
00000000
00000100
00000000
,
00000010
00000100
00000010
00000000
00000001
00000000
00001000
00000000
00000010
00000100
00000010
00000000
00010000
00000000
00001000
00000000
,
00000000
00000000
00000000
00000000
,
00000000
00000000
00000000
00000000
,
00022000
00000000
00000000
00000000
,
00000000
00000000
00000000
00000000
,
00033000
00000000
00000000
00000000
,
00000000
00000000
00000000
00000000
,
00100000
10000000
00000000
01000000
10000000
00000000
00010000
00100000
00000000
00010000
01000000
00000000
00001000
00000000
00010000
00000000
,
00002000
00000000
00000000
00000000
00000000
00000000
00000000
00000000
00000000
00000000
00000000
00000000
00003000
00000000
00010000
00000100
,
00000010
00000000
00000001
00000000
00000100
00000000
00000010
00010000
00001000
00010000
00000000
00001000
01000000
00000000
00001000
00000000
,
00010000
00000000
00000000
00000000
,
00000010
00000001
00000000
00000100
00000001
00000000
00001000
00000010
00000000
00001000
00000100
00000000
00010000
00000000
00001000
00000000
,
00020000
00000000
00000000
00000000
00000000
00000000
00000000
00000000
00000000
00000000
00000000
00000000
00030000
00000000
00100000
10000000
,
00100000
01000000
00001000
00010000
00001000
00010000
00000100
00001000
00000001
00000010
00000100
00010000
,
00002000
00000000
00000000
00003000
,
00010000
00100000
00000000
00100000
01000000
00000000
01000000
00010000
00000000
00010000
10000000
00000000
01000000
00000000
00100000
00000000
,
00010000
01000000
00000000
01000000
00100000
00000000
00100000
00010000
00000000
00010000
00001000
00000000
00010000
00000000
00001000
00000000
,
00000010
00000001
00000000
00000001
00001000
00000000
00001000
00000010
00000000
00000010
00000100
00000000
00000001
00000000
00001000
00000000
,
00000001
00000100
00000000
00000100
00001000
00000000
00001000
00010000
00000000
00010000
00000010
00000000
00010000
00000000
00001000
00000000
,
00100000
00010000
00000000
00100000
00010000
00000000
01000000
00000000
00100000
10000000
00000000
00100000
10000000
00000000
01000000
00000000
,
00010000
00001000
00000000
00010000
00001000
00000000
00000010
00000000
00000001
00000100
00000000
00000001
00000100
00000000
00000010
00000000
,
00000000
00000000
00000000
00000000
,
00000000
00000000
00000000
00000000
,
10000000
00100000
10000000
00000000
01000000
00000000
00100000
00000000
00010000
01000000
00010000
00000000
10000000
00000000
00100000
00000000
,
01000000
00001000
01000000
00000000
00001000
00010000
00001000
00000000
00010000
00000010
00010000
00000000
00000010
00000000
00001000
00000000
,
00000001
00000010
00000001
00000000
00001000
00000000
00000010
00000000
00000100
00000001
00000100
00000000
00000001
00000000
00000010
00000000
,
00000100
00010000
00000100
00000000
00010000
00001000
00010000
00000000
00001000
00100000
00001000
00000000
00100000
00000000
00010000
00000000
,
10000000
01000000
00100000
00000000
01000000
10000000
00010000
00000000
01000000
00001000
00010000
00000000
00001000
00000000
00010000
00000000
,
00000010
00001000
00000001
00000000
00000010
00000001
00001000
00000000
00000010
00000100
00000010
00000000
00001000
00000000
00000001
00000000
,
00001001
00000000
00000000
00000000
00000001
00000100
00000010
00000000
00010000
00001000
00010000
00000000
00001000
01000000
00100000
00000000
,
01100000
10000000
10010000
01000000
,
10000000
00000000
01000000
00000000
00100000
01000000
00100000
01000000
00100000
01000000
00100000
00000000
00010000
00000000
01000000
00000000
,
00001000
00000000
00010000
00000000
00011000
00000000
00000000
00000000
00010000
00000100
00010000
00000000
00000100
00000010
00000100
00000010
,
00000100
00000000
00000010
00000000
00000100
00000000
00001000
00000000
00000010
00000000
00000100
00000000
00001000
00010000
00001000
00010000
,
00001000
00100000
00001000
00000000
00100000
01000000
00100000
00000000
01000000
10000000
01000000
00000000
10010000
00000000
00000000
00000000
,
10000000
00000000
00100000
00000000
01000000
00100000
01000000
00100000
01000000
00000000
00001000
00000000
00010000
00001000
00010000
00001000
,
00010000
00000000
00011000
00000000
00011000
00000000
00000000
00000000
00000100
00001000
00000100
00000000
00001100
00000000
00000100
00000010
,
00000001
00000000
00000000
00000000
00000101
00000000
00000000
00000100
00001000
00000000
00000000
00000000
00011000
00000000
00000000
00010000
,
00100000
10000000
00100000
10000000
00100000
00000000
01000000
00000000
01000000
00000000
00000000
00000000
10010000
00000000
00000000
00000000
,
10000000
00000000
00000000
01000000
00000000
00000000
00001000
00000000
00010000
00000000
00100000
00000000
00001000
00000000
00000010
00000000
,
00000001
00000000
00000000
00001000
00000000
00000000
00000100
00000000
00010000
00000000
01000000
00000000
10000000
00000000
00100000
00000000
,
01000000
00000000
00000000
00001000
00000000
00000000
00010000
00000000
00000100
00000000
00001000
00000000
00000001
00000000
00000010
00000000
,
00000110
00000000
00000110
00000000
00000110
00000000
00000000
00000000
00001001
00000000
00000000
00000000
00001001
00000000
00000001
00000010
,
00000001
00000000
00000000
00001000
00000000
00000000
00000100
00000000
00010000
00000000
01000000
00000000
10000000
00000000
00100000
00000000
,
01000000
00000000
00000000
00010000
00000000
00000000
00100000
00000000
00001000
00000000
00010000
00000000
00000010
00000000
00000100
00000000
,
00000001
00000000
00000000
00000100
00000000
00000000
00000010
00000000
00010000
00000000
00001000
00000000
00100000
00000000
00010000
00000000
,
01000000
00000000
00000000
10010000
00000000
00000000
00100000
00000000
00100000
10000000
01000000
00100000
,
00010000
00000000
01000000
00001000
00000000
00010000
00001000
00000000
00010000
00000010
00000000
00000100
,
00000001
00000000
00000010
00000100
00000000
00001000
00000200
00000000
00010300
00002000
00000000
00103000
,
00010000
00000000
10000000
01000000
00000000
01000000
00100000
00000000
00100000
00001000
00000000
00001000
,
00020000
00000000
00000000
00030000
00000000
00000000
00000100
00001000
00000100
00000010
00000100
00000010
,
00000000
00000000
00000000
00001001
00000000
00000000
00000001
00000100
00000010
00000100
00000010
00010000
,
00000100
00010000
00001000
00100000
00010000
01000000
00100000
10000000
00010000
10000000
01000000
00100000
,
00020000
00000000
00000000
00000000
00000000
00000000
00000000
00000000
00000000
00000000
00000000
00000000
01030000
00000000
00000000
00000000
00000000
00000000
00001000
00000000
00000000
00010000
00000000
00000000
00001000
00000000
00000000
00000000
00000000
00000000
00000000
00000000
00000000
00000000
00000000
00000000
00001000
00000000
00000000
00000000
00000010
00000000
00000000
00000000
00000001
00000000
00000000
00000000
,
00001001
00000100
00000100
00000100
,
00000001
00000100
00000000
00000010
00001000
00000000
00010000
01000000
00000000
00100000
10000000
00000000
00010000
00000000
00000000
00000000
,
10000000
01000000
00000000
00100000
00010000
00000000
00001000
00000100
00000000
00000010
00000001
00000000
00001000
00000000
00000000
00000000
,
00000001
00000010
00000000
00000100
00001000
00000000
00010000
00100000
00000000
01000000
10000000
00000000
00010000
00000000
00000000
00000000
,
10000000
00100000
00000000
01000000
00010000
00000000
00001000
00000010
00000000
00000100
00000001
00000000
00001000
00000000
00000000
00000000
,
00000001
00000000
00000001
00000100
00001000
00000000
00000100
00001000
00010000
00000000
00010000
00100000
10000000
00000000
00000000
00000000
,
10000000
00000000
10000000
01000000
00010000
00000000
01000000
00010000
00001000
00000000
00001000
00000010
00000001
00000000
00000000
00000000
,
00000000
00000000
00000000
00000000
,
00000000
00000000
00000000
00000000
,
00000001
00000100
00000001
00000100
00000010
00000000
00010000
00000100
00001000
00000100
00010000
00000000
00001000
00000000
00001000
00000000
,
00100000
00010000
00100000
00010000
10000000
00000000
00100000
01000000
00100000
10000000
00100000
00000000
01000000
00000000
01000000
00000000
,
00010000
00100000
00010000
00100000
00001000
00000000
00010000
00001000
00100000
00001000
00010000
00000000
00000100
00000000
00000100
00000000
,
00000010
00000001
00000010
00000001
00001000
00000000
00000001
00000100
00000010
00000100
00000001
00000000
00001000
00000000
00000000
00000000
,
00000100
00010000
00000000
00001000
00100000
00000000
00010000
01000000
00000000
00100000
10000000
00000000
00100000
01000000
00100000
00000000
,
10000000
01000000
00000000
00100000
00001000
00000000
00010000
00000100
00000000
00001000
00000001
00000000
00000100
00000010
00000100
00000000
,
00000001
00000100
00000010
00000100
00000010
00010000
00001000
00000000
00010000
00001000
00100000
00010000
00100000
00010000
10000000
00000000
,
00100000
10000000
00010000
00000000
00100000
00010000
10000000
00000000
01000000
00010000
00000000
00010000
00001000
00000000
00000010
00000000
,
00000110
00000000
00000000
00000000
,
00000000
00000000
00000000
00000000
;
#NOTES:
     dance-double:
     :
     Challenge:
     17:
     :
00000000
00000000
00000000
00000000
,
00000000
00000000
00000000
00000000
,
00000000
00000000
00000000
00000000
,
00000000
00000000
00000000
00000000
,
00000000
00000000
00000000
00000000
,
00010000
00000010
00010000
00000000
00010000
00000100
00010000
00000000
00001000
00100000
00001000
00000000
00001000
01000000
00001000
00000000
,
00010000
00001000
00010000
00001000
01000000
00010000
00100000
00010000
10000000
01000000
00100000
00010000
00100000
00001000
00010000
00000100
,
00000020
00000000
00000000
00000000
,
00000001
00000000
00000000
00000000
00000100
00000000
00000000
00000000
00001030
00000000
00010000
00001000
00010000
00000000
00000000
00000000
,
00022000
00000000
00000000
00000000
,
00000000
00000000
00000000
00033000
,
00011000
00000000
00000000
00000000
,
00000000
00000000
00000000
00000000
,
00010000
00100000
00000000
10000000
01000000
00000000
00010000
00001000
00000000
00010000
00100000
00000000
00010000
00000000
00001000
00000000
,
00012000
00000000
00000000
00000000
00000000
00000000
00000000
00000000
00000000
00000000
00000000
00000000
00000000
00000000
00003010
00000001
,
00000010
00000000
00000110
00000000
00010100
00000000
00001000
00100000
00010000
01000000
00000000
00100000
00010000
00000000
00001000
00010000
,
00001000
00000000
00000000
00000000
,
00001000
00000010
00000000
00000001
00000100
00000000
00001000
00010000
00000000
00001000
00000010
00000000
00001000
00000000
00010000
00000000
,
00021000
00000000
00000000
00000000
00000000
00000000
00000000
00000000
00000000
00000000
00000000
00000000
00000000
00000000
00130000
10000000
,
01000000
01000000
00010000
01000000
01000000
00100000
00001000
00010000
00000010
00000100
00001000
00010000
,
00011000
00000000
00000000
00000000
,
00001000
00000010
00000000
00000010
00000001
00000000
00000001
00000100
00000000
00000100
00000000
00000100
00001000
00000000
00011000
00000000
,
00010000
00100000
00000000
00100000
10000000
00000000
10000000
01000000
00000000
01000000
00010000
00000000
00011000
00000000
00010000
00000000
,
00001000
00000100
00000000
00000100
00000001
00000000
00000001
00000010
00000000
00001000
00000000
00001000
00010000
00000000
00011000
00000000
,
00010000
01000000
00000000
01000000
10000000
00000000
10000000
00100000
00000000
00010000
00001000
00000000
00010000
00000000
00011000
00000000
,
00001000
00000010
00000000
00000001
00000100
00000000
00001010
00000000
00000001
00000100
00000000
00001000
00010000
00000000
10100000
00000000
,
10000000
01000000
00000000
00010000
00001000
00000000
00010010
00000000
00001000
00000100
00000000
00000010
00000001
00000000
00000110
00000000
,
00000000
00000000
00000000
00000000
,
00100000
01000000
00100000
10010000
,
10000000
00100000
01000000
00000000
00100000
01000000
00001000
00000000
01000000
00001000
00010000
00000000
00001000
00010000
00000100
00000000
,
00010000
00000100
00001000
00000000
00000100
00001000
00000010
00000000
00000100
00000010
00000100
00000000
00000110
00000000
00000110
00000000
,
00000001
00000010
00000100
00000000
00000010
00000100
00010000
00000000
00000100
00010000
00001000
00000000
00010000
00001000
00100000
00000000
,
00020000
00000000
01030000
00000000
20000000
00000000
31000000
00000000
01100000
00000000
01100000
00000000
00100000
00000000
01000000
00010000
,
00100000
00000000
01000000
10000000
01000000
00000000
00100000
00001000
00010000
00000000
00000010
00001000
00000100
00000000
00000001
00000100
,
00001000
00000000
00000001
00000100
00000010
00000000
00001000
00000100
00010000
00000000
00001000
00100000
01000000
00000000
10000000
00000000
,
10100000
00000000
00000000
00000000
01000000
00010000
00001000
00000000
00010000
00000000
00001000
00000000
00011000
00000000
00000000
00000000
,
00000220
00000330
00002002
00003003
,
00000001
00000010
00000001
00000000
00001000
00000010
00001000
00000000
00000100
00010000
00000100
00000000
00001000
00000010
00001000
00000000
,
00001010
00000000
00011000
00000000
01010000
00000000
00000000
00000000
10000000
00100000
10000000
00000000
00010000
00100000
00010000
00000000
,
10000000
01000000
10000000
01000000
00100000
00000000
00010000
00000000
01000000
00001000
01000000
00001000
00010000
00000000
00000010
00000000
,
00001000
00000100
00001000
00000000
00000010
00000100
00000010
00000000
00000100
00000010
00000100
00000000
00000001
00001000
00000001
00000000
,
00000010
00000100
00000010
00000000
00001000
00010000
00001000
00000000
01000000
00010000
01000000
00000000
00100000
10000000
00100000
00000000
,
00110000
00000000
11000000
00000000
10010000
00000000
00000000
00000000
00100000
00010000
00100000
00000000
01100000
00000000
01100000
00000000
,
10000000
01000000
10000000
01000000
00100000
00000000
00001000
00000000
00010000
00000100
00010000
00000100
00000010
00000000
00000001
00000000
,
00000010
00000001
00000100
00000001
00000010
00000100
00010000
00000000
00001000
01000000
00010000
00100000
01000000
10000000
00100000
00000000
,
10000000
00100000
00000000
10000000
00100000
00000000
01000000
00000000
00010000
01000000
00001000
00010000
00001000
00000000
00000100
00000000
,
00000001
00000010
00000000
00000001
00000010
00000000
00000100
00000000
00001000
00000100
00010000
00001000
00010000
00000000
01000000
00000000
,
10000000
00100000
00000000
01000000
00010000
00000000
10000000
00000000
01000000
00100000
00001000
00010000
00001000
00000000
00000010
00000000
,
00000110
00000011
00000101
00000000
00001100
00000000
00000110
00001001
,
00000001
00000100
00000000
00000001
00000100
00000000
00000010
00000000
00001000
00000010
00010000
00001000
00010000
00000000
00100000
00000000
,
10000000
01000000
00000000
10000000
01000000
00000000
00100000
00000000
00010000
00100000
00001000
00010000
00001000
00000000
00000010
00000000
,
00000001
00000100
00000000
00000010
00001000
00000000
00000001
00000000
00000010
00000100
00010000
00001000
00010000
00000000
01000000
00000000
,
11000000
00000000
00000000
00110000
00000000
00000000
10010000
00000000
10000000
00100000
00010000
00100000
,
20000000
00000000
30000000
20000000
00000000
30000000
00020000
00000000
00030000
00020000
00000000
00030000
,
00001000
00000100
00000100
00000010
00000001
00000001
00000100
00000000
00000010
00000100
00000000
00000010
,
00000100
00001000
00001000
00010000
00001000
00001000
00100000
00010000
00010000
01000000
00100000
00100000
,
02000000
00000000
00000000
00000000
00000000
00000000
00000000
00000000
00000000
00000000
00000000
00000000
00000000
00000000
00000000
00000000
00000000
00000000
00000000
00000000
03000000
00010000
00000000
00000000
10000000
00000000
00000000
00000000
00000000
00000000
01000000
00000000
00100000
00000000
01000000
00000000
00100000
00000000
00000000
00000000
00010000
00000000
00000000
00000000
10000000
00000000
00000000
00000000
,
00000000
00000000
00000000
00100000
01000000
01000000
00010000
00100000
00100000
00001000
00010000
00010000
,
00000100
00001000
00001000
00000100
00000010
00000010
00000001
00001000
00001000
00000010
00000100
00000010
,
00000100
00000000
00000000
00000000
00000001
00000000
00000100
00000010
00000100
00000000
00000000
00000000
00001000
00010000
00001000
00010000
,
00002000
00000000
00003000
00011000
,
00010000
00100000
00000000
00100000
10000000
00000000
10000000
00100000
00000000
00100000
00000000
00100000
00010000
00000000
00011000
00000000
,
00001000
00000010
00000000
00000010
00000001
00000000
00000001
00000010
00000000
00000010
00001000
00000000
00011000
00000000
00010000
00000000
,
00001000
00010000
00000000
00010000
01000000
00000000
01000000
10000000
00000000
01000000
00000000
00010000
00001000
00000000
00011000
00000000
,
00001000
00000100
00000000
00000100
00000001
00000000
00000001
00000100
00000000
00000100
00001000
00000000
00010000
00000000
00011000
00000000
,
00100000
01000000
00000000
00100000
10000000
00000000
11000000
00000000
00100000
00001000
00000000
00010000
00022000
00000000
00033000
00000000
,
00000010
00000100
00000000
00000010
00000001
00000000
00000101
00000000
00000010
00010000
00000000
00001000
00022000
00000000
00033000
00000000
,
00000000
00000000
00000000
00000000
,
00000000
00000000
00000000
00011000
,
01000000
00010000
01000000
00100000
10000000
00000000
01000000
00000000
00100000
00010000
00100000
00000000
00001000
00000000
00011000
00000000
,
00000100
00001000
00000100
00000010
00000001
00000000
00000100
00000000
00000010
00001000
00000010
00000000
00010000
00000000
00011000
00000000
,
01000000
00010000
00100000
01000000
10000000
00000000
01000000
00000000
00100000
00001000
00010000
00000000
00000010
00000000
00001010
00000000
,
00000100
00000001
00000010
00000000
00001001
00000000
00000000
00000100
00010000
00000000
00000000
00000000
00011000
00000000
00100000
00000000
,
00010000
01000000
00100000
10000000
00100000
00000000
01000000
00000000
01010000
00000000
00000000
00000000
00101000
00000000
00010000
00000000
,
00000100
00001000
00000100
00000010
00000001
00000000
00001000
00000000
00001010
00000000
00000000
00000000
00000101
00000000
00000100
00000000
,
00000001
00000010
00000001
00000010
00000100
00001000
00000100
00001000
00000010
00010000
00000010
00010000
00001000
00010000
00001000
00010000
,
00001000
00000000
01000000
00010000
00100000
00000000
01000000
10000000
00100000
01000000
00100000
00010000
00001000
00000000
00010000
00000000
,
00011000
00000000
00000000
00000000
,
00000000
00000000
00000000
00000000
;
