
//----- song ID: t502 -----//
#TITLE:50th Memorial Songs -二人の時 ~under the cherry blossoms~-;
#ARTIST:BEMANI Sound Team;
#TITLETRANSLIT:50th Memorial Songs -futari no toki ~under the cherry blossoms~-;
#BANNER:50th Memorial Songs -futari no toki ~under the cherry blossoms~-.png;
#BACKGROUND:50th Memorial Songs -futari no toki ~under the cherry blossoms~--bg.png;
#CDTITLE:./CDTitles/DDR A20.png;
#MUSIC:50th Memorial Songs -futari no toki ~under the cherry blossoms~-.ogg;
#SAMPLESTART:31.87;
#SAMPLELENGTH:15;
#BPMS:0=160;
#NOTES:
     dance-single:
     :
     Beginner:
     3:
     :
0000
0000
0000
0000
,
0000
0000
0000
0000
,
0000
0000
0000
0000
,
0000
0000
0000
0000
,
0000
0000
0000
0000
,
0001
0000
0001
0000
,
0001
0000
0000
0000
,
0001
0000
0100
0000
,
0001
0000
0000
0000
,
1000
0000
1000
0000
,
1000
0000
0000
0000
,
1000
0000
0100
0000
,
1000
0000
0000
0000
,
0001
0000
0001
0000
,
0001
0000
0000
0000
,
0001
0000
0010
0000
,
0001
0000
0000
0000
,
1000
0000
1000
0000
,
1000
0000
0000
0000
,
1000
0000
0010
0000
,
1000
0000
0000
0000
,
0001
0001
0001
0000
,
0010
0000
0100
0000
,
0002
0000
0000
0000
,
0003
0000
0000
0000
,
1000
1000
1000
0000
,
0010
0000
0100
0000
,
2000
0000
0000
0000
,
3000
0000
0000
0000
,
0001
0001
0001
0000
,
0010
0000
0100
0000
,
0002
0000
0000
0000
,
0003
0000
0000
0000
,
1000
1000
1000
0000
,
0010
0000
0100
0000
,
2000
0000
0000
0000
,
3000
0000
0000
0000
,
0002
0000
0000
0000
,
0003
0000
0000
0000
,
2000
0000
0000
0000
,
3000
0000
0000
0000
,
0002
0000
0000
0000
,
0003
0000
0000
0000
,
2000
0000
0000
0000
,
3000
0000
0000
0000
,
0001
0000
0001
0000
,
1000
0000
1000
0000
,
0001
0000
0001
0000
,
1000
0000
1000
0000
,
0010
0000
0010
0000
,
0100
0000
0100
0000
,
0010
0000
0010
0000
,
0100
0000
0000
0000
,
1001
0000
0000
0000
,
1001
0000
0000
0000
,
1001
0000
0000
0000
,
1001
0000
0000
0000
,
0001
0000
0001
0000
,
0010
0000
0010
0000
,
1000
0000
1000
0000
,
0100
0000
0000
0000
,
0001
0001
0001
0000
,
0100
0000
0010
0000
,
0002
0000
0000
0000
,
0003
0000
0000
0000
,
1000
1000
1000
0000
,
0100
0000
0010
0000
,
2000
0000
0000
0000
,
3000
0000
0000
0000
,
0001
0001
0001
0000
,
0100
0000
0010
0000
,
0002
0000
0000
0000
,
0003
0000
0000
0000
,
1000
1000
1000
0000
,
0100
0000
0010
0000
,
2000
0000
0000
0000
,
3000
0000
0000
0000
,
0001
0000
1000
0000
,
0001
0000
1000
0000
,
2002
0000
0000
0000
,
0000
3003
0000
0000
,
0000
0000
0000
0000
;
#NOTES:
     dance-single:
     :
     Easy:
     7:
     :
0000
0000
0000
0000
,
0000
0000
0000
0000
,
0000
0000
0000
0000
,
0000
0000
0000
0000
,
0000
0000
0000
0000
,
1001
0010
0010
0001
,
1000
0100
1000
0001
,
1001
0000
0110
0000
,
2002
0000
3003
0000
,
0010
0001
0001
1000
,
0010
0001
0010
1000
,
1001
0000
0110
0000
,
2002
0000
3003
0000
,
1001
0010
0010
1000
,
0001
0100
0001
1000
,
1001
0000
0110
0000
,
2002
0000
3003
0000
,
0010
1000
1000
0001
,
0010
1000
0010
0001
,
1001
0000
0110
0000
,
1001
0010
0010
0010
,
0010
0001
0100
1000
,
0001
1000
0001
1000
,
1001
0010
0010
0001
,
0100
1000
0001
1000
,
1001
0110
0110
1001
,
1000
0001
1000
0001
,
1000
1000
0001
0001
,
0010
1000
0001
0100
,
1001
0001
0100
1000
,
0010
1000
0001
1000
,
0110
0000
1001
0000
,
0010
1000
0100
0001
,
1001
0010
0010
0010
,
0100
0001
0010
1000
,
1001
1000
0010
0000
,
0010
1000
0010
0001
,
2000
0000
3200
0000
,
0320
0000
0032
0000
,
2003
0000
3002
0000
,
0023
0000
0130
0000
,
0002
0000
0203
0000
,
0320
0000
2030
0000
,
3002
0000
2003
0000
,
3020
0000
0130
0000
,
0001
0001
0001
0000
,
0010
0010
0010
0000
,
1000
1000
1000
0000
,
0100
0100
0100
0000
,
0101
0000
0101
0000
,
0011
0000
0011
0000
,
1010
0000
1010
0000
,
1100
0000
1100
0000
,
0001
0010
0001
0000
,
1000
0010
1000
0000
,
0001
0100
0001
0000
,
1000
0100
1000
0000
,
0010
0001
0100
1000
,
0001
1000
0001
1000
,
0010
1000
0100
0001
,
1000
0001
1000
0001
,
1001
0001
0100
1000
,
0001
1000
0001
1000
,
1001
0010
0010
0001
,
0100
1000
0001
1000
,
1001
0110
0110
1001
,
1000
0001
1000
0001
,
1000
1000
0001
0001
,
0010
1000
0001
0100
,
1001
0001
0100
1000
,
0010
1000
0001
1000
,
0110
0000
1001
0000
,
0010
1000
0100
0000
,
1001
0010
0010
0010
,
0100
0001
0010
0100
,
1000
0001
0100
0000
,
0010
1000
0010
0001
,
0100
0010
0001
1000
,
0010
0100
0001
1000
,
0100
0100
0100
0100
,
1000
0000
0001
1000
0000
0000
0000
0000
,
0000
0000
0000
0000
;
#NOTES:
     dance-single:
     :
     Medium:
     9:
     :
0000
0000
0000
0000
,
0000
0000
0000
0000
,
0000
0000
0000
0000
,
0000
0000
0000
0000
,
0000
0000
0000
0000
,
0000
0100
1000
1000
,
0100
0001
1000
0100
,
0010
0000
0000
1000
0100
0000
0000
0001
,
0100
0000
0000
1000
0001
0100
0010
0000
,
0100
0000
0100
0000
,
0100
0010
0001
0100
,
0010
0000
0000
0001
0100
0000
0000
0010
,
1000
0000
0110
1001
,
0000
0100
1000
0001
,
0100
0100
0010
0100
,
0010
0000
0000
0001
0100
0000
0000
1000
,
0001
0100
0000
0010
1000
0001
0100
0000
,
0001
0010
1010
0010
,
0010
0001
1000
0001
,
0010
0000
0000
1000
0100
0000
0000
0010
,
0001
1000
0110
1001
,
0001
0001
1000
0000
0100
0000
1000
0000
,
0100
0001
0100
0001
,
1000
0001
1000
0000
0010
0100
0000
0000
,
0001
1000
0001
0000
0100
0010
0000
0000
,
0000
1000
0001
0001
,
1000
0001
1000
0100
,
0010
1100
0001
1100
,
0100
0000
1100
0000
0001
0000
1000
0001
,
0100
1100
1000
0001
,
0100
0101
0001
1000
,
1100
0000
0011
0000
,
0101
0000
1010
0000
,
0100
1000
1000
0001
,
0100
0001
0001
1000
,
0100
0000
0100
0000
,
1001
0000
0100
1000
,
1010
0000
0000
1000
0000
0000
0100
0000
,
1100
0000
0000
0001
0000
0000
0100
0000
,
0101
0000
0000
0001
0000
0000
0010
0000
,
0011
0000
0000
1000
0000
0000
0010
0000
,
1010
0000
0000
1000
0000
0000
0001
0000
,
1001
0000
0000
0100
0000
0000
0010
0000
,
0220
0330
2200
3300
,
0202
0303
2002
3003
,
0001
0001
0101
0101
,
0010
0010
1010
1010
,
1000
1000
1100
1100
,
0010
0010
0011
0011
,
0001
0001
1001
1001
,
0010
0010
0110
0110
,
0100
0100
1100
1100
,
0001
0001
0011
0011
,
0001
0000
0010
0000
0001
0010
0001
0000
,
0010
0000
0100
0000
1000
0100
1000
0000
,
0010
0000
1000
0000
0010
1000
0010
0000
,
0100
0000
0001
0000
0100
0001
0100
0000
,
0001
0000
1000
0000
0100
0010
0100
0000
,
0010
0000
0001
0000
0100
0010
0100
0000
,
0010
0000
1000
0000
0001
1000
0001
0000
,
1000
0100
0010
0001
,
0001
0001
1000
0000
0100
0000
0001
0000
,
0100
0001
0100
1000
,
0001
1000
0001
0000
1000
0100
1000
0000
,
1000
0001
1000
0000
0001
0100
0001
0000
,
1001
1000
0100
0001
,
1000
0001
1000
0100
,
0100
0000
0101
0000
1000
1000
0001
0000
,
0100
0000
1100
0000
1000
1000
0001
0000
,
0100
1000
0100
0001
,
0100
0001
0100
1000
,
1010
0011
0101
1100
,
1001
0000
0010
1001
,
0010
0100
1000
0010
,
0100
1000
0001
1100
,
0001
0000
0000
0100
0010
0000
1000
0000
,
0001
1000
0001
1000
0001
1000
0010
0000
,
0100
0000
1100
0000
0001
1000
1000
0000
,
0011
0000
1000
0100
0000
0000
1010
0001
,
1000
0001
0001
0001
,
0010
1000
0001
1000
0000
0000
0000
0000
,
0000
0000
0000
0000
;
#NOTES:
     dance-single:
     :
     Hard:
     12:
     :
0000
0000
0000
0000
,
0000
0000
0000
0000
,
0000
0000
0000
0000
,
0000
0000
0000
0000
,
0000
0000
0000
0000
,
0001
0000
1000
0000
0100
1000
0100
0000
,
0010
0000
0001
0000
0100
0001
0100
0000
,
0001
0000
1000
0010
1000
0000
0001
0100
,
0001
0010
0001
0010
0100
1000
0100
1000
,
0010
0000
0100
0000
0010
0000
1000
0010
,
0100
0000
0001
0000
1000
0001
1000
0000
,
0001
0000
1000
0100
1000
0000
0001
0100
,
0001
1000
0001
1000
0000
1000
0100
0010
,
0001
0000
1000
0000
0010
0100
0010
0000
,
0100
0000
0010
0000
1000
0001
0010
0000
,
0001
0000
1000
0010
1000
0000
0001
0010
,
0001
0100
0001
0100
0010
1000
0010
1000
,
0100
0000
0010
0000
0100
0000
1000
0100
,
1000
0000
0001
0000
0010
0001
0010
0000
,
0001
0000
1000
0100
1000
0000
0001
1000
,
0001
0100
0001
0100
0001
1000
0100
1000
,
0010
0000
0000
0010
1000
0000
0000
1000
0100
0000
0000
0100
0010
0000
0000
0010
,
0001
0000
0000
0001
0100
0000
0000
0100
1000
0000
0000
1000
0100
0000
0000
0100
,
0010
0000
0000
0010
0100
0000
0000
0100
0001
0000
0000
0001
0100
0000
0000
0100
,
0010
0000
0000
0010
1000
0000
0000
1000
0100
0000
0010
0000
0100
0000
0000
0000
,
0010
0000
0000
0010
0001
0000
0000
0001
0100
0000
0000
0100
1000
0000
0000
1000
,
0100
0000
0000
0100
0010
0000
0000
0010
0100
0000
0000
0100
0001
0000
0000
0001
,
0010
0001
0000
0011
0000
1000
0100
0001
,
0000
0001
0100
1000
0000
0001
0100
0000
,
0001
0000
0000
0001
1000
0000
0000
1000
0010
0000
0000
0010
0100
0000
0000
0100
,
0001
0000
0000
0001
0010
0000
0000
0010
0100
0000
0000
0100
1000
0000
0000
1000
,
0010
0100
0000
0110
0000
0001
0100
1000
,
0000
1000
0100
0001
0000
0010
0100
0000
,
0001
0000
0000
0001
1000
0000
0000
1000
0100
0000
0000
0100
0010
0000
0000
0010
,
0001
0000
0000
0001
0100
0000
0000
0100
0010
0000
0000
0010
1000
0000
0000
1000
,
0200
0000
0000
0310
0002
0000
0000
0000
,
1003
0100
1000
0200
0000
0000
0300
0000
,
0020
0000
0000
0031
0000
0100
0001
0100
,
0020
0000
0000
1030
0000
0000
1100
0000
,
0020
0000
0000
0031
0000
1000
0010
1000
,
0100
0010
0000
0011
0000
0110
0000
0000
,
0202
0000
0303
0220
0000
0330
1010
0000
,
2200
0000
3300
0220
0000
0330
0011
0000
,
0001
0000
0001
0100
0010
0000
0010
1000
,
0100
0000
0100
0010
0001
0000
1000
0000
,
1001
1001
0101
0101
,
1001
1001
1100
1100
,
1001
1001
0011
0011
,
1001
1001
1010
0110
,
0101
0101
0110
0110
,
1010
1010
0110
0110
,
1100
1100
0110
0110
,
0011
0011
0110
1100
,
1000
0100
1100
0000
0001
0100
0101
0000
,
1000
0010
1010
0000
0001
0010
0011
0000
,
1000
0100
0110
0000
0001
0100
0110
0000
,
1000
0010
0110
0000
0001
0010
0110
0000
,
0100
1000
1100
0000
0010
0001
0011
0000
,
0100
0001
0101
0000
0010
1000
1010
0000
,
0100
0010
0110
0000
0001
1000
1001
0000
,
0001
0100
0001
0100
0010
1000
0010
1000
,
0100
0000
0000
0100
1000
0000
0000
1000
0010
0000
0000
0010
0001
0000
0000
0001
,
0010
0000
0000
0010
1000
0000
0000
1000
0100
0000
0000
0100
0010
0000
0000
0010
,
0001
0000
0000
0001
0100
0000
0000
0100
0010
0000
0000
0010
1000
0000
0000
1000
,
0100
0000
0000
0100
0001
0000
0000
0001
0100
0000
1000
0000
0100
0000
0000
0000
,
1000
0000
0000
1000
0010
0000
0000
0010
0100
0000
0000
0100
1000
0000
0000
1000
,
0100
0000
0000
0100
0001
0000
0000
0001
1000
0000
0000
1000
0100
0000
0000
0100
,
1000
0010
0000
1010
0000
0010
0001
0010
,
0000
0010
1000
0010
1000
0100
0010
0000
,
0010
0000
0000
0010
1000
0000
0000
1000
0001
0000
0000
0001
0100
0000
0000
0100
,
1000
0000
0000
1000
0001
0000
0000
0001
0010
0000
0000
0010
0001
0000
0000
0001
,
0100
0010
0000
0110
0000
0100
0001
0010
,
0000
0100
1000
0010
0000
0100
0010
0000
,
1000
0000
0000
1000
0010
0000
0000
0010
0001
0000
0000
0001
1000
0000
0000
1000
,
0100
0000
0000
0100
0001
0000
0000
0001
0010
0000
0000
0010
0100
0000
0000
0100
,
1000
0000
0001
1000
0100
0000
0010
0001
,
0000
1001
0000
1000
0100
0010
0001
0000
,
0100
0000
1010
0000
0000
0101
0000
0000
,
0011
0000
0000
1100
0000
0000
0100
2001
,
0000
0001
0001
0001
,
3000
0000
1001
1001
0000
0000
0000
0000
,
0000
0000
0000
0000
;
#NOTES:
     dance-double:
     :
     Easy:
     7:
     :
00000000
00000000
00000000
00000000
,
00000000
00000000
00000000
00000000
,
00000000
00000000
00000000
00000000
,
00000000
00000000
00000000
00000000
,
00000000
00000000
00000000
00000000
,
10010000
01000000
01000000
00100000
,
10000000
01000000
00010000
00001000
,
00011000
00000000
00001100
00000000
,
00000220
00000000
00000330
00000000
,
00000010
00000001
00000001
00000100
,
00000010
00010000
00001000
00010000
,
00011000
00000000
01010000
00000000
,
02200000
00000000
03300000
00000000
,
10010000
00100000
00100000
10000000
,
01000000
00100000
00010000
00001000
,
00011000
00000000
00001010
00000000
,
00000220
00000000
00000330
00000000
,
00000100
00000001
00000001
00000010
,
00001000
00010000
01000000
00100000
,
01100000
00000000
10010000
00000000
,
01100000
00100000
00100000
00000000
,
00100000
00001000
00010000
00001000
,
00010000
00000100
00000010
00000001
,
00000011
00000100
00000010
00010000
,
00001000
01000000
00100000
10000000
,
10010000
01000000
00010000
00011000
,
00001000
00000010
00000001
00000100
,
00000010
00000010
00010000
00010000
,
00001000
00100000
01000000
10000000
,
10010000
01000000
00100000
00010000
,
00001000
00000100
00000001
00000010
,
00000110
00000000
00001100
00000000
,
00010000
01000000
10000000
00010000
,
10010000
00100000
00100000
00100000
,
00010000
00001000
00010000
00001000
,
00011000
00000100
00000010
00000000
,
00000001
00000010
00000100
00001000
,
00000200
00000000
00020300
00000000
,
00032000
00000000
00203000
00000000
,
02300000
00000000
23000000
00000000
,
30200000
00000000
01300000
00000000
,
00020000
00000000
00230000
00000000
,
00302000
00000000
00023000
00000000
,
00030020
00000000
00000230
00000000
,
00000302
00000000
00000013
00000000
,
00000100
00000100
00000100
00000000
,
00001000
00001000
00001000
00000000
,
00010000
00010000
00010000
00000000
,
00100000
00100000
00100000
00000000
,
01100000
00000000
01100000
00000000
,
00110000
00000000
00110000
00000000
,
00011000
00000000
00011000
00000000
,
00001100
00000000
00001100
00000000
,
00000001
00000010
00000001
00000000
,
00000100
00000010
00000100
00000000
,
00000010
00010000
00000010
00000000
,
00010000
00001000
00010000
00000000
,
00001000
00010000
00100000
10000000
,
01000000
00010000
01000000
10000000
,
00100000
01000000
00100000
00010000
,
00001000
00000100
00000001
00001000
,
00001001
00000100
00000010
00001000
,
00000100
00010000
00001000
00010000
,
00011000
00000000
00100000
00010000
,
01000000
00100000
10000000
00010000
,
10010000
01000000
01000000
01000000
,
00010000
00001000
00010000
00001000
,
00010000
00010000
00001000
00001000
,
00000010
00000001
00000100
00001000
,
00000110
00000010
00000100
00001000
,
00010000
00100000
01000000
10000000
,
01100000
00000000
10010000
00000000
,
00100000
10000000
01000000
00000000
,
00110000
00001000
00001000
00001000
,
00010000
00000010
00000100
00000001
,
00000100
00001000
00000100
00000000
,
00001000
00010000
00001000
00010000
,
00100000
10000000
01000000
00010000
,
01000000
00100000
00001000
00010000
,
00001000
00001000
00001000
00001000
,
00010000
00000000
00000100
00000010
00000000
00000000
00000000
00000000
,
00000000
00000000
00000000
00000000
;
#NOTES:
     dance-double:
     :
     Medium:
     9:
     :
00000000
00000000
00000000
00000000
,
00000000
00000000
00000000
00000000
,
00000000
00000000
00000000
00000000
,
00000000
00000000
00000000
00000000
,
00000000
00000000
00000000
00000000
,
00000000
00000001
00000100
00000100
,
00000010
00010000
00001000
00010000
,
00001000
00000000
00000000
00100000
00010000
00000000
00000000
00100000
,
01000000
00000000
00000000
10000000
00100000
10000000
00100000
00000000
,
01000000
00000000
01000000
00000000
,
00100000
00010000
00001000
00000100
,
00000010
00000000
00000000
00001000
00000100
00000000
00000000
00000010
,
00000001
00000000
00001001
00000110
,
00000000
00000010
00000100
00001000
,
00010000
00010000
00100000
01000000
,
00100000
00000000
00000000
10000000
01000000
00000000
00000000
00100000
,
00010000
01000000
00000000
00100000
00010000
00100000
00010000
00000000
,
00001000
00000100
00000110
00000100
,
00000100
00000010
00001000
00000100
,
00010000
00000000
00000000
00001000
01000000
00000000
00000000
00001000
,
00100000
01000000
01100000
10010000
,
10000000
10000000
01000000
00000000
00100000
00000000
00010000
00000000
,
00100000
00001000
00010000
00001000
,
00010000
00001000
00010000
00000000
00001000
00000010
00000000
00000000
,
00000001
00000100
00000001
00000000
00000100
00000010
00000000
00000000
,
00000100
00000001
00001000
00001000
,
00000100
00010000
00001000
00100000
,
00100000
11000000
00010000
00110000
,
00001000
00000000
00011000
00000000
00010000
00000000
00000100
00000010
,
00000001
00001001
00001000
00000100
,
00010000
00011000
00001000
00100000
,
01100000
00000000
11000000
00000000
,
10100000
00000000
00110000
00000000
,
00001000
00010000
00001000
00001000
,
00000100
00000010
00000010
00000100
,
00000001
00000000
00001000
00000000
,
00011000
00000000
01000000
10000000
,
10100000
00000000
00000000
01000000
00000000
00000000
00010000
00000000
,
01010000
00000000
00000000
00001000
00000000
00000000
00010000
00000000
,
00011000
00000000
00000000
00000100
00000000
00000000
00000010
00000000
,
00000110
00000000
00000000
00000001
00000000
00000000
00000100
00000000
,
00000110
00000000
00000000
00001000
00000000
00000000
00010000
00000000
,
00011000
00000000
00000000
01000000
00000000
00000000
00100000
00000000
,
20200000
30300000
22000000
33000000
,
02020000
03030000
00022000
00033000
,
00001000
00001000
00001010
00001010
,
00000100
00000100
00001100
00001100
,
00010000
00010000
00011000
00011000
,
00100000
00100000
00110000
00110000
,
00010000
00010000
01010000
01010000
,
00001000
00001000
00101000
00101000
,
00010000
00010000
00010100
00010100
,
00001000
00001000
00001010
00001010
,
00000001
00000010
00000001
00000001
,
00000010
00001000
00010000
00010000
,
01000000
10000000
01000000
01000000
,
10000000
00100000
10000000
10000000
,
00100000
00010000
00001000
00001000
,
00010000
00001000
00000100
00000100
,
00000001
00001000
00000001
00000001
,
00000100
00001000
00010000
00100000
,
10000000
10000000
00100000
00000000
01000000
00000000
00010000
00000000
,
01000000
00001000
00010000
00001000
,
00010000
00001000
00010000
00000000
00000100
00001000
00000100
00000000
,
00000100
00000010
00000100
00000000
00000010
00000001
00000010
00000000
,
00001001
00000001
00000100
00000010
,
00010000
00001000
01000000
00100000
,
00100000
00000000
10100000
00000000
10000000
10000000
01000000
00000000
,
00010000
00000000
00011000
00000000
00001000
00001000
00000010
00000000
,
00000001
00000100
00001000
00000100
,
00000001
00000010
00001000
00010000
,
01010000
11000000
10100000
00110000
,
00011000
00000000
00000010
00001001
,
00000010
00000100
00000001
00000100
,
00000010
00001000
00010000
01100000
,
00010000
00000000
00000000
01000000
00100000
00000000
10000000
00000000
,
01000000
00100000
01000000
00100000
01000000
00100000
00010000
00000000
,
00100000
00000000
00011000
00000000
00010000
00000100
00000100
00000000
,
00000011
00000000
00001000
00000100
00000000
00000000
00000010
00000100
,
00010000
00001000
00001000
00001000
,
00010000
00100000
10000000
00100000
00000000
00000000
00000000
00000000
,
00000000
00000000
00000000
00000000
;
#NOTES:
     dance-double:
     :
     Hard:
     11:
     :
00000000
00000000
00000000
00000000
,
00000000
00000000
00000000
00000000
,
00000000
00000000
00000000
00000000
,
00000000
00000000
00000000
00000000
,
00000000
00000000
00000000
00000000
,
00011000
00000000
00001000
00000000
00010000
00100000
00010000
00000000
,
00001000
00000000
00000100
00000000
00001000
00000100
00001000
00000000
,
00010000
00000000
00100000
10000000
00100000
00000000
10000000
01000000
,
00100000
00010000
00100000
00001000
00010000
00001000
00010000
00001000
,
00010000
00000000
00000100
00000000
00000010
00000000
00000001
00000010
,
00001000
00000000
00000010
00000000
00000001
00001000
00000001
00000000
,
00000100
00000000
00001000
00010000
00001000
00000000
00010000
00100000
,
10000000
01000000
10000000
01000000
00000000
00100000
00010000
00100000
,
00010000
00000000
01000000
00000000
00100000
00010000
00100000
00000000
,
00010000
00000000
00001000
00000000
00000100
00000001
00000010
00000000
,
00000001
00000000
00000100
00001000
00000100
00000000
00000010
00001000
,
00000010
00010000
00001000
00010000
00001000
01000000
00010000
01000000
,
00010000
00000000
10000000
00000000
01000000
00000000
00100000
00001000
,
00010000
00000000
00001000
00000000
00100000
00010000
00100000
00000000
,
00001000
00000000
00010000
00001000
00010000
00000000
00000010
00001000
,
00000010
00000100
00000010
00000100
00000001
00001000
00000001
00000000
,
00000001
00000000
00000000
00000001
00000100
00000000
00000000
00000100
00000010
00000000
00000000
00000010
00010000
00000000
00000000
00010000
,
00001000
00000000
00000000
00001000
01000000
00000000
00000000
01000000
00100000
00000000
00000000
00100000
10000000
00000000
00000000
10000000
,
01000000
00000000
00000000
01000000
00010000
00000000
00000000
00010000
00001000
00000000
00000000
00001000
00100000
00000000
00000000
00100000
,
00001000
00000000
00000000
00001000
00010000
00000000
00000000
00010000
00001000
00000000
00010000
00000000
00001000
00000000
00000000
00000000
,
00010000
00000000
00000000
00010000
00100000
00000000
00000000
00100000
10000000
00000000
00000000
10000000
01000000
00000000
00000000
01000000
,
00010000
00000000
00000000
00010000
01000000
00000000
00000000
01000000
00100000
00000000
00000000
00100000
00001000
00000000
00000000
00001000
,
00010000
00001000
00000000
00011000
00000000
00001000
00000010
00000001
,
00000000
00000001
00000100
00001000
00000000
00010000
00001000
00000000
,
00010000
00000000
00000000
00010000
01000000
00000000
00000000
01000000
10000000
00000000
00000000
10000000
00100000
00000000
00000000
00100000
,
00010000
00000000
00000000
00010000
00001000
00000000
00000000
00001000
00000100
00000000
00000000
00000100
00000001
00000000
00000000
00000001
,
00000010
00000100
00000000
00000110
00000000
00000010
00000001
00000100
,
00000000
00000010
00001000
00000100
00000000
00000010
00000100
00000000
,
00000001
00000000
00000000
00000001
00000010
00000000
00000000
00000010
00001000
00000000
00000000
00001000
00010000
00000000
00000000
00010000
,
01000000
00000000
00000000
01000000
10000000
00000000
00000000
10000000
00100000
00000000
00000000
00100000
00010000
00000000
00000000
00010000
,
00002000
00000000
00000000
00013000
00020000
00000000
00000000
00000000
,
00031000
00000010
00001000
00000020
00000000
00000000
00000030
00000000
,
00000002
00000000
00000000
00001003
00000000
00000010
00000100
00000010
,
00002000
00000000
00000000
00013000
00000000
00000000
00110000
00000000
,
20000000
00000000
00000000
30100000
00000000
10000000
00100000
10000000
,
01000000
10000000
00000000
11000000
00000000
01100000
00000000
00000000
,
00020000
00000000
00000000
00130000
00000000
00000000
00110000
00000000
,
00002000
00000000
00000000
00013000
00000000
00000000
00011000
00000000
,
00000100
00001000
00000010
00000000
00000100
00000001
00000010
00000000
,
00000100
00001000
00000010
00000000
00000100
00001000
00010000
00000000
,
01100000
00000000
01100000
00000000
10000000
01000000
10000000
00000000
,
01100000
00000000
01100000
00000000
00010000
01000000
00010000
00000000
,
01100000
00000000
01100000
00000000
00001000
00100000
00001000
00000000
,
00011000
00011000
00001100
00000110
,
00000011
00000000
00000011
00000000
00001000
00000100
00001000
00000000
,
00001010
00000000
00001010
00000000
00000001
00000100
00000001
00000000
,
00000101
00000000
00000101
00000000
00001000
00010000
00001000
00000000
,
00110000
00100000
10000000
01000000
,
10000000
01000000
00100000
00000000
01000000
00100000
00010000
00000000
,
01000000
00100000
00010000
00000000
00100000
00010000
00001000
00000000
,
00010000
00001000
00000100
00000000
00001000
00000100
00000010
00000000
,
00001000
00000100
00000010
00000000
00000100
00000010
00000001
00000000
,
00000001
00000100
00000010
00000000
00000100
00000010
00001000
00000000
,
00000100
00000010
00001000
00000000
00000010
00001000
00010000
00000000
,
00001000
00010000
01000000
00000000
00010000
01000000
00100000
00000000
,
00010000
01000000
00010000
01000000
00100000
10000000
00100000
00000000
,
10000000
00000000
00000000
10000000
00100000
00000000
00000000
00100000
01000000
00000000
00000000
01000000
00001000
00000000
00000000
00001000
,
00010000
00000000
00000000
00010000
00000010
00000000
00000000
00000010
00000100
00000000
00000000
00000100
00000001
00000000
00000000
00000001
,
00000010
00000000
00000000
00000010
00001000
00000000
00000000
00001000
00010000
00000000
00000000
00010000
00000100
00000000
00000000
00000100
,
00010000
00000000
00000000
00010000
00001000
00000000
00000000
00001000
00010000
00000000
00001000
00000000
00010000
00000000
00000000
00000000
,
00001000
00000000
00000000
00001000
00000100
00000000
00000000
00000100
00000001
00000000
00000000
00000001
00000010
00000000
00000000
00000010
,
00001000
00000000
00000000
00001000
00000010
00000000
00000000
00000010
00000100
00000000
00000000
00000100
00010000
00000000
00000000
00010000
,
00001000
00010000
00000000
00011000
00000000
00010000
01000000
10000000
,
00000000
10000000
00100000
00010000
00000000
00001000
00010000
00000000
,
00001000
00000000
00000000
00001000
00000010
00000000
00000000
00000010
00000001
00000000
00000000
00000001
00000100
00000000
00000000
00000100
,
00001000
00000000
00000000
00001000
00010000
00000000
00000000
00010000
00100000
00000000
00000000
00100000
10000000
00000000
00000000
10000000
,
01000000
00100000
00000000
01100000
00000000
01000000
10000000
00100000
,
00000000
01000000
00010000
00100000
00000000
01000000
00100000
00000000
,
10000000
00000000
00000000
10000000
01000000
00000000
00000000
01000000
00010000
00000000
00000000
00010000
00001000
00000000
00000000
00001000
,
00000010
00000000
00000000
00000010
00000001
00000000
00000000
00000001
00000100
00000000
00000000
00000100
00001000
00000000
00000000
00001000
,
00020000
00000000
00000000
00031000
00002000
00000000
00000000
00000000
,
00013000
01000000
00010000
02000000
00000000
00000000
03000000
00000000
,
10000000
00000000
10100000
00000000
00000000
01010000
00000000
00000000
,
00101000
00000000
00000000
00011000
00000000
00000000
00000100
00000002
,
00000000
00001000
00001000
00001000
,
00000003
00000000
00000100
00000010
00000000
00000000
00000000
00000000
,
00000000
00000000
00000000
00000000
;
