
//----- song ID: t501 -----//
#TITLE:50th Memorial Songs -The BEMANI History-;
#ARTIST:BEMANI Sound Team;
#BANNER:50th Memorial Songs -The BEMANI History-.png;
#BACKGROUND:50th Memorial Songs -The BEMANI History--bg.png;
#CDTITLE:./CDTitles/DDR A20.png;
#MUSIC:50th Memorial Songs -The BEMANI History-.ogg;
#SAMPLESTART:30;
#SAMPLELENGTH:15;
#BPMS:0=136;
#NOTES:
     dance-single:
     :
     Beginner:
     2:
     :
0000
0000
0000
0000
,
0000
0000
0000
0000
,
0000
0000
0000
0000
,
0000
0000
0000
0000
,
0000
0000
0000
0000
,
1000
0000
0000
0000
,
0010
0000
0000
0000
,
0001
0000
0000
0000
,
0100
0000
0000
0000
,
0010
0000
0010
0000
,
0001
0000
0001
0000
,
1000
0000
1000
0000
,
0100
0000
0100
0000
,
0001
0001
0001
0000
,
1000
1000
1000
0000
,
0001
0001
0001
0000
,
1001
0000
0000
0000
,
0200
0000
0300
0000
,
2000
0000
3000
0000
,
0020
0000
0030
0000
,
0002
0000
0003
0000
,
0200
0000
0300
0000
,
0002
0000
0003
0000
,
0020
0000
0030
0000
,
2000
0000
3000
0000
,
0001
0000
0000
0000
,
1000
0000
0000
0000
,
0001
0000
0000
0000
,
1000
0000
0000
0000
,
0010
0000
0010
0000
,
0100
0000
0100
0000
,
0010
0000
0010
0000
,
0100
0000
0100
0000
,
0010
0000
0000
0000
,
1001
0000
0000
0000
,
0100
0000
0000
0000
,
1000
0000
0000
0000
,
0010
0000
0000
0000
,
0001
0000
0001
0000
,
1000
0000
1000
0000
,
1001
0000
0000
0000
,
0000
0000
0000
0000
,
1001
0000
0000
0000
,
0000
0000
0000
0000
,
0001
0000
0010
0000
,
1000
0000
0010
0000
,
0001
0000
0100
0000
,
1000
0000
0100
0000
,
0001
0000
1000
0000
,
0001
0000
1000
0000
,
0010
0000
0001
0000
,
0010
0000
0000
0000
,
1000
1000
1000
0000
,
0200
0000
0300
0000
,
0001
0001
0001
0000
,
0200
0000
0300
0000
,
1000
0000
0100
0000
,
0001
0000
0100
0000
,
1000
0000
1000
0000
,
0001
0000
0001
0000
,
2002
0000
0000
0000
,
0000
0000
0000
0000
,
3003
0000
0000
0000
,
0000
0000
0000
0000
,
0200
0000
0000
0000
,
0000
0000
0000
0000
,
0300
0000
0000
0000
,
0000
0000
0000
0000
;
#NOTES:
     dance-single:
     :
     Easy:
     5:
     :
0000
0000
0000
0000
,
0000
0000
0000
0000
,
0000
0000
0000
0000
,
0000
0000
0000
0000
,
0000
0000
0000
0000
,
2000
0000
3010
0000
,
0002
0000
0013
0000
,
1000
0010
0001
0100
,
0010
0010
0010
0000
,
1000
1000
0010
0010
,
0001
0001
0100
0100
,
1000
0010
1000
1000
,
0001
0010
0001
0000
,
1000
0100
0001
0010
,
1000
0100
0001
0010
,
0100
0010
0100
0100
,
2002
0000
0000
3003
,
0110
0000
0001
0000
,
2000
0010
3001
0000
,
0110
0000
1000
0000
,
0002
0010
1003
0000
,
0110
0000
0001
0000
,
2000
0100
3001
0000
,
0110
0000
1000
0000
,
0002
0100
1003
0000
,
0001
0001
0100
0100
,
1000
1000
0010
0010
,
0001
0001
0100
0100
,
1000
1000
0010
0010
,
0001
0100
1000
0010
,
0001
0100
1000
0010
,
0001
0100
1000
0010
,
0100
0100
0100
0100
,
2002
0000
0000
3003
,
0100
0000
0010
1000
,
0001
0000
0010
0100
,
0010
0000
0001
0100
,
1000
0000
1000
0001
,
1000
1000
0010
0010
,
0001
0001
0100
0100
,
2002
0000
0000
0000
,
0000
0000
0000
3003
,
0100
0010
0100
0010
,
0100
0010
1001
0000
,
1000
0100
1000
0100
,
0001
0100
0001
0100
,
1000
0100
1000
0100
,
0010
0001
0010
0001
,
2000
3010
0002
0013
,
2000
3010
0002
0013
,
0001
0010
0100
1000
,
0001
1000
1001
0000
,
0010
1000
0100
0010
,
0200
0010
0010
0310
,
0010
0001
0100
0010
,
0200
0010
0010
0310
,
1000
0010
0001
0010
,
1000
0010
0001
0000
,
0100
0001
0010
0001
,
0220
0000
0000
0330
,
2002
0000
0000
0000
,
0000
0000
0000
0000
,
3003
0000
0000
0000
,
0000
0000
0000
0000
,
0200
0000
0000
0000
,
0000
0000
0000
0000
,
0300
0000
0000
0000
,
0000
0000
0000
0000
;
#NOTES:
     dance-single:
     :
     Medium:
     9:
     :
0000
0000
0000
0000
,
0000
0000
0000
0000
,
0000
0000
0000
0000
,
0000
0000
0000
0000
,
0000
0000
0000
0000
,
0002
0000
0103
0000
,
2000
0000
3100
0000
,
0001
0000
1000
0010
0100
0010
1000
0001
,
0000
0110
0000
1001
0000
0010
0001
0100
,
0010
0010
1000
1000
,
0100
0100
0001
0001
,
1000
0100
0010
0100
0010
0100
1000
0000
,
0001
0100
0010
0100
0010
0100
0001
0000
,
1000
0010
1000
0000
0001
0010
0001
0000
,
1000
0100
1000
0000
0001
0100
0001
0000
,
0010
0001
0100
0010
1000
0100
0010
0001
,
2000
0000
0000
3001
,
0110
0000
0001
0000
1000
0100
0001
0000
,
0001
0100
1000
0000
0001
0000
0101
0000
,
2000
0000
0010
0000
0000
0010
0000
3010
,
0100
0001
0000
1100
0000
0101
0000
1100
,
0000
0001
0100
1000
0000
0100
0000
0001
,
0000
0010
0100
0010
0001
0000
1001
0000
,
0001
0010
0100
0000
1000
0010
0100
0010
,
0000
1000
0000
0000
0100
0010
0001
0000
,
1000
1000
0010
0010
,
0001
0001
1000
1000
,
0010
0010
0001
0001
,
1000
1000
0010
0010
,
0001
0100
0010
0000
1000
0100
0010
0000
,
0100
1000
0010
0000
0100
0001
0010
0000
,
0001
1000
0001
0100
0010
1000
0010
0100
,
0001
0010
0100
1000
0010
1000
0001
0000
,
1000
0000
0000
1000
0000
0000
0001
0000
0000
0001
0000
0000
1001
0000
0000
0000
,
0010
0000
0000
0001
0100
0000
0010
0000
,
1000
0000
0000
0100
0010
0001
0010
0100
,
0010
0000
0000
0001
1000
0000
0010
0100
,
0010
0000
0000
1000
0001
0100
0001
0010
,
0001
0001
0100
0100
,
1000
1000
0010
0010
,
2002
0000
0000
0000
,
0000
0000
0000
3003
,
0010
0001
0100
0000
0010
1000
0100
0000
,
0010
0001
0100
0010
1000
0100
0010
0000
,
0001
0100
0010
0100
0001
0100
0010
0000
,
1000
0100
0010
0100
1000
0100
0010
0000
,
0001
1000
0010
1000
0001
1000
0010
0000
,
0100
0001
1000
0001
0100
0001
1000
0000
,
0001
0100
1000
0000
1000
0100
0001
0000
,
0001
0010
1000
0000
1000
0010
0001
0000
,
1000
0010
0100
0001
0010
0001
1000
0000
,
0001
0100
0010
1000
0001
0000
0110
0000
,
0001
0100
0001
1000
0100
1000
0001
1000
,
0020
0100
0100
0130
,
0001
0010
0001
1000
0010
1000
0001
1000
,
0200
0010
0010
0310
,
0001
1000
0100
0000
1000
0001
0100
0000
,
0010
0100
0010
0100
0010
1000
0100
0000
,
0010
0001
1000
0001
0100
0010
1000
0000
,
0220
0000
0000
0330
,
2002
0000
0000
0000
,
0000
0000
0000
0000
,
3003
0000
0000
0000
,
0000
0000
0000
0000
,
0020
0000
0000
0000
,
0000
0000
0000
0000
,
0030
0000
0000
0000
,
0000
0000
0000
0000
;
#NOTES:
     dance-single:
     :
     Hard:
     13:
     :
0000
0000
0000
0000
,
0000
0000
0000
0000
,
0000
0000
0000
0000
,
0000
0000
0000
0000
,
0000
0000
0000
0000
,
2000
0000
0010
0000
,
3002
0000
0010
0000
,
1003
0000
0001
0100
0010
1000
0001
1000
,
0000
1010
0000
0101
0000
0010
1000
0100
,
0010
0000
0010
0001
0010
0000
0010
0000
,
0010
0000
0001
0010
0001
0000
1000
0000
0010
0000
0000
0000
0010
0000
0000
0000
,
0001
0100
1000
0100
0010
0100
1000
0100
,
0001
0010
1000
0010
0100
0010
0001
0000
,
1000
0000
0100
0000
1000
0100
0000
1000
0100
0000
0010
0100
0000
0010
0000
0010
,
0001
0000
0100
0000
0001
0100
0000
0001
0100
0000
0010
0100
0000
0010
0000
0010
,
1000
0010
1000
0000
0010
0100
0010
0000
0100
0001
0100
0000
0001
1000
0001
0000
,
0220
0000
0300
0130
,
1001
0000
0010
0001
0100
1000
0100
0001
,
0010
1000
0010
0001
1000
0000
1100
0000
,
0102
0000
0010
0000
0000
1000
0000
0013
,
0100
1000
0100
0001
0100
1000
0010
0001
,
0000
1000
0100
0001
0000
1200
0000
0301
,
0000
1000
0010
0001
1000
0000
0110
0000
,
1000
0010
0100
0010
0001
0010
0100
0010
,
0000
0000
1000
0000
0000
1000
0000
0000
0001
0000
0100
0000
0010
0000
1000
0000
,
0001
1000
0000
0000
0000
0000
0000
0000
0000
0000
0000
0010
0000
0000
0010
0000
,
0001
1000
0000
0000
0000
0000
0000
0000
0000
0000
0000
0000
0000
0000
0000
0000
,
0001
1000
0000
0000
0000
0000
0000
0000
0000
0000
0000
0010
0000
0000
0010
0000
,
0001
1000
0000
0000
0000
0000
0000
0000
0000
0000
0000
0000
0000
0000
0000
0000
,
1000
0100
0010
0001
0100
0010
1000
0100
,
0010
0001
1000
0010
0100
0001
0010
0100
,
1000
0100
1000
0000
0001
0100
0001
0000
0100
0010
0100
0000
0001
1000
0001
0000
,
1000
0010
1000
0010
1000
0010
1000
0000
0001
0010
0001
0010
0001
0010
0001
0000
,
1010
0000
0000
0110
0000
0000
0011
0000
0000
0110
0000
0000
1001
0000
0000
0000
,
0020
0000
0000
2030
3200
0000
0320
0000
,
0032
0000
0000
0000
0000
0000
1003
0001
1000
0000
0010
0000
0001
0000
0010
0000
,
2000
0000
0000
0000
0000
0000
3002
0000
0023
0000
0000
0000
0130
0010
0100
0010
,
0200
0000
0000
0000
0000
0000
0310
0001
0010
0000
0100
0000
1000
0000
0010
0100
,
0010
0010
1000
1000
,
0100
0100
0001
0001
,
2002
0000
0000
0000
,
0000
0000
0000
3003
,
0010
0000
1000
0010
0000
1000
0000
0010
0100
0000
0001
0100
0000
0001
0000
0100
,
0010
0100
0010
0000
1000
0010
1000
0000
0001
0010
0001
0000
1000
0000
1000
0000
,
0001
0000
0010
0000
1000
0000
0010
0000
0001
0000
0010
0000
0100
0010
0100
0000
,
1000
0000
0010
0000
0100
0000
0010
0000
0001
0000
0010
0000
0100
0010
0100
0000
,
0001
0000
0100
0000
1000
0000
0100
0000
0001
0000
0100
0000
0010
0100
0010
0000
,
1000
0000
0100
0000
0001
0000
0100
0000
1000
0000
0100
0000
0010
0100
0010
0000
,
0001
1000
0100
0010
0001
1000
0001
0100
,
0010
0001
0010
1000
0001
0100
0010
1000
,
0001
0001
0011
0000
1000
1000
1010
0000
,
0001
0000
1000
0000
0001
0000
1000
0000
0010
0100
0010
0100
0010
0100
0010
0000
,
1000
0000
0100
1000
0100
0000
1000
0000
0001
0000
0100
0001
0100
0000
0001
0000
,
0020
0100
0100
0130
,
1000
0000
0010
1000
0010
0000
1000
0000
0001
0000
0010
0001
0010
0000
0001
0000
,
0200
0010
0010
0310
,
1000
0010
0001
0010
1000
0001
0100
0010
,
0001
0010
0001
0010
0100
0010
0100
0010
1000
0000
0001
0000
0100
0000
0000
0000
,
0001
0010
1000
0001
0100
1000
0001
0100
,
0020
0000
0000
0030
,
2002
0000
0000
0000
,
0000
0000
0000
0000
,
3003
0000
0000
0000
,
0000
0000
0000
0000
,
0200
0000
0000
0000
,
0000
0000
0000
0000
,
0300
0000
0000
0000
,
0000
0000
0000
0000
;
#NOTES:
     dance-double:
     :
     Easy:
     5:
     :
00000000
00000000
00000000
00000000
,
00000000
00000000
00000000
00000000
,
00000000
00000000
00000000
00000000
,
00000000
00000000
00000000
00000000
,
00000000
00000000
00000000
00000000
,
10000000
00000000
01000000
00000000
,
00010000
00000000
00001000
00000000
,
00010000
00001000
00000100
00000001
,
00000010
00000010
00000010
00000000
,
00000001
00000001
00000100
00000100
,
00000010
00000010
00001000
00001000
,
00010000
00010000
01000000
01000000
,
00100000
00100000
10000000
00000000
,
00100000
10000000
01000000
00010000
,
00001000
00000100
00000001
00000010
,
00001000
00010000
00001000
00010000
,
00022000
00000000
00000000
00033000
,
00100000
00000000
10010000
00000000
,
10000000
01000000
00100000
00000000
,
00001000
00000000
00011000
00000000
,
00001000
00000010
00000001
00000000
,
00000010
00000000
00001001
00000000
,
00000001
00000100
00000010
00000000
,
00010000
00000000
00011000
00000000
,
00010000
00100000
10000000
00000000
,
00010000
00010000
01000000
01000000
,
10000000
10000000
00100000
00100000
,
00010000
00010000
00001000
00001000
,
00000010
00000010
00000001
00000001
,
00000100
00001000
00010000
01000000
,
10000000
00100000
00010000
00001000
,
00000010
00000001
00000010
00001000
,
00000010
00000100
00000010
00000100
,
00002002
00000000
00000000
00003003
,
00000010
00000000
00000001
00000100
,
00001000
00000000
00010000
00100000
,
10000000
00000000
00010000
01000000
,
10000000
00000000
00010000
10000000
,
01000000
01000000
00100000
00100000
,
00010000
00010000
00001000
00001000
,
00022000
00000000
00000000
00000000
,
00000000
00000000
00000000
00033000
,
00010000
00001000
00000010
00000001
,
00000100
00000010
00001001
00000000
,
00000001
00000100
00000010
00000100
,
00001000
00010000
01000000
10000000
,
00100000
10000000
00010000
10000000
,
01000000
00010000
00001000
00000100
,
00000010
00001000
00000010
00000001
,
00000010
00001000
00000001
00000100
,
00000001
00000010
00001000
00010000
,
00100000
10000000
10010000
00000000
,
10000000
01000000
00100000
00010000
,
00011000
00000000
00000000
00000000
,
00000001
00000100
00000010
00001000
,
00011000
00000000
00000000
00000000
,
10000000
01000000
00100000
01000000
,
00010000
00001000
00010000
00000000
,
00000010
00001000
00000010
00000100
,
00002002
00000000
00000000
00003003
,
00000220
00000000
00000000
00000000
,
00000000
00000000
00000000
00000000
,
00000330
00000000
00000000
00000000
,
00000000
00000000
00000000
00000000
,
00020000
00000000
00000000
00000000
,
00000000
00000000
00000000
00000000
,
00030000
00000000
00000000
00000000
,
00000000
00000000
00000000
00000000
;
#NOTES:
     dance-double:
     :
     Medium:
     9:
     :
00000000
00000000
00000000
00000000
,
00000000
00000000
00000000
00000000
,
00000000
00000000
00000000
00000000
,
00000000
00000000
00000000
00000000
,
00000000
00000000
00000000
00000000
,
00000020
00000000
00001030
00000000
,
00020000
00000000
00031000
00000000
,
01000000
00000000
00010000
01000000
00100000
10000000
01000000
00200000
,
00000000
00010000
00000000
01300000
00000000
00100000
00001000
00010000
,
00000010
00000010
00001000
00001000
,
00000100
00000100
00000010
00000010
,
00000001
00000100
00000010
00000100
00000001
00000100
00001000
00000000
,
00010000
00001000
00100000
00001000
00010000
00100000
01000000
00000000
,
00100000
10000000
01000000
00000000
00100000
00010000
01000000
00000000
,
00001000
00010000
00000100
00000000
00001000
00000010
00000100
00000000
,
00000010
00001000
00000100
00000010
00000001
00000100
00000010
00001000
,
00000002
00000000
00000000
00001003
,
00000110
00000000
00001000
00000000
00000001
00000100
00000010
00000000
,
00010000
00001000
00010000
00000000
00100000
00000000
01100000
00000000
,
20000000
00000000
00010000
00000000
00000000
00010000
00000000
30010000
,
01000000
00100000
00000000
01010000
00000000
00011000
00000000
00110000
,
00000000
01000000
10000000
00010000
00000000
00100000
00000000
00010000
,
00000000
00001000
00000100
00000010
00000001
00000000
00001001
00000000
,
00001000
00000010
00000100
00000000
00000001
00000010
00000100
00000010
,
00000000
00001000
00000000
00000000
00010000
00001000
00010000
00000000
,
00100000
00100000
10000000
10000000
,
01000000
01000000
00010000
00010000
,
00001000
00001000
00000010
00000010
,
00000001
00000001
00000100
00000100
,
00001000
00000100
00000010
00000000
00000001
00000100
00000010
00000000
,
00001000
00000100
00010000
00000000
00001000
00100000
00010000
00000000
,
10000000
00100000
01000000
00010000
10000000
01000000
00100000
00010000
,
01000000
00001000
00010000
00000100
00000010
00000001
00001000
00000000
,
00000010
00000000
00000000
00000010
00000000
00000000
00000100
00000000
00000000
00000100
00000000
00000000
00001001
00000000
00000000
00000000
,
00000010
00000000
00000000
00000001
00000100
00000000
00001000
00000000
,
00010000
00000000
00000000
01000000
10000000
00100000
01000000
00100000
,
10000000
00000000
00000000
00010000
01000000
00000000
00100000
10000000
,
01000000
00000000
00000000
00010000
00001000
00000010
00000100
00000010
,
00000001
00000001
00000100
00000100
,
00000010
00000010
00001000
00001000
,
00022000
00000000
00000000
00000000
,
00000000
00000000
00000000
00033000
,
00100000
00010000
01000000
00000000
00100000
10000000
01000000
00000000
,
00100000
01000000
00010000
00001000
00000010
00000100
00000010
00000000
,
00000001
00001000
00000001
00000100
00000010
00001000
00000100
00000000
,
00001000
00000010
00010000
00000100
00001000
00000010
00010000
00000000
,
00001000
00100000
00010000
10000000
01000000
00100000
00010000
00000000
,
01000000
00001000
00100000
00010000
01000000
00001000
00010000
00000000
,
00000010
00001000
00000100
00000000
00000010
00000001
00000100
00000000
,
00000001
00000100
00001000
00000000
00010000
00001000
00010000
00000000
,
00001000
00100000
00010000
10000000
00010000
01000000
00100000
00000000
,
10000000
01000000
00100000
00010000
10000000
00000000
01100000
00000000
,
10000000
01000000
00010000
00001000
00010000
00001000
00000010
00000001
,
00000200
00000010
00000010
00000310
,
00000001
00000100
00001000
00010000
00001000
00010000
00100000
10000000
,
02000000
00100000
00100000
03100000
,
10000000
01000000
00100000
00000000
00010000
00100000
01000000
00000000
,
00010000
00001000
00010000
00001000
00000010
00000001
00001000
00000000
,
00000010
00001000
00000001
00001000
00000100
00000010
00000001
00000000
,
00000110
00000000
00000000
00000000
,
00022000
00000000
00000000
00000000
,
00000000
00000000
00000000
00000000
,
00033000
00000000
00000000
00000000
,
00000000
00000000
00000000
00000000
,
00200000
00000000
00000000
00000000
,
00000000
00000000
00000000
00000000
,
00300000
00000000
00000000
00000000
,
00000000
00000000
00000000
00000000
;
#NOTES:
     dance-double:
     :
     Hard:
     13:
     :
00000000
00000000
00000000
00000000
,
00000000
00000000
00000000
00000000
,
00000000
00000000
00000000
00000000
,
00000000
00000000
00000000
00000000
,
00000000
00000000
00000000
00000000
,
20000000
00000000
32000000
00000000
,
03200000
00000000
00320000
00000000
,
00031000
00000000
00000100
00000010
00001000
00000010
00000001
00001000
,
00000000
00000110
00000000
00001001
00000000
00000100
00010000
00001000
,
00100000
00000000
00100000
01000000
00100000
00000000
00100000
00000000
,
00100000
00000000
00010000
10000000
00010000
00000000
01000000
00000000
00100000
00000000
00000000
00000000
00100000
00000000
00000000
00000000
,
00100000
00010000
00001000
00000010
00000001
00000010
00001000
00000010
,
00000001
00000100
00001000
00010000
01000000
10000000
00010000
00000000
,
10000000
00000000
00100000
00000000
10000000
00100000
00000000
10000000
00100000
00000000
01000000
00100000
00000000
01000000
00000000
00100000
,
00010000
00000000
00001000
00000000
00010000
00001000
00000000
00010000
00001000
00000000
00000010
00000100
00000000
00000010
00000000
00000100
,
00000010
00000001
00000010
00000000
00000100
00001000
00000100
00000000
00010000
00001000
00010000
00000000
00000010
00001000
00000010
00000000
,
00000220
00000000
00000300
00000130
,
00001001
00000000
00001000
00000010
00000001
00001000
00010000
00001000
,
00100000
10000000
00010000
01000000
10000000
00000000
10010000
00000000
,
01020000
00000000
10000000
00000000
00000000
00100000
00000000
00031000
,
00000100
00010000
00000010
00001000
00000001
00000100
00000010
00000000
,
00001001
00000000
00001000
00000100
00000001
00001000
00010000
00001000
,
01000000
10000000
00010000
00100000
10000000
00000000
01100000
00000000
,
10000000
01000000
00010000
01000000
00001000
00010000
00000010
00001000
,
00000000
00000000
00010000
00000000
00000000
00001000
00000000
00000000
00000100
00000000
00000001
00000000
00000010
00000000
00000100
00000000
,
00001000
00000001
00000000
00000000
00000000
00000000
00000000
00000000
00000000
00000000
00000000
00000100
00000000
00000000
00000100
00000000
,
00001000
00010000
00000000
00000000
00000000
00000000
00000000
00000000
00000000
00000000
00000000
00000000
00000000
00000000
00000000
00000000
,
10000000
00010000
00000000
00000000
00000000
00000000
00000000
00000000
00000000
00000000
00000000
00100000
00000000
00000000
00100000
00000000
,
00010000
00001000
00000000
00000000
00000000
00000000
00000000
00000000
00000000
00000000
00000000
00000000
00000000
00000000
00000000
00000000
,
00010000
00000010
00001000
00000001
00000100
00000010
00001000
00000100
,
00000010
00001000
00010000
01000000
10000000
00100000
01000000
00100000
,
10000000
01000000
10000000
00000000
01000000
00100000
01000000
00000000
00100000
00010000
00100000
00000000
00010000
00001000
00010000
00000000
,
00001000
00000100
00001000
00000100
00001000
00000100
00001000
00000000
00000100
00000010
00000100
00000010
00000100
00000010
00000100
00000000
,
00000011
00000000
00000000
00000110
00000000
00000000
00001010
00000000
00000000
00000110
00000000
00000000
00001001
00000000
00000000
00000000
,
00000020
00000000
00000000
00000031
00000200
00000000
00002300
00000000
,
00023000
00000000
00000000
00000000
00000000
00000000
00130000
01000000
00100000
00000000
10000000
00000000
00010000
00000000
00100000
00000000
,
20000000
00000000
00000000
00000000
00000000
00000000
30100000
00000000
00020000
00000000
00000000
00000000
01030000
00100000
01000000
00100000
,
02000000
00000000
00000000
00000000
00000000
00000000
03001000
00010000
00001000
00000000
00010000
00000000
00001000
00000000
00000010
00000100
,
00000010
00000010
00000001
00000001
,
00000100
00000100
00001000
00001000
,
00022000
00000000
00000000
00000000
,
00000000
00000000
00000000
00033000
,
00100000
00000000
00010000
00100000
00000000
00010000
00000000
00100000
01000000
00000000
10000000
01000000
00000000
10000000
00000000
01000000
,
10000000
00010000
10000000
00000000
00100000
01000000
00100000
00000000
00010000
00100000
00010000
00000000
00001000
00000000
00001000
00000000
,
00010000
00001000
00000100
00001000
00010000
00001000
00000100
00000001
,
00000010
00001000
00010000
00001000
00000010
00001000
00010000
00100000
,
10000000
01000000
00010000
01000000
10000000
01000000
00010000
00001000
,
00000100
00000001
00001000
00000010
00000001
00001000
00000100
00000000
,
00000001
00000100
00000010
00000100
00010000
00001000
00100000
00010000
,
00001000
00010000
01000000
10000000
00100000
01000000
00010000
10000000
,
00010000
00100000
01000000
00000000
10000000
00100000
01000000
00000000
,
00010000
00000000
00100000
00000000
10000000
00000000
00100000
00000000
00001000
00010000
00001000
00010000
00001000
00010000
00001000
00000000
,
00010000
00000000
00000010
00000100
00000010
00000000
00010000
00000000
00001000
00000000
00100000
01000000
00100000
00000000
00001000
00000000
,
00020000
00001000
00001000
00031000
,
00010000
00000000
00000100
00000010
00000100
00000000
00010000
00000000
00001000
00000000
01000000
00100000
01000000
00000000
00001000
00000000
,
00020000
00001000
00001000
00031000
,
00010000
00001000
00000100
00000001
00001000
00000100
00000001
00001000
,
00010000
01000000
00100000
00010000
01000000
00100000
10000000
00000000
,
00010000
01000000
10000000
00010000
00001000
00000100
00000010
00001000
,
00000200
00000000
00000000
00000300
,
00000022
00000000
00000000
00000000
,
00000000
00000000
00000000
00000000
,
00000033
00000000
00000000
00000000
,
00000000
00000000
00000000
00000000
,
00002000
00000000
00000000
00000000
,
00000000
00000000
00000000
00000000
,
00003000
00000000
00000000
00000000
,
00000000
00000000
00000000
00000000
;
