
//----- song ID: t503 -----//
#TITLE:50th Memorial Songs -Flagship medley-;
#ARTIST:BEMANI Sound Team;
#BANNER:50th Memorial Songs -Flagship medley-.png;
#BACKGROUND:50th Memorial Songs -Flagship medley--bg.png;
#CDTITLE:./CDTitles/DDR A20.png;
#MUSIC:50th Memorial Songs -Flagship medley-.ogg;
#SAMPLESTART:12.347;
#SAMPLELENGTH:15;
#BPMS:0=175,72=135,180=143,232=175;
#NOTES:
     dance-single:
     :
     Beginner:
     3:
     :
0000
0000
0000
0000
,
0000
0000
0000
0000
,
0000
0000
0000
0000
,
0000
0000
0000
0000
,
0000
0000
0000
0000
,
1000
0000
0000
0000
,
1000
0000
0000
0000
,
0001
0000
0000
0000
,
0001
0000
0000
0000
,
0010
0000
0000
0000
,
0010
0000
0000
0000
,
0100
0000
0000
0000
,
0100
0000
0000
0000
,
0010
0000
0000
0000
,
0010
0000
0000
0000
,
0100
0000
0000
0000
,
0100
0000
0000
0000
,
1001
0000
0000
0000
,
0000
0000
0000
0000
,
0001
0000
0001
0000
,
1000
0000
1000
0000
,
0010
0000
0000
0000
,
0010
0000
0000
0000
,
0001
0000
0001
0000
,
1000
0000
1000
0000
,
0010
0000
0000
0000
,
0010
0000
0000
0000
,
0100
0100
0100
0000
,
0010
0010
0010
0000
,
0100
0100
0100
0000
,
0020
0000
0030
0000
,
1000
1000
1000
0000
,
0001
0001
0001
0000
,
1000
0000
0001
0000
,
1000
0000
0001
0000
,
1001
0000
0000
0000
,
0010
0000
0000
0000
,
1000
0000
0000
0000
,
0001
0000
0000
0000
,
0100
0000
0000
0000
,
0010
0000
0010
0000
,
1000
0000
1000
0000
,
0001
0000
0001
0000
,
0100
0000
0100
0000
,
0000
0000
0000
0000
,
1000
0000
0010
0000
,
1000
0000
0000
0000
,
0001
0000
0010
0000
,
0001
0000
0000
0000
,
0010
0000
0100
0000
,
0010
0000
0000
0000
,
0100
0000
0010
0000
,
0100
0000
0000
0000
,
0001
0000
0001
0000
,
1000
0000
0000
0000
,
1000
0000
1000
0000
,
0001
0000
0000
0000
,
0010
0000
0010
0000
,
0010
0000
0000
0000
,
0010
0000
0000
0000
,
0001
0000
0000
0000
,
0100
0000
0000
0000
,
1000
0000
0000
0000
,
0001
0000
0001
0000
,
1000
0000
1000
0000
,
0001
0000
1000
0000
,
0001
0000
1000
0000
,
1001
0000
0000
0000
,
0000
0000
0000
0000
;
#NOTES:
     dance-single:
     :
     Easy:
     7:
     :
0000
0000
0000
0000
,
0000
0000
0000
0000
,
0000
0000
0000
0000
,
0000
0000
0000
0000
,
0000
0000
0000
0000
,
0010
0000
1000
0000
,
0001
0000
0100
0000
,
0010
0010
1000
1000
,
0001
0001
0100
0100
,
0010
1000
0100
0100
,
1000
0001
0100
0100
,
0001
1000
0010
0010
,
1000
0001
0010
0010
,
0100
1000
0001
0001
,
0100
0010
1000
1000
,
0010
1000
0001
0100
,
0010
1000
0001
0100
,
0010
0100
0000
0010
0000
0010
0000
0020
,
0000
0000
0030
0000
,
1001
0110
1001
0020
,
1030
0000
0001
0000
0100
0010
0100
0000
,
0010
1000
0100
0001
,
0010
1000
0100
0001
,
0110
1001
0110
0200
,
0301
0000
0010
0000
0001
1000
0001
0000
,
0010
1000
0100
0001
,
0010
1000
0100
0001
,
0010
1001
0100
0010
,
0100
1001
0010
0100
,
0001
1001
1000
0100
,
0010
0001
0100
0010
,
0100
1001
0010
0100
,
0010
1001
0100
0010
,
2000
3200
0320
0032
,
1003
0010
0110
1001
,
0000
0000
0000
0000
,
0001
0010
0001
0010
,
0100
1000
0100
1000
,
0010
0100
0010
0100
,
0001
1000
0001
1000
,
0010
0000
0001
0000
0010
0001
0010
0000
,
0100
0000
1000
0000
0100
1000
0100
0000
,
0010
0000
0100
0000
0010
0100
0010
0000
,
1000
0000
0001
0000
1000
0001
1000
0002
,
0000
0000
0000
0003
,
0010
0001
1000
0100
,
0010
0000
0000
0010
0000
0000
0000
0000
0000
0000
0000
0000
0000
0000
0000
0000
,
0100
0000
0000
0100
0000
0000
0000
0000
0000
0000
0000
0000
0000
0000
0000
0000
,
0001
0000
0010
0000
0001
0010
0000
0000
,
0100
1000
0001
0100
,
0010
0000
0000
0010
0000
0000
0000
0000
0000
0000
0000
0000
0000
0000
0000
0000
,
1000
0000
0100
0000
1000
0100
0000
0000
,
0010
0000
0001
0000
0010
0001
0000
0000
,
0002
0100
1000
0010
,
1000
0103
0020
0130
,
2000
0100
0010
0001
,
0100
3010
0100
0001
,
0100
0000
0000
0100
0000
0000
0100
0000
0000
0100
0000
0000
0100
0000
0000
0000
,
0200
0000
0000
0300
,
0001
1001
1000
1001
,
0001
1001
1000
1001
,
0010
0100
0010
0100
,
0001
1000
0001
1000
,
0001
0110
1000
0110
,
0001
0110
1000
0110
,
0010
0001
0100
1000
,
0010
0001
0100
1000
,
0020
0000
0000
0000
,
0000
0000
0000
0000
,
0030
0000
0000
0000
,
0000
0000
0000
0000
;
#NOTES:
     dance-single:
     :
     Medium:
     9:
     :
0000
0000
0000
0000
,
0000
0000
0000
0000
,
0000
0000
0000
0000
,
0000
0000
0000
0000
,
0000
0000
0000
0000
,
0010
0010
1000
1000
,
0001
0001
0100
0100
,
0010
0101
0010
1100
,
0001
0100
0010
1000
0000
0100
0001
0010
,
0100
0000
0110
0000
1001
0000
0100
1000
,
0000
0001
0000
1000
0100
0000
2002
0000
,
3003
0000
1001
0000
0110
0000
0100
0001
,
0000
1000
0000
0001
0100
0000
1001
0000
,
0010
1000
0010
0000
0100
0001
0100
0000
,
0001
0010
0001
0000
1000
0100
1000
0000
,
0010
0100
0001
0000
0010
0100
1000
0000
,
0001
1000
0010
0000
1000
0001
0100
0000
,
0010
1000
0000
0001
0000
0100
0000
2002
,
0000
0000
3003
0000
,
0011
0000
0000
0000
1100
0000
0000
0000
0101
0000
0000
0000
0010
0000
0000
0100
,
0000
1000
0000
0000
0010
0000
1000
0000
0001
0000
0100
0000
0010
0000
1000
0000
,
0001
0000
0000
1000
0000
0000
2002
0000
0000
0000
0000
0000
3003
0000
0000
0000
,
0002
2003
3020
0230
,
0301
0000
0000
0000
1010
0000
0000
0000
1100
0000
0000
0000
0010
0000
0000
0100
,
0000
0001
0000
0000
0010
0000
0001
0000
0100
0000
0010
0000
1000
0000
0001
0000
,
1000
0000
0000
0001
0000
0000
2002
0000
0000
0000
0000
0000
3003
0000
0000
0000
,
2000
3020
0230
0302
,
0003
0000
1000
0000
0010
0000
0100
0000
0001
0000
0000
0010
0000
0000
0200
0000
,
0000
0000
1300
0000
0100
0000
0010
0000
0001
0000
0000
0010
0000
0000
0200
0000
,
0000
0000
0310
0000
0001
0000
0100
0000
0010
0000
0000
1000
0000
0000
0002
0000
,
0000
0013
0100
0000
1000
0000
0001
0000
,
0000
0000
1000
0000
0010
0000
0100
0000
0001
0000
0000
0010
0000
0000
0200
0000
,
0000
0000
1300
0000
0001
0000
0100
0000
0001
0000
0000
0100
0000
0000
0010
0000
,
2000
3002
0023
0230
,
0310
0000
0000
0001
0000
0000
0100
0000
0010
0000
0000
0000
1001
0000
0000
0000
,
0001
0000
1000
0000
0001
1000
0100
0000
,
1000
0100
0010
0000
0001
0100
0010
0000
,
1000
0001
0100
0000
0001
1000
0100
0000
,
0010
0001
0100
0000
0010
1000
0100
0000
,
1000
0100
0001
0000
0100
1000
0010
0000
,
0100
0001
0010
0000
0001
0010
0100
0000
,
0010
0100
1000
0000
0001
1000
0100
0000
,
0010
1000
0100
0000
1000
0001
0100
0000
,
0001
0100
1000
0000
0100
0001
0010
0200
,
0000
0000
0000
0300
,
1000
0000
0100
0000
0010
0000
0001
0100
,
0010
0000
0000
0100
0000
0000
0000
0000
0001
0000
0000
0000
0100
0000
0000
0000
,
0010
0000
0000
1000
0000
0000
0000
0000
0010
0000
1000
0000
0001
0000
0010
0000
,
0100
0000
0000
0010
0000
0000
0100
0000
1000
0000
0010
0000
0000
0000
0000
0000
,
0100
0000
0010
0000
1000
0000
0001
1000
,
0100
0000
0000
0010
0000
0000
0000
0000
0001
0000
0000
0000
0100
0000
0000
0000
,
0010
0000
0000
1000
0000
0000
0001
0000
0010
0000
0100
0000
0000
0000
0000
0000
,
0010
0000
0000
0001
0000
0000
1000
0000
0010
0000
0100
0000
0000
0000
0000
0000
,
0010
1000
0100
0000
1000
0001
0100
0000
,
0010
1000
0100
0000
0010
0100
1000
0000
,
1000
0010
0100
0000
0001
1000
0100
0000
,
0010
0001
0100
0000
0010
1000
0001
0000
,
0100
0000
0000
0001
0000
0000
1000
0000
0000
0100
0000
0000
0010
0000
0100
0000
,
0020
0000
0000
0030
,
0001
1000
0100
0000
1000
0001
0100
0000
,
0001
1000
0100
0000
1000
0001
0100
0000
,
0001
1000
0010
0000
1000
0001
0010
0000
,
0001
1000
0010
0000
1000
0001
0010
0000
,
0100
0000
0010
0000
0001
1000
0100
0000
,
0010
0000
0100
0000
0010
0001
1000
0000
,
0001
0010
0001
0000
0001
0100
0001
0000
,
1000
0010
1000
0000
1000
0100
1000
0000
,
0200
0000
0000
0000
,
0000
0000
0000
0000
,
0300
0000
0000
0000
,
0000
0000
0000
0000
;
#NOTES:
     dance-single:
     :
     Hard:
     12:
     :
0000
0000
0000
0000
,
0000
0000
0000
0000
,
0000
0000
0000
0000
,
0000
0000
0000
0000
,
0000
0000
0000
0000
,
0010
1000
0000
0000
0010
0100
0000
0000
,
0001
0010
0000
0000
0001
1000
0000
0000
,
1000
0001
0000
0000
1000
0100
0000
0000
,
0010
0100
0000
0020
0000
0031
0100
0010
,
1000
0000
1010
0000
0101
0000
0100
0001
,
0000
1000
0100
0010
0001
0000
1100
0000
,
0001
0000
1100
0000
0011
0000
1000
0100
,
0000
0001
0100
0010
1000
0000
0110
0000
,
1000
0100
0000
1000
0100
0001
0000
0100
,
1000
0010
0000
1000
0010
0001
0010
0100
,
1000
0100
0000
0010
1000
0100
0000
0001
,
0100
1000
0000
0010
0100
0001
0010
0000
,
0100
0010
0000
1010
0000
0011
0000
2002
,
0000
0000
3003
0000
,
0010
0000
1000
0000
0010
0000
0100
0000
0010
0000
0001
0000
0020
0000
0000
0130
,
0000
0001
0000
0000
0010
0000
0100
0000
1000
0000
0010
0000
0100
0000
0001
0000
,
0101
0000
0000
1010
0000
0000
0220
0000
0000
0000
0000
0000
0000
0000
0000
0000
,
0330
0000
0100
0000
0010
0000
1000
0000
0010
0000
0000
0001
0000
0000
0010
0000
,
0100
0000
1000
0000
0100
0000
0010
0000
0100
0000
0001
0000
0200
0000
0000
0310
,
0000
1000
0000
0000
0010
0000
0100
0000
0001
0000
0010
0000
0100
0000
1000
0000
,
1100
0000
0000
0011
0000
0000
2002
0000
0000
0000
0000
0000
0000
0000
0000
0000
,
3003
0000
1000
0000
0000
0010
0000
0000
0001
0000
0000
0010
0000
0000
1000
0000
,
0000
0000
0001
0000
1000
0000
0001
0000
0101
0000
0000
1100
0000
0000
0201
0000
,
0000
0000
0310
0000
1000
0000
0100
0000
1100
0000
0000
0101
0000
0000
1200
0000
,
0000
0000
0310
0000
0001
0000
0010
0000
1010
0000
0000
0011
0000
0000
1001
0000
,
0000
0010
0100
0000
0010
0000
1001
0000
,
0000
0000
0001
0000
0010
0000
1000
0000
1010
0000
0000
0011
0000
0000
0120
0000
,
0000
0000
1030
0000
0010
0000
0001
0000
0011
0000
0000
1010
0000
0000
0110
0000
,
0100
0000
0000
0010
1000
0000
0000
0100
0010
0000
0000
0001
0100
0000
0000
0000
,
0010
0000
0000
1000
0000
0100
0010
0000
0100
0000
0000
0000
1001
0000
0000
0000
,
0001
0100
0001
0000
0010
0000
0100
1000
0100
0000
0010
0000
0001
0000
1000
0000
,
0001
0100
0010
1000
0001
0100
0010
1000
,
0001
0100
0010
1000
0001
0100
0010
1000
,
1000
0100
0010
0001
1000
0100
0010
0001
,
1000
0100
0010
0001
1000
0100
0010
0001
,
0001
1000
0001
0000
0100
0000
0010
0000
1000
0000
0001
0000
0100
0000
0010
0000
,
1000
0001
1000
0000
0100
0000
0010
0000
0001
0000
1000
0000
0100
0000
0010
0000
,
0001
1000
0001
0000
0010
0000
0100
0000
1000
0000
0001
0000
0010
0000
0100
0000
,
1000
0001
1000
0000
0100
0000
0010
0000
0001
0000
1000
0000
0100
0000
0220
0000
,
0000
0000
0000
0330
,
0001
0000
0000
0000
0100
0000
0000
0000
0001
0000
0000
0000
0010
0000
0100
0010
,
0100
0000
0000
0010
0000
0000
0000
0000
0001
0000
0000
0000
0100
0000
0000
0000
,
0110
0000
0000
1001
0000
0000
0000
0000
0100
0000
0010
0000
1000
0000
0001
0000
,
0010
0000
0000
0001
0000
0000
1000
0000
0001
0000
2001
0000
0000
0000
0000
0000
,
3001
0000
0000
0000
0100
0000
0000
0000
0010
0000
0000
0000
1000
0100
1000
0100
,
1000
0000
0000
0100
0000
0000
0000
0000
0010
0000
0000
0000
0001
0000
0000
0000
,
1000
0000
0000
0001
0000
0000
1000
0000
1100
0000
0101
0000
0000
0000
0000
0000
,
0001
0000
0000
1000
0000
0000
0001
0000
0101
0000
1100
0000
0000
0000
0000
0000
,
0010
0001
0010
0001
0100
0010
1000
0001
,
0100
0001
1000
0100
0010
0001
0010
0001
,
1000
0100
1000
0100
0010
0001
1000
0100
,
0010
0001
0010
0000
0100
0000
0010
0000
0001
0000
1000
0000
0100
0000
1000
0000
,
0010
0000
0000
0100
0000
0000
0001
0000
0000
1000
0000
0000
1001
0000
0110
0000
,
2002
0000
0000
3003
,
0001
0001
0010
0100
1000
1000
0100
0010
,
0001
0001
1000
0100
1000
1000
0001
0000
,
0100
0100
0001
1000
0010
0010
0100
0001
,
0010
0010
0100
1000
0100
0100
1001
0000
,
0001
0010
1000
0010
0001
0100
1000
0100
,
0001
0010
0100
1000
0001
0100
0010
0000
,
1000
0010
1000
0010
0100
0001
0100
0001
,
0010
1000
0010
0001
0100
0010
1000
0100
,
0020
0000
0000
0000
,
0000
0000
0000
0000
,
0030
0000
0000
0000
,
0000
0000
0000
0000
;
#NOTES:
     dance-double:
     :
     Easy:
     8:
     :
00000000
00000000
00000000
00000000
,
00000000
00000000
00000000
00000000
,
00000000
00000000
00000000
00000000
,
00000000
00000000
00000000
00000000
,
00000000
00000000
00000000
00000000
,
00000001
00000000
00001000
00000000
,
00000100
00000000
00010000
00000000
,
00100000
00100000
01000000
01000000
,
00001000
00001000
00000100
00000100
,
00000010
00001000
00000100
00000001
,
00000100
00001000
00000010
00010000
,
00001000
00100000
00010000
01000000
,
10000000
01000000
00010000
00100000
,
00010000
00100000
00001000
00001000
,
00010000
00000010
00010000
00010000
,
00001000
00100000
00010000
01000000
,
00100000
10000000
00100000
00010000
,
00001000
00010000
00000000
00001000
00000000
00010000
00000000
00022000
,
00000000
00000000
00033000
00000000
,
00010000
01000000
00010000
01100000
,
00010000
00000000
00100000
00000000
00001000
00010000
00001000
00000000
,
00000100
00000010
00001000
00000001
,
00000100
00001000
00010000
01000000
,
10000000
00010000
00100000
01100000
,
00010000
00000000
00001000
00000000
00000100
00000010
00000100
00000000
,
00000010
00000100
00000001
00000010
,
00001000
00010000
00100000
10000000
,
00010000
00000000
10000000
00000000
00100000
01000000
00100000
00000000
,
00001000
00000000
00010000
00000000
00001000
00010000
00001000
00000000
,
00000100
00000000
00000010
00000000
00000100
00000010
00000100
00000000
,
00000010
00001000
00000100
00010000
,
00001000
00011000
00100000
01000000
,
10000000
10010000
01000000
00100000
,
00020000
00032000
00003200
00000320
,
00000130
00000010
00000110
00001001
,
00000000
00000000
00000000
00000000
,
00000001
00000010
00000001
00000010
,
00000100
00001000
00000100
00001000
,
01000000
10000000
01000000
10000000
,
00010000
00100000
00010000
00100000
,
01100000
00000000
00010000
00000000
00100000
00001000
00010000
00000000
,
00011000
00000000
00010000
00000000
00001000
00010000
00000100
00000000
,
00000110
00000000
00000100
00000000
00000001
00000100
00000010
00000000
,
00000110
00000000
00001000
00000000
00010000
01000000
10000000
00020000
,
00000000
00000000
00000000
00030000
,
00100000
00010000
00001000
00000100
,
00010000
00000000
00000000
00010000
00000000
00000000
00000000
00000000
00000001
00000000
00000000
00000000
00001000
00000000
00000000
00000000
,
00000100
00000000
00000000
00000100
00000000
00000000
00000000
00000000
00001000
00000000
00000000
00000000
00000100
00000000
00000000
00000000
,
00000010
00000000
00000001
00000000
00000100
00000010
00000000
00000000
,
00010000
00001000
00010000
00100000
,
01000000
00000000
00000000
01000000
00000000
00000000
00000000
00000000
00001000
00000000
00000000
00000000
00010000
00000000
00000000
00000000
,
00000100
00000000
00001000
00000000
00000001
00000100
00000000
00000000
,
00000010
00000000
00000100
00000000
00000010
00000100
00000000
00000000
,
00002000
00000001
00000100
00000010
,
00000100
00003010
00020000
00030100
,
00201000
00010000
00001000
01000000
,
00010000
00001000
00310000
01000000
,
00100000
00000000
00000000
00100000
00000000
00000000
00100000
00000000
00000000
00100000
00000000
00000000
00100000
00000000
00000000
00000000
,
02000000
00000000
00000000
03000000
,
00010000
01100000
10000000
10010000
,
00100000
00011000
00000100
00011000
,
00000100
00000001
00000010
00000100
,
00001000
00000010
00010000
00001000
,
00010000
00011000
01000000
01100000
,
10000000
10010000
00010000
01100000
,
00100000
10000000
00010000
01000000
,
00001000
00010000
00000100
00000010
,
00000002
00000000
00000000
00000000
,
00000000
00000000
00000000
00000000
,
00000003
00000000
00000000
00000000
,
00000000
00000000
00000000
00000000
;
#NOTES:
     dance-double:
     :
     Medium:
     10:
     :
00000000
00000000
00000000
00000000
,
00000000
00000000
00000000
00000000
,
00000000
00000000
00000000
00000000
,
00000000
00000000
00000000
00000000
,
00000000
00000000
00000000
00000000
,
00000001
00000001
00001000
00001000
,
00000100
00000100
00010000
00010000
,
00001000
00101000
01000000
10100000
,
00010000
01000000
00100000
10000000
00000000
00100000
01000000
00001000
,
00010000
00000000
00011000
00000000
00001100
00000000
00000100
00001000
,
00000000
00000001
00000000
00000010
00000100
00000000
00002002
00000000
,
00003003
00000000
00001100
00000000
00011000
00000000
00100000
00001000
,
00000000
01000000
00000000
00010000
00100000
00000000
10010000
00000000
,
00100000
10000000
00100000
00000000
01000000
00001000
01000000
00000000
,
00001000
00010000
00001000
00000000
00010000
00000010
00010000
00000000
,
00000010
00001000
00000010
00000000
00010000
00000100
00010000
00000000
,
00000100
00010000
00001000
00000000
00010000
00001000
00100000
00000000
,
00001000
00010000
00000000
01000000
00000000
00100000
00000000
00022000
,
00000000
00000000
00033000
00000000
,
00011000
00000000
00000000
00000000
00110000
00000000
00000000
00000000
01010000
00000000
00000000
00000000
00100000
00000000
00000000
01000000
,
00000000
00010000
00000000
00000000
00100000
00000000
00001000
00000000
00010000
00000000
00000100
00000000
00000010
00000000
00000001
00000000
,
00001000
00000000
00000000
00000001
00000000
00000000
00002002
00000000
00000000
00000000
00000000
00000000
00003003
00000000
00000000
00000000
,
00000002
00002003
00003200
00020300
,
00031000
00000000
00000000
00000000
00101000
00000000
00000000
00000000
00110000
00000000
00000000
00000000
01000000
00000000
00000000
00010000
,
00000000
00100000
00000000
00000000
01000000
00000000
10000000
00000000
01000000
00000000
00010000
00000000
00001000
00000000
00000100
00000000
,
00000010
00000000
00000000
00000100
00000000
00000000
00000220
00000000
00000000
00000000
00000000
00000000
00000330
00000000
00000000
00000000
,
00002000
00003200
00020300
00032000
,
00003000
00000000
00010000
00000000
00100000
00000000
00010000
00000000
00001000
00000000
00000000
00010000
00000000
00000000
02000000
00000000
,
00000000
00000000
13000000
00000000
00010000
00000000
01000000
00000000
00100000
00000000
00000000
00010000
00000000
00000000
00002000
00000000
,
00000000
00000000
00003010
00000000
00000001
00000000
00001000
00000000
00000100
00000000
00000000
00010000
00000000
00000000
00002000
00000000
,
00000000
00013000
00100000
00000000
10000000
00000000
00010000
00000000
,
00000000
00000000
01000000
00000000
00010000
00000000
00100000
00000000
00001000
00000000
00000000
00010000
00000000
00000000
00002000
00000000
,
00000000
00000000
00013000
00000000
00000100
00000000
00001000
00000000
00000010
00000000
00000000
00000100
00000000
00000000
00000001
00000000
,
00002000
00003200
00020300
00030020
,
00001030
00000000
00000000
00000100
00000000
00000000
00010000
00000000
00001000
00000000
00000000
00000000
00011000
00000000
00000000
00000000
,
00001000
00000000
01000000
00000000
00100000
10000000
00010000
00000000
,
10000000
00010000
01000000
00000000
00100000
01000000
00010000
00000000
,
00100000
00001000
00010000
00000000
00001000
00000100
00000010
00000000
,
00000001
00000010
00000100
00000000
00000010
00000100
00001000
00000000
,
00000100
00010000
00001000
00000000
00010000
00001000
00100000
00000000
,
10000000
00100000
01000000
00000000
00010000
10000000
01000000
00000000
,
10000000
01000000
00010000
00000000
00001000
00010000
00000100
00000000
,
00000001
00000010
00001000
00000000
00000010
00000100
00001000
00000000
,
00000100
00010000
00001000
00000000
00010000
01000000
10000000
00200000
,
00000000
00000000
00000000
00300000
,
10000000
00000000
01000000
00000000
00010000
00000000
00001000
00010000
,
00000100
00000000
00000000
00000010
00000000
00000000
00000000
00000000
00000001
00000000
00000000
00000000
00000100
00000000
00000000
00000000
,
00000010
00000000
00000000
00000100
00000000
00000000
00000000
00000000
00001000
00000000
00010000
00000000
00001000
00000000
00100000
00000000
,
01000000
00000000
00000000
00100000
00000000
00000000
01000000
00000000
10000000
00000000
00100000
00000000
00000000
00000000
00000000
00000000
,
01000000
00000000
00010000
00000000
00001000
00000000
00000100
00000010
,
00000001
00000000
00000000
00000100
00000000
00000000
00000000
00000000
00000010
00000000
00000000
00000000
00000100
00000000
00000000
00000000
,
00000010
00000000
00000000
00010000
00000000
00000000
00001000
00000000
00010000
00000000
00100000
00000000
00000000
00000000
00000000
00000000
,
00100000
00000000
00000000
10000000
00000000
00000000
01000000
00000000
00100000
00000000
00010000
00000000
00000000
00000000
00000000
00000000
,
00100000
00010000
01000000
00001000
00010000
00000100
00000010
00000000
,
00000001
00000010
00000100
00000000
00001000
00000010
00000001
00000000
,
00001000
00000010
00000100
00000010
00010000
00001000
00100000
00000000
,
01000000
10000000
00100000
00000000
01000000
00010000
00100000
00000000
,
00001000
00000000
00000000
00010000
00000000
00000000
00000100
00000000
00000000
00000010
00000000
00000000
00000001
00000000
00000010
00000000
,
00000002
00000000
00000000
00000003
,
00000100
00000010
00001000
00000000
00000100
00010000
00001000
00000000
,
00010000
00001000
01000000
00000000
00110000
00000000
11000000
00000000
,
10000000
01000000
00010000
00000000
00001000
00010000
00000100
00000000
,
00001000
00000001
00000010
00000100
00000010
00000000
00001001
00000000
,
00000001
00000100
00000010
00000000
00001000
00000100
00010000
00000000
,
00001000
00010000
01000000
10000000
00100000
00000000
10010000
00000000
,
10000000
01000000
10000000
00000000
01000000
00100000
00001000
00000000
,
00010000
00000100
00000010
00000000
00000100
00001000
00000010
00000100
,
00000020
00000000
00000000
00000000
,
00000000
00000000
00000000
00000000
,
00000030
00000000
00000000
00000000
,
00000000
00000000
00000000
00000000
;
#NOTES:
     dance-double:
     :
     Hard:
     13:
     :
00000000
00000000
00000000
00000000
,
00000000
00000000
00000000
00000000
,
00000000
00000000
00000000
00000000
,
00000000
00000000
00000000
00000000
,
00000000
00000000
00000000
00000000
,
00000001
00000010
00000000
00000000
00000100
00001000
00000000
00000000
,
00010000
00100000
00000000
00000000
01000000
10000000
00000000
00000000
,
00100000
10000000
00000000
00000000
00010000
01000000
00000000
00000000
,
00001000
00010000
00000000
00000020
00000000
00001030
00000001
00000100
,
00000010
00000000
00001010
00000000
00001100
00000000
00000100
00010000
,
00000000
00001000
01000000
00010000
00100000
00000000
11000000
00000000
,
10000000
00000000
00110000
00000000
01010000
00000000
01000000
00001000
,
00000000
00010000
00000100
00001000
00000010
00000000
00000011
00000000
,
00000001
00000100
00000000
00000010
00001000
00000100
00000000
00010000
,
00001000
00100000
00000000
00010000
00100000
10000000
00100000
00010000
,
01000000
00001000
00000000
00010000
00001000
00100000
00000000
00001000
,
00000100
00000001
00000000
00000010
00000100
00010000
00001000
00000000
,
00010000
00000100
00000000
00010100
00000000
00101000
00000000
00022000
,
00000000
00000000
00033000
00000000
,
00000001
00000000
00000100
00000000
00001000
00000000
00010000
00000000
01000000
00000000
10000000
00000000
00200000
00000000
00000000
01300000
,
00000000
00010000
00000000
00000000
00100000
00000000
01000000
00000000
10000000
00000000
00100000
00000000
00010000
00000000
00001000
00000000
,
00101000
00000000
00000000
01010000
00000000
00000000
02200000
00000000
00000000
00000000
00000000
00000000
00000000
00000000
00000000
00000000
,
03300000
00000000
01000000
00000000
00010000
00000000
00100000
00000000
00001000
00000000
00000000
00010000
00000000
00000000
00100000
00000000
,
10000000
00000000
01000000
00000000
00010000
00000000
00001000
00000000
00000100
00000000
00000001
00000000
00000020
00000000
00000000
00000130
,
00000000
00001000
00000000
00000000
00000010
00000000
00000100
00000000
00000001
00000000
00000010
00000000
00001000
00000000
00010000
00000000
,
00010010
00000000
00000000
00001100
00000000
00000000
00000220
00000000
00000000
00000000
00000000
00000000
00000000
00000000
00000000
00000000
,
00000330
00000000
00000010
00000000
00000000
00000100
00000000
00000000
00010000
00000000
00000000
00001000
00000000
00000000
00000010
00000000
,
00000001
00000000
00000100
00000000
00000010
00000000
00001000
00000000
00001100
00000000
00000000
00011000
00000000
00000000
00010200
00000000
,
00000000
00000000
00010300
00000000
00001000
00000000
00100000
00000000
00101000
00000000
00000000
01010000
00000000
00000000
12000000
00000000
,
00000000
00000000
13000000
00000000
00100000
00000000
00010000
00000000
00011000
00000000
00000000
00110000
00000000
00000000
01100000
00000000
,
00000000
01000000
00100000
00000000
00001000
00000000
00011000
00000000
,
00001000
00000000
00000100
00000000
00000001
00000000
00000010
00000000
00000011
00000000
00000000
00000110
00000000
00000000
00001200
00000000
,
00000000
00000000
00001300
00000000
00000100
00000000
00010000
00000000
00011000
00000000
00000000
01010000
00000000
00000000
01100000
00000000
,
00100000
00000000
00000000
10000000
01000000
00000000
00000000
00100000
00010000
00000000
00000000
01000000
00001000
00000000
00000000
00000000
,
00010000
00000000
00000000
00001000
00000000
00000100
00000001
00000000
00000010
00000000
00000000
00000000
00001001
00000000
00000000
00000000
,
00000010
00000100
00000010
00000000
00001000
00000000
00000010
00001000
00000001
00000000
00000010
00000000
00001000
00000000
00000010
00000000
,
00000001
00000100
00000010
00001000
00000100
00010000
00001000
00100000
,
00010000
01000000
00100000
10000000
01000000
00100000
00010000
10000000
,
00010000
01000000
10000000
01000000
00010000
00100000
00001000
00010000
,
00000100
00000001
00000100
00001000
00000010
00000001
00000010
00000100
,
00000010
00000100
00000010
00000000
00001000
00000000
00000100
00000000
00010000
00000000
00100000
00000000
10000000
00000000
01000000
00000000
,
00100000
01000000
00100000
00000000
00010000
00000000
01000000
00000000
00001000
00000000
00000010
00000000
00000001
00000000
00000100
00000000
,
00000010
00001000
00000001
00000000
00000100
00000000
00000010
00000000
00001000
00000000
00010000
00000000
01000000
00000000
00100000
00000000
,
10000000
00010000
01000000
00000000
00100000
00000000
10000000
00000000
00100000
00000000
00010000
00000000
00001000
00000000
00022000
00000000
,
00000000
00000000
00000000
00033000
,
00001000
00000000
00000000
00000000
00010000
00000000
00000000
00000000
00100000
00000000
00000000
00000000
10000000
00000000
01000000
10000000
,
01000000
00000000
00000000
11000000
00000000
00000000
00000000
00000000
00100000
00000000
00000000
00000000
00010000
00000000
00000000
00000000
,
00011000
00000000
00000000
00001100
00000000
00000000
00000000
00000000
00000100
00000000
00000010
00000000
00000001
00000000
00000100
00000000
,
00000010
00000000
00000000
00001000
00000000
00000000
00000100
00000000
00010000
00000000
00012000
00000000
00000000
00000000
00000000
00000000
,
00013000
00000000
00000000
00000000
00001000
00000000
00000000
00000000
00100000
00000000
00000000
00000000
00010000
01000000
00010000
01000000
,
00001000
00000000
00000000
00100000
00000000
00000000
00000000
00000000
01000000
00000000
00000000
00000000
00100000
00000000
00000000
00000000
,
00010000
00000000
00000000
01000000
00000000
00000000
00010000
00000000
01010000
00000000
00011000
00000000
00000000
00000000
00000000
00000000
,
00001000
00000000
00000000
00000100
00000000
00000000
00000001
00000000
00000101
00000000
00001100
00000000
00000000
00000000
00000000
00000000
,
00000010
00000001
00000010
00000001
00000100
00001000
00010000
01000000
,
00100000
00010000
10000000
01000000
00010000
01000000
00010000
01000000
,
10000000
01000000
10000000
01000000
00010000
00001000
00000100
00000001
,
00000010
00000001
00000010
00000000
00000100
00000000
00001000
00000000
00000100
00000000
00010000
00000000
00001000
00000000
00100000
00000000
,
00010000
00000000
00000000
01000000
00000000
00000000
00001000
00000000
00000000
00010000
00000000
00000000
00011000
00000000
01010000
00000000
,
20020000
00000000
00000000
30030000
,
10000000
10000000
00100000
01000000
00010000
00010000
00100000
00001000
,
00010000
00010000
00001000
00000100
00000010
00000010
00001000
00000001
,
00001000
00001000
00000010
00001000
00000100
00000100
00010000
00001000
,
00010000
00010000
00001000
01000000
00100000
00100000
10000000
00000000
,
10000000
00100000
00010000
00001000
00000100
00000001
00000010
00001000
,
00010000
01000000
10000000
00100000
01000000
00001000
00010000
00000000
,
00001000
00010000
00001000
00010000
00000010
00001000
00000010
00001000
,
00000001
00000010
00001000
00010000
00000100
00000010
00000001
00000100
,
00002000
00000000
00000000
00000000
,
00000000
00000000
00000000
00000000
,
00003000
00000000
00000000
00000000
,
00000000
00000000
00000000
00000000
;
