
//----- song ID: t504 -----//
#TITLE:50th Memorial Songs -Beginning Story-;
#ARTIST:BEMANI Sound Team;
#BANNER:50th Memorial Songs -Beginning Story-.png;
#BACKGROUND:50th Memorial Songs -Beginning Story--bg.png;
#MUSIC:50th Memorial Songs -Beginning Story-.ogg;
#SAMPLESTART:100.903;
#SAMPLELENGTH:15;
#BPMS:0=135;
#NOTES:
     dance-single:
     :
     Beginner:
     2:
     :
0000
0000
0000
0000
,
0000
0000
0000
0000
,
0000
0000
0000
0000
,
0000
0000
0000
0000
,
0001
0000
0000
0000
,
1000
0000
0000
0000
,
0010
0000
0010
0000
,
0010
0000
0000
0000
,
0100
0000
0100
0000
,
0100
0000
0000
0000
,
0001
0000
0000
0000
,
1000
0000
0000
0000
,
0001
0000
0000
0000
,
1000
0000
0000
0000
,
0010
0000
0010
0000
,
0010
0000
0000
0000
,
0100
0000
0100
0000
,
0100
0000
0000
0000
,
0001
0000
0001
0000
,
1000
0000
1000
0000
,
0010
0000
0001
0000
,
0010
0000
0000
0000
,
0010
0000
1000
0000
,
0010
0000
0000
0000
,
0001
0000
0000
0000
,
0010
0000
0000
0000
,
0100
0000
0000
0000
,
1000
0000
0000
0000
,
0001
0000
0000
0000
,
0100
0000
0000
0000
,
0010
0000
0000
0000
,
1000
0000
0000
0000
,
0010
0000
0000
0000
,
0010
0000
0000
0000
,
0001
0000
0001
0000
,
1000
0000
1000
0000
,
0001
0000
0001
0000
,
1000
0000
1000
0000
,
0001
0000
0001
0000
,
0000
0000
0000
0000
,
0000
0000
0000
0000
,
0010
0010
0010
0000
,
0010
0010
0010
0000
,
0010
0010
0010
0000
,
1000
0000
1000
0000
,
0001
0000
0001
0000
,
1000
0000
0001
0000
,
1000
0000
0001
0000
,
0000
0000
0000
1000
,
0000
0010
0000
0001
,
0000
0000
0000
0001
,
0000
0010
0000
1000
,
0000
0000
0000
1000
,
0000
0100
0000
0001
,
0000
0000
0000
0001
,
0000
0100
0000
1000
,
0000
0000
0000
0001
,
0001
0001
0000
1000
,
1000
1000
0000
0001
,
0000
1000
0000
0001
,
0000
1000
0000
0000
,
0000
0000
0000
0001
,
0001
0001
0000
0010
,
0010
0010
0000
1000
,
1000
1000
0000
0100
,
0100
0100
0000
0001
,
0001
0001
0000
0010
,
0010
0010
0000
1000
,
1000
1000
0000
0100
,
0100
0100
0100
0000
,
0000
0000
0000
0000
;
#NOTES:
     dance-single:
     :
     Easy:
     5:
     :
0000
0000
0000
0000
,
0000
0000
0000
0000
,
0000
0000
0000
0000
,
0000
0000
0000
0000
,
1000
0010
0001
0100
,
1001
0110
1001
0000
,
1000
1000
0100
0100
,
0010
0010
0001
0001
,
1000
1000
0010
0010
,
0100
0100
0001
0001
,
1000
0001
0010
0100
,
0010
0001
0100
0010
,
2000
0010
0010
3010
,
0001
1000
0110
0000
,
0001
0010
1000
0010
,
0001
0100
1000
0100
,
0001
0010
1000
0010
,
0001
1000
1001
0000
,
0001
0010
1000
0100
,
1001
0110
1001
0000
,
0002
0010
0010
0013
,
0001
0010
0001
0000
,
2000
0010
0010
3010
,
1000
0010
1000
0000
,
0001
0100
0010
1000
,
0002
0013
2000
3010
,
0001
0100
0010
1000
,
0002
0013
2000
3010
,
0002
0010
0010
0013
,
2000
0010
0010
3010
,
0100
0002
0000
0003
,
0100
2000
0000
3000
,
0010
0100
0020
0030
,
1000
0100
0010
0001
,
0000
0100
0010
0110
,
0000
0001
1000
1001
,
0000
0010
0100
0110
,
0000
0001
1000
1001
,
0100
0010
0200
0300
,
0010
1000
0100
0010
,
0001
1000
0110
0000
,
0001
1000
0001
1000
,
0001
0001
1000
1000
,
0010
0010
0100
0100
,
1001
1001
1001
0000
,
1001
0000
1001
0000
,
0001
0100
1000
0100
,
0001
0100
1000
0200
,
0000
0300
0000
0010
,
0001
1000
0100
0010
,
0100
0000
0100
1000
,
1000
0010
0100
0001
,
0001
0010
0100
1000
,
0001
0010
0001
1000
,
0100
0000
0100
1000
,
0100
0010
0001
0100
,
0020
0000
0030
1001
,
0000
1001
0000
0110
,
0000
0110
0000
0001
,
0010
1000
0010
0001
,
0100
1000
0100
0000
,
0000
0000
0000
0010
,
0010
0100
0100
0010
,
0010
0100
0100
1000
,
0001
1000
0001
1000
,
0001
1000
0001
0010
,
0010
0100
0100
0010
,
0010
0100
0100
1000
,
0001
1000
0001
1000
,
0001
1000
0001
0000
,
0000
0000
0000
0000
;
#NOTES:
     dance-single:
     :
     Medium:
     10:
     :
0000
0000
0000
0000
,
0000
0000
0000
0000
,
0000
0000
0000
0000
,
0000
0000
0000
0000
,
0110
0000
1001
0000
0010
1000
0100
0000
,
0010
0001
0100
0010
0100
0000
1001
0000
,
0001
0100
0001
0100
0001
0100
0001
0000
,
1000
0100
1000
0100
1000
0100
1000
0000
,
0010
0100
0010
0100
0010
0100
0010
0000
,
1000
0001
1000
0001
1000
0001
1000
0000
,
0001
0010
0001
1000
0100
0000
0010
0000
,
0100
0010
0001
0100
1000
0000
0100
0000
,
0001
0100
0010
0000
0100
0000
0100
0000
,
1000
0100
0010
0000
0110
0000
0000
0000
,
0010
0001
0100
0001
0010
0001
0100
0010
,
1000
0010
0001
0010
0100
0000
0100
0000
,
0001
0100
0010
0100
0001
0100
0010
0100
,
0001
1000
0100
0010
0002
0000
0003
0000
,
0110
0000
1001
0000
0010
0001
0100
0000
,
0010
1000
0100
0010
0200
0000
0300
0000
,
0100
0000
1000
0100
0100
0000
1000
0100
,
0000
0100
1000
0000
1100
0000
0011
0000
,
0100
0000
0001
0100
0100
0000
0001
0100
,
0000
0100
0001
0000
0101
0000
1010
0000
,
0001
0100
0001
0100
0010
0100
0010
0100
,
0002
0010
1000
0103
,
1000
0010
1000
0010
0100
0010
0100
0010
,
2000
0010
0001
3100
,
0010
0001
0100
0000
0010
1000
0100
0000
,
1000
0010
0100
0000
0001
0010
0100
0000
,
0010
0001
2000
0000
0000
3000
0000
0001
,
1000
0100
0010
0001
0000
0001
0000
0001
,
0100
0000
0010
0100
0020
0000
0000
0000
,
0030
1000
0001
1000
0001
0100
0010
0000
,
0000
1000
0010
0100
0010
0100
0010
1000
,
0000
0001
0010
0100
0010
0100
0010
0001
,
0000
1000
0100
0010
0100
0010
0100
1000
,
0000
0001
0100
0010
0100
0010
0100
0001
,
1000
0000
0010
0100
0020
0000
0000
0000
,
0030
1000
0100
0001
0100
1000
0010
1000
,
0001
0000
1000
0100
2000
0000
0000
0000
,
3000
0101
0000
1100
0000
0101
0000
1100
,
0000
0001
1000
0001
1000
0100
0010
0001
,
0100
0010
0100
0001
1000
0010
0100
0001
,
1000
0000
1000
0000
1000
0010
0010
0000
,
1000
0010
0010
0010
1000
0010
0010
0000
,
0000
0011
0000
1010
0000
0011
0000
1010
,
0000
0100
0001
0100
0010
1000
0002
0000
,
0000
0003
0000
0010
,
0010
0000
0001
1000
0000
0100
1000
0000
,
0001
0000
0000
0010
0100
0010
0001
0000
,
0001
1000
0100
0010
0001
0000
1000
0010
,
0001
0000
1000
0100
0001
0000
1000
0000
,
1000
0000
0100
0010
0000
0001
1000
0000
,
0010
0000
0000
0100
0010
0100
0001
1000
,
0000
1000
0010
1000
0000
0001
1000
0000
,
0020
0000
0000
0000
0000
0000
0000
0000
0030
0000
0000
0000
1000
0000
0000
1000
,
0000
0000
2000
0000
0000
0000
0000
0000
3100
0000
0000
0000
0001
0000
0000
0001
,
0000
0002
0000
0000
0003
0000
1000
0010
,
0100
0000
0001
0010
0100
0000
1000
0100
,
0010
0000
0001
0100
0010
2000
0000
0000
,
0000
0000
3000
0000
0000
0000
0001
0010
,
0001
0010
0001
1000
0001
1000
0001
0100
,
0001
0100
0001
1000
0001
1000
0010
1000
,
0001
1000
0010
1000
0001
1000
0100
1000
,
0001
1000
0100
1000
0001
0000
1000
0100
,
1000
0100
0010
0100
0010
0100
0001
0100
,
0001
0100
0010
0100
0010
0100
1000
0100
,
0010
0001
1000
0100
0010
0001
1000
0010
,
0100
0001
1000
0010
0100
0001
0000
0000
,
0000
0000
0000
0000
;
#NOTES:
     dance-single:
     :
     Hard:
     14:
     :
0000
0000
0000
0000
,
0000
0000
0000
0000
,
0000
0000
0000
0000
,
0000
0000
0000
0000
,
0011
0000
1100
0000
0001
1000
0100
0000
,
1000
0001
1000
0001
0100
0000
0010
0000
1000
0000
0000
0010
0100
0000
0000
0000
,
0010
1000
0100
1000
0001
1000
0001
1000
,
0010
1000
0100
1000
0001
1000
0001
1000
,
0010
0001
0100
0001
1000
0001
1000
0001
,
0010
0000
0001
0000
0100
0000
0001
0000
1000
0001
1000
0000
0001
0000
0000
0000
,
1000
0000
0010
0100
0010
0000
1000
0000
0001
0000
0000
0000
0010
0000
0000
0000
,
0100
0010
0100
0010
0100
0000
0010
0000
0001
0000
0000
1000
0001
0000
0000
0000
,
1000
0000
0001
0100
0001
0100
0000
0010
0000
1000
0000
0100
0010
0100
0010
0000
,
0001
1000
0100
1000
0001
0000
0100
0010
0100
0000
0000
0000
0000
0000
0000
0000
,
0010
0000
0000
1000
0010
0100
0010
0100
0001
0100
0001
0100
0010
0000
1000
0000
,
0001
0000
1000
0001
1000
0001
0100
0010
1000
0000
0000
0010
0100
0000
0000
0000
,
0001
0010
0001
0010
0001
1000
0001
1000
0001
0100
0001
0100
0001
0000
1000
0000
,
0001
0000
0010
0100
0010
0100
1000
0000
0002
0000
0000
0000
0003
0000
0000
0000
,
0110
0000
0001
1000
0001
0000
0100
0000
0010
0000
1000
0000
0100
0000
0000
0000
,
0010
0100
0010
0100
0010
0000
0001
0000
0200
0000
0000
0000
0300
0000
0000
0000
,
0101
0000
0001
0100
0101
0000
0001
0100
,
0101
0000
0100
0000
0001
0000
0000
0000
0001
0100
0001
0100
0010
1000
0010
0000
,
1100
0000
1000
0100
1100
0000
1000
0100
,
1100
0000
0100
0000
1000
0000
0000
0000
1000
0100
1000
0100
0010
0001
0010
0001
,
1000
0001
1000
0001
0010
0100
0010
0100
,
2000
0010
3002
0100
2003
0010
3002
0100
,
1003
0100
1000
0100
0001
0100
0001
0100
,
2000
0100
3002
0010
2003
0100
3002
0010
,
1003
0000
0001
0010
1000
0000
0001
0100
,
1000
0000
0001
0010
1000
0000
0001
0000
,
0100
0010
0200
0000
0000
0000
0310
0001
,
0100
0010
1000
0010
0000
0010
0000
0010
,
0100
0000
0000
0000
0001
0100
0010
1000
0002
0000
0000
0000
0000
0000
0000
0000
,
0003
0000
1000
0010
1000
0000
0001
0000
1000
0100
0010
0001
1000
0000
0000
0000
,
0000
0001
0010
0100
0010
1000
0010
0001
,
0000
0000
1000
0000
0010
0000
0100
0000
0010
0001
0010
0001
0010
0000
1000
0000
,
0000
0001
0100
0010
0100
1000
0100
0001
,
0000
0000
1000
0000
0100
0000
0010
0000
0100
0001
0100
0001
0100
0000
1000
0000
,
0001
0000
0000
0001
0010
0000
0100
0000
0020
0000
0000
0000
0000
0000
0000
0000
,
0030
0001
0100
0010
1000
0100
0010
0001
,
1000
0000
0000
1000
0001
0000
0100
0010
2000
0000
0000
0000
0000
0000
0000
0000
,
3000
0000
0001
0010
0000
0000
1000
0010
0000
0000
0001
0010
0000
0000
1000
0010
,
0000
0000
0001
1000
0001
0000
0100
0000
0010
0000
1000
0000
0001
0000
0010
0000
,
0100
0000
0010
0100
0010
0000
0001
0000
0100
0000
0010
0000
1000
0000
0001
0000
,
1001
0000
0000
0000
1001
0000
0000
0000
1001
0000
0010
0100
0010
0000
0000
0000
,
1001
0000
0010
0100
0010
0000
1000
0000
0001
0000
0010
0100
0010
0000
0000
0000
,
0000
0000
1000
0100
0000
0000
0001
0100
0000
0000
1000
0100
0000
0000
0001
0100
,
0000
1000
0100
1000
0100
0010
0100
0010
0001
1000
0100
0010
0002
0000
0000
0000
,
0000
0003
0000
0010
,
0010
0000
0000
0001
1000
0000
0010
0000
0100
0000
0010
0000
1000
0000
0000
0001
,
1000
0000
0000
0000
0000
0000
0010
1000
0001
0100
0001
0100
0010
0000
0000
0001
,
0000
0000
0010
0000
1000
0000
0100
0000
0010
0100
0010
0100
0010
0000
0001
0010
,
0000
0100
0000
0010
1000
0000
0010
0100
0000
0010
0001
0000
1000
0000
0000
0000
,
1000
0000
0000
0001
0100
0000
0010
0000
0000
0000
1000
0000
0001
0000
0000
1000
,
0100
0000
0000
0000
0000
0000
0010
0100
0010
0001
0010
0001
1000
0000
0001
0100
,
0000
0000
0001
0000
0010
0000
0001
0000
0000
0000
1000
0000
0001
0000
0000
0100
,
0020
0000
0000
0000
0000
0000
0000
0000
0000
0000
0000
0000
1000
0000
0000
0100
,
0000
0000
1030
0000
0000
0000
0000
0000
1000
0100
0020
0000
0001
0000
0000
0100
,
0000
0000
0031
0000
0000
0000
0000
0000
0000
0000
0000
0000
1000
0100
0010
0001
,
0000
0000
1000
0000
0001
0100
0010
1000
0000
0000
0001
0000
0010
0001
1000
0100
,
0000
0000
1000
0000
0010
1000
0001
0100
0000
0000
0020
0000
0000
0000
0000
0000
,
0000
0000
0000
0000
0030
0000
0000
0000
0000
0000
0000
0000
1000
0010
1000
0000
,
0001
0100
0001
0000
1000
0010
1000
0000
0001
0100
0001
0000
1000
0010
1000
0000
,
0001
0100
0001
0000
1000
0010
1000
0000
0001
0100
0001
0000
1000
0100
1000
0000
,
0001
0010
0001
0000
1000
0100
1000
0000
0001
0010
0001
0000
1000
0001
1000
0000
,
0010
0100
0010
0000
1000
0001
1000
0000
0010
0100
0010
0000
1000
0010
1000
0000
,
0010
0100
0010
0000
1000
0010
1000
0000
0010
0100
0010
0000
1000
0010
1000
0000
,
0010
0100
0010
0000
1000
0010
1000
0000
0010
0100
0010
0000
1000
0001
1000
0000
,
0001
0010
0001
0000
1000
0001
1000
0000
0001
0010
0001
0000
1000
0100
1000
0000
,
0001
0100
0001
0000
1000
0100
1000
0000
0001
0100
0001
0100
0000
0000
0000
0000
,
0000
0000
0000
0000
;
#NOTES:
     dance-double:
     :
     Easy:
     5:
     :
00000000
00000000
00000000
00000000
,
00000000
00000000
00000000
00000000
,
00000000
00000000
00000000
00000000
,
00000000
00000000
00000000
00000000
,
00000001
00000100
00000010
00001000
,
00010000
00001000
00011000
00000000
,
00010000
00010000
00100000
00100000
,
10000000
10000000
01000000
01000000
,
00010000
00010000
00001000
00001000
,
00000100
00000100
00000001
00000001
,
00000010
00000001
00001000
00000010
,
00000100
00001000
00010000
01000000
,
10000000
00100000
01000000
00100000
,
10000000
00010000
10010000
00000000
,
10000000
01000000
00010000
00001000
,
00000100
00000001
00000010
00000010
,
00000001
00000010
00000100
00001000
,
00010000
00001000
00011000
00000000
,
00000010
00010000
00001000
00100000
,
01000000
10000000
01100000
00000000
,
10000000
01000000
10000000
01000000
,
00010000
00010000
00010000
00000000
,
00001000
00000100
00001000
00000100
,
00000001
00000001
00000001
00000000
,
00001000
00000100
00000010
00000001
,
00000100
00000010
00010000
00001000
,
01000000
00100000
10000000
01000000
,
00100000
00010000
00100000
00000000
,
10000000
01000000
00010000
00000000
,
00001000
00000100
00000001
00000000
,
00000010
00000100
00000000
00000000
,
00010000
00001000
00000000
00000000
,
00100000
00010000
00200000
00300000
,
00010000
01000000
00100000
10000000
,
00000000
00100000
01000000
00100000
,
00000000
00001000
00010000
00001000
,
00000000
00000010
00000100
00000010
,
00000000
00010000
00001000
00010000
,
01000000
00100000
02000000
03000000
,
00100000
10000000
01000000
00100000
,
00010000
00001000
00011000
00000000
,
00001000
00010000
00001000
00010000
,
00001000
00001000
00010000
00010000
,
00000010
00000010
00000100
00000100
,
00001001
00001001
00001001
00000000
,
00011000
00000000
10010000
00000000
,
10000000
01000000
00100000
00010000
,
10000000
00100000
01000000
00020000
,
00000000
00030000
00000000
10000000
,
01000000
00010000
00001000
00000010
,
00000001
00001000
00000000
00000001
,
00000001
00000100
00000010
00001000
,
00001000
00000100
00000010
00000001
,
00000100
00001000
00010000
00100000
,
10000000
00010000
00000000
10000000
,
01000000
00100000
00010000
01000000
,
00200000
00000000
00300000
10010000
,
00000000
10010000
00000000
00011000
,
00000000
00011000
00000000
00010000
,
00001000
00000010
00000001
00001000
,
00000100
00000010
00000001
00000000
,
00000000
00000000
00000000
00000001
,
00000100
00001000
00000100
00000001
,
00000100
00001000
00001000
00010000
,
00001000
00100000
00001000
00010000
,
00001000
00100000
00010000
10000000
,
01000000
00010000
01000000
10000000
,
01000000
00010000
00010000
00001000
,
00010000
00000010
00010000
00001000
,
00010000
00000010
00001000
00000000
,
00000000
00000000
00000000
00000000
;
#NOTES:
     dance-double:
     :
     Medium:
     10:
     :
00000000
00000000
00000000
00000000
,
00000000
00000000
00000000
00000000
,
00000000
00000000
00000000
00000000
,
00000000
00000000
00000000
00000000
,
01100000
00000000
10010000
00000000
00100000
10000000
01000000
00000000
,
00100000
00001000
00010000
00001000
00010000
00000000
00001010
00000000
,
00000001
00000010
00000001
00000000
00000001
00000100
00000001
00000000
,
00000100
00001000
00000100
00000000
00001000
00010000
00001000
00000000
,
00010000
01000000
00010000
00000000
01000000
10000000
01000000
00000000
,
10000000
00100000
10000000
00000000
00100000
01000000
00100000
00000000
,
00010000
10000000
01000000
00100000
00010000
00000000
10000000
00000000
,
01000000
00010000
00001000
00010000
00001000
00000000
00000100
00000000
,
00000010
00010000
00000100
00000000
00000010
00000000
00000010
00000000
,
00000100
00010000
00000010
00000000
00000110
00000000
00000000
00000000
,
00000001
00000100
00000001
00000100
00001000
00010000
00001000
00010000
,
00100000
10000000
00100000
10000000
01000000
00000000
01000000
00000000
,
10000000
01000000
10000000
01000000
00010000
00001000
00010000
00001000
,
00000010
00000001
00000010
00000001
00002000
00000000
00003000
00000000
,
00000110
00000000
00001001
00000000
00000100
00000010
00001000
00000000
,
00000100
00010000
00001000
00010000
00002000
00000000
00003000
00000000
,
00010000
00000000
00100000
01000000
01000000
00000000
00100000
10000000
,
00000000
01000000
00100000
00000000
00101000
00000000
00011000
00000000
,
00001000
00000000
00000010
00000100
00000100
00000000
00000010
00000001
,
00000000
00000100
00000010
00000000
00010010
00000000
00011000
00000000
,
00010000
00100000
00010000
00100000
10000000
00100000
10000000
00100000
,
10000000
01000000
00010000
00001000
,
00001000
00000010
00001000
00000010
00000001
00000010
00000001
00000010
,
00000001
00000100
00001000
00010000
,
00000010
00010000
00000100
00000000
00001000
00000010
00010000
00000000
,
00000010
00001000
00000100
00000000
00010000
00000010
00001000
00000000
,
00000100
00010000
00002000
00000000
00000000
00003000
00000000
00001000
,
01000000
00010000
10000000
00100000
00000000
00100000
00000000
00100000
,
01000000
00000000
00100000
10000000
02000000
00000000
00000000
00000000
,
03000000
00100000
01000000
00100000
00001000
00010000
00001000
00000000
,
00000000
00010000
00000010
00000100
00000010
00000100
00000010
00010000
,
00000000
00001000
00100000
01000000
00100000
01000000
00100000
00001000
,
00000000
00010000
00000100
00000010
00000100
00000010
00000100
00010000
,
00000000
00001000
01000000
00100000
01000000
00100000
01000000
00001000
,
00010000
00000000
00001000
00000010
00000200
00000000
00000000
00000000
,
00000300
00000010
00000001
00000100
00000010
00001000
00000100
00000010
,
00000001
00000000
00000100
00001000
00020000
00000000
00000000
00000000
,
00030000
00001010
00000000
00011000
00000000
00001010
00000000
00011000
,
00000000
00001000
00010000
00001000
00010000
00100000
10000000
01000000
,
00100000
00010000
10000000
01000000
10000000
00010000
01000000
00100000
,
10000000
00000000
10000000
00000000
10000000
00100000
00010000
00000000
,
00001000
00010000
00001000
00010000
00001000
00000010
00000001
00000000
,
00000000
00001100
00000000
00011000
00000000
00001100
00000000
00011000
,
00000000
00100000
00010000
01000000
00100000
10000000
00020000
00000000
,
00000000
00030000
00000000
00100000
,
00100000
00000000
00010000
01000000
00000000
00100000
10000000
00000000
,
01000000
00000000
00000000
00010000
00001000
00010000
00001000
00000000
,
00000100
00000010
00001000
00000010
00000100
00000000
00000010
00001000
,
00000100
00000000
00000010
00000001
00000100
00000000
00000010
00000000
,
00000010
00000000
00010000
00001000
00000000
00100000
00010000
00000000
,
10000000
00000000
00000000
00010000
01000000
00100000
10000000
00010000
,
00000000
10000000
01000000
10000000
00000000
00100000
00010000
00000000
,
00002000
00000000
00000000
00000000
00000000
00000000
00000000
00000000
00003000
00000000
00000000
00000000
00010000
00000000
00000000
00000010
,
00000000
00000000
00020000
00000000
00000000
00000000
00000000
00000000
00031000
00000000
00000000
00000000
00000010
00000000
00000000
00000100
,
00000000
00000020
00000000
00000000
00000030
00000000
00000001
00000100
,
00001000
00000000
00010000
00001000
00010000
00000000
00001000
00010000
,
01000000
00000000
10000000
00010000
01000000
00200000
00000000
00000000
,
00000000
00000000
00300000
00000000
00000000
00000000
10000000
01000000
,
10000000
01000000
00010000
00001000
00010000
00001000
00000100
00000001
,
00000100
00000001
00001000
00000001
00001000
00000001
00000010
00000001
,
00001000
00000001
00000010
00000001
00001000
00000001
00000100
00000001
,
00001000
00000100
00010000
00001000
00100000
00010000
10000000
00100000
,
10000000
00100000
00010000
00001000
00010000
00001000
00000010
00000001
,
00000010
00000001
00001000
00000001
00001000
00000001
00000100
00000001
,
00001000
00000001
00000100
00000001
00001000
00000001
00000010
00000001
,
00001000
00000010
00010000
00001000
01000000
00010000
00000000
00000000
,
00000000
00000000
00000000
00000000
;
#NOTES:
     dance-double:
     :
     Hard:
     14:
     :
00000000
00000000
00000000
00000000
,
00000000
00000000
00000000
00000000
,
00000000
00000000
00000000
00000000
,
00000000
00000000
00000000
00000000
,
00000011
00000000
00001100
00000000
00000001
00000100
00001000
00000000
,
00010000
00001000
00010000
00001000
00100000
00000000
00010000
00000000
01000000
00000000
00000000
00100000
01000000
00000000
00000000
00000000
,
00010000
10000000
00010000
10000000
00010000
10000000
01000000
00010000
,
00001000
00010000
00001000
00010000
00001000
00000010
00000001
00001000
,
00000001
00001000
00000001
00001000
00000001
00000100
00001000
00010000
,
00001000
00000000
00010000
00000000
00001000
00000000
00100000
00000000
00010000
10000000
00010000
00000000
01000000
00000000
00000000
00000000
,
00100000
00000000
10000000
00100000
10000000
00000000
00010000
00000000
00100000
00000000
00000000
00000000
01000000
00000000
00000000
00000000
,
00010000
00001000
00010000
00001000
00010000
00000000
00001000
00000000
00000100
00000000
00000000
00000001
00001000
00000000
00000000
00000000
,
00000000
00000000
00000100
00000010
00000100
00000010
00000000
00000001
00000000
00000100
00000000
00000010
00001000
00000010
00001000
00000000
,
00000000
00010000
00001000
00010000
00001000
00000000
00100000
00010000
00100000
00000000
00000000
00000000
00000000
00000000
00000000
00000000
,
01000000
00000000
00000000
10000000
00100000
01000000
00100000
00000000
10000000
00010000
10000000
00000000
01000000
00000000
00100000
00000000
,
00010000
00000000
00001000
00010000
00001000
00010000
00001000
00000000
00000100
00000000
00000000
00000010
00000100
00000000
00000000
00000000
,
00000010
00000001
00000010
00000001
00001000
00000001
00001000
00000000
00000001
00000100
00000010
00000100
00000010
00000000
00001000
00000000
,
00010000
00000000
01000000
00100000
10000000
00100000
01000000
00000000
00020000
00000000
00000000
00000000
00030000
00000000
00000000
00000000
,
01100000
00000000
10000000
00010000
10000000
00000000
01000000
00000000
00010000
00000000
00001000
00000000
00000010
00000000
00000000
00000000
,
00000001
00001000
00000010
00001000
00000001
00000000
00000010
00000000
00000200
00000000
00000000
00000000
00000300
00000000
00000000
00000000
,
00000011
00000000
00000001
00000100
00000101
00000000
00000100
00001000
,
00001100
00000000
00001000
00000000
00010000
00000000
00000000
00000000
00001000
00010000
00001000
00000000
01000000
00010000
01000000
00000000
,
11000000
00000000
10000000
00100000
10100000
00000000
00100000
00010000
,
00011000
00000000
00001000
00000000
00000010
00000000
00000000
00000000
00000001
00000100
00000001
00000000
00001000
00000010
00001000
00000000
,
00000001
00000010
00001000
00000010
00000001
00000010
00001000
00000001
,
00000100
00001000
00010000
00100000
10000000
00010000
01000000
01000000
,
10000000
00100000
00010000
00100000
10000000
00100000
00010000
10000000
,
01000000
00010000
00001000
00000010
00000001
00001000
00000100
00000100
,
00001000
00000000
00010000
00001000
00000010
00000000
00001000
00010000
,
00100000
00000000
00010000
00001000
00000100
00000000
00001000
00010000
,
01000000
00100000
02000000
00000000
00000000
00000000
03000000
10000000
,
01000000
00100000
00001000
01000000
00000000
01000000
00000000
01000000
,
00100000
00000000
00000000
00000000
00010000
00001000
00100000
00001000
00020000
00000000
00000000
00000000
00000000
00000000
00000000
00000000
,
00030000
00000000
00000010
00001000
00000010
00000000
00000100
00000000
00000001
00001000
00000100
00001000
00000001
00000000
00000000
00000000
,
00000000
00001000
00001000
00000001
00000100
00000010
00001000
00010000
,
00000000
00000000
00001000
00000000
00001000
00000000
00010000
00000000
01000000
00100000
01000000
00100000
10000000
00000000
00010000
00000000
,
00000000
00010000
00010000
10000000
01000000
00100000
00010000
00001000
,
00000000
00000000
00010000
00000000
00010000
00000000
00001000
00000000
00000100
00000010
00000100
00000010
00000001
00000000
00001000
00000000
,
00000100
00000000
00000000
00000010
00000100
00000000
00001000
00000000
00000002
00000000
00000000
00000000
00000000
00000000
00000000
00000000
,
00000003
00001000
00000010
00000001
00001000
00000100
00000010
00001000
,
00010000
00000000
00000000
00010000
01000000
00000000
00100000
10000000
00020000
00000000
00000000
00000000
00000000
00000000
00000000
00000000
,
00030000
00000000
00100000
00010000
00000000
00000000
00001000
00010000
00000000
00000000
01000000
00010000
00000000
00000000
00001000
00010000
,
00000000
00000000
00000010
00001000
00000010
00000000
00000100
00000000
00000010
00000000
00001000
00000000
00000001
00000000
00001000
00000000
,
00000100
00000000
00000010
00000100
00000010
00000000
00000001
00000000
00000010
00000000
00000100
00000000
00010000
00000000
00001000
00000000
,
00011000
00000000
00000000
00000000
00011000
00000000
00000000
00000000
00011000
00000000
00100000
00010000
00100000
00000000
00000000
00000000
,
00011000
00000000
00000010
00001000
00000010
00000000
00010000
00000000
00001000
00000000
00100000
00010000
00100000
00000000
00000000
00000000
,
00000000
00000000
00001000
00010000
00000000
00000000
01000000
00010000
00000000
00000000
00001000
00010000
00000000
00000000
00100000
00010000
,
00000000
10000000
01000000
10000000
01000000
00100000
01000000
00100000
00001000
00010000
00001000
00010000
00002000
00000000
00000000
00000000
,
00000000
00003000
00000000
00010000
,
00001000
00000000
00000000
00000010
00000001
00000000
00000010
00000000
00000100
00000000
00000010
00000000
00000001
00000000
00000000
00001000
,
00000001
00000000
00000000
00000000
00000000
00000000
00000100
00000001
00001000
00000010
00001000
00000010
00000100
00000000
00000000
00000010
,
00000000
00000000
00010000
00000000
00000000
00000000
00100000
00000000
01000000
00100000
01000000
00100000
01000000
00000000
00100000
00010000
,
00000000
00100000
00000000
10000000
01000000
00000000
00100000
01000000
00000000
00010000
01000000
00000000
00100000
00000000
00000000
00000000
,
00010000
00000000
00000000
00001000
00000100
00000000
00000010
00000000
00000000
00000000
00000001
00000000
00001000
00000000
00000000
00000001
,
00000100
00000000
00000000
00000000
00000000
00000000
00000010
00000100
00000010
00010000
00000010
00010000
00001000
00000000
00010000
00100000
,
00000000
00000000
01000000
00000000
00010000
00000000
00100000
00000000
00000000
00000000
01000000
00000000
10000000
00000000
00000000
00100000
,
02000000
00000000
00000000
00000000
00000000
00000000
00000000
00000000
03000000
00000000
00000000
00000000
10000000
00000000
00000000
01000000
,
00000000
00000000
00010000
00000000
00000000
00000000
00000000
00000000
00010000
00001000
00010000
00000000
00001000
00000000
00000000
00000100
,
00000000
00000000
00000002
00000000
00000000
00000000
00000000
00000000
00000003
00000000
00000000
00000000
00000001
00000100
00000010
00001000
,
00000000
00000000
00000001
00000000
00001000
00000100
00000010
00000001
00000000
00000000
00001000
00000000
00000010
00010000
00001000
00100000
,
00000000
00000000
00001000
00000000
00010000
00001000
01000000
00010000
00000000
00000000
20000000
00000000
00000000
00000000
00000000
00000000
,
00000000
00000000
30000000
00000000
00000000
00000000
10000000
01000000
,
00001000
01000000
10000000
01000000
00001000
01000000
10000000
01000000
,
00001000
00010000
00000010
00000001
00001000
00001000
00000001
00000100
,
00010000
00000100
00000001
00000100
00010000
00000100
00000001
00000100
,
00010000
00000000
00001000
00000000
00100000
00000000
10000000
00000000
00010000
00000000
00010000
00000000
10000000
01000000
10000000
00000000
,
00010000
10000000
00010000
00000000
00100000
00010000
00100000
00000000
00001000
00010000
00001000
00000000
00010000
00000010
00010000
00000000
,
00000100
00001000
00000100
00000000
00000010
00000001
00000010
00000000
00000001
00001000
00000001
00000000
00000100
00000010
00000100
00000000
,
00000010
00001000
00000010
00000000
00010000
00001000
00010000
00000000
00001000
00100000
00001000
00000000
01000000
00010000
01000000
00000000
,
00100000
10000000
00100000
00000000
10000000
00010000
10000000
00000000
01000000
00100000
01000000
00100000
00000000
00000000
00000000
00000000
,
00000000
00000000
00000000
00000000
;
