
//----- song ID: sibe -----//
#TITLE:siberite;
#ARTIST:Captain KING;
#BANNER:siberite.png;
#BACKGROUND:siberite-bg.png;
#CDTITLE:./CDTitles/DDR A.png;
#MUSIC:siberite.ogg;
#SAMPLESTART:80.434;
#SAMPLELENGTH:15;
#BPMS:0=128;
#NOTES:
     dance-single:
     :
     Beginner:
     2:
     :
0000
0000
0000
0000
,
0000
0000
0000
0000
,
0000
0000
0000
0000
,
0000
0000
0000
0000
,
0000
0000
0000
0000
,
0001
0000
0000
0000
,
1000
0000
0000
0000
,
0010
0000
0000
0000
,
1000
0000
0001
0000
,
1000
0000
0100
0000
,
1000
0000
0001
0001
,
0001
0000
0100
0000
,
0001
0000
1000
1000
,
1000
0000
0100
0000
,
1000
0000
0001
0001
,
0001
0000
0100
0000
,
0001
0000
1000
1000
,
1000
0000
0000
0000
,
0010
0000
0000
0000
,
0100
0000
0000
0000
,
0001
0000
0100
0000
,
0001
0000
0000
0000
,
0010
0000
0000
0000
,
0100
0000
0000
0000
,
1000
0000
0100
0000
,
1000
0000
0000
0000
,
0010
0000
0000
0000
,
0100
0000
0000
0000
,
0001
0000
0100
0000
,
0001
0000
0000
0000
,
0010
0000
0000
0000
,
0100
0000
0000
0000
,
1000
0000
0100
0000
,
0000
0000
0000
0000
,
0000
0000
0000
0000
,
1000
0000
0000
0000
,
0010
0000
0000
0000
,
0100
0000
0000
0000
,
0001
0000
1000
0000
,
0001
0000
0000
0000
,
0010
0000
0000
0000
,
0100
0000
0000
0000
,
1000
0000
0000
0000
,
0001
0000
0000
0000
,
0010
0000
0000
0000
,
0100
0000
0000
0000
,
1000
0000
0010
0000
,
1000
0000
0000
0000
,
0010
0000
0000
0000
,
0100
0000
0000
0000
,
0001
0000
0010
0000
,
0001
0000
0000
0000
,
1000
0000
0000
0000
,
0001
0000
0000
0000
,
1000
0000
0010
0010
,
0010
0000
0000
0000
,
0100
0000
0000
0000
,
0010
0000
0000
0000
,
0100
0000
0001
0000
,
1001
0000
0000
0000
,
0000
0000
0000
0000
;
#NOTES:
     dance-single:
     :
     Easy:
     5:
     :
0000
0000
0000
0000
,
0000
0000
0000
0000
,
0000
0000
0000
0000
,
0000
0000
0000
0000
,
0000
0000
0000
0000
,
1000
0000
0001
0000
,
1000
0000
0010
0100
,
0001
0000
0000
0000
,
1000
0010
0100
0010
,
1000
0100
0010
0000
,
0001
0100
0010
0000
,
1000
0100
0010
0001
,
0100
0010
1000
0000
,
0001
0100
0010
0000
,
1000
0100
0010
0000
,
0001
0100
0010
1000
,
0100
1000
0001
0000
,
1000
0010
1000
0001
,
0010
0100
1000
0000
,
0001
0010
0001
1000
,
0010
0100
0001
0000
,
1000
0010
1000
0001
,
0010
0100
1000
0000
,
0001
0010
0001
1000
,
0010
0000
1000
0100
,
1000
0010
0100
0001
,
0010
0001
1000
0000
,
0001
0010
0100
1000
,
0010
1000
0001
0000
,
1000
0010
0100
0001
,
0010
0001
1000
0000
,
0001
0010
0100
1000
,
0010
1000
0100
2000
,
0002
0000
0000
0000
0000
3003
0000
0000
,
1000
1000
0010
0100
,
0001
0010
0001
0100
,
0001
0010
0100
0000
,
1000
0010
1000
0100
,
1000
0010
0100
0000
,
0001
0010
0001
0100
,
0001
0010
0100
0000
,
1000
0010
1000
0100
,
1000
0001
1001
0000
,
1000
0001
0010
0001
,
0100
0010
0000
1001
,
0000
0110
0000
1001
,
0000
0000
0001
0100
,
0001
1000
0010
1000
,
0000
0100
0010
0001
,
0000
0100
0010
1000
,
0000
0001
0010
0100
,
1000
0010
1000
0100
,
0010
0001
0100
0001
,
0010
0100
1000
0010
,
1000
0001
1001
0000
,
0001
0010
0001
0100
,
0010
1000
0100
1000
,
0010
0100
0001
0010
,
0001
0100
0001
1000
,
2002
0000
0000
0000
0000
0000
0000
3003
,
0000
0000
0000
0000
;
#NOTES:
     dance-single:
     :
     Medium:
     10:
     :
0000
0000
0000
0000
,
0000
0000
0000
0000
,
0000
0000
0000
0000
,
0000
0000
0000
0000
,
0000
0000
0000
0000
,
1010
0000
0000
0000
,
1000
0000
0000
0000
0010
1000
0100
0010
,
0001
0000
0000
0000
,
1000
0010
1000
0100
1000
0010
0100
0001
,
1000
0010
0100
0001
0010
0100
1000
0000
,
0010
0100
0001
0010
0001
0100
0010
0000
,
1000
0010
0100
0001
0010
0100
1000
0010
,
1000
0100
0010
0001
1000
0000
0000
0000
,
0001
0010
0100
1000
0010
0100
0001
0000
,
0010
0100
1000
0010
1000
0100
0010
0000
,
0001
0010
0100
1000
0010
0100
0001
0010
,
0001
0100
0010
1000
0001
0000
0010
0100
,
1000
0000
0010
0000
1000
0100
0001
0100
,
1000
0000
0010
0000
1000
0001
0100
0000
,
0001
0000
0010
0000
0001
0100
1000
0100
,
0001
0000
0010
0000
0100
1000
0001
0000
,
1000
0000
0010
0000
1000
0100
0001
0100
,
1000
0000
0010
0000
0100
0001
1000
0000
,
0001
0000
0010
0000
0001
0100
1000
0100
,
0001
0000
1000
0000
0001
0010
0100
0000
,
1000
0010
0100
0001
1000
0010
0100
0001
,
0010
0100
1000
0001
0100
0010
1000
0001
,
0010
0001
0100
0010
1000
0100
0010
0001
,
0100
0010
1000
0100
1000
0010
0100
0000
,
0001
0010
0100
1000
0001
0010
0100
1000
,
0010
0100
0001
1000
0100
0010
0001
1000
,
0010
1000
0100
0010
0001
0100
0010
1000
,
0100
0010
0001
0100
0001
0010
0002
2000
,
0000
0000
0000
0000
0000
0000
0000
0000
0000
0000
0000
3003
0000
0000
0000
0000
,
1000
0010
1000
0100
0010
0001
0100
0000
,
0010
1000
0100
0010
0000
0001
0100
0010
,
0000
1000
0100
0010
0000
0001
0100
0001
,
0010
0001
0100
0010
0000
1000
0100
0010
,
0000
0001
0100
0010
1000
0100
0010
0100
,
0010
0001
0100
0010
0000
1000
0100
0010
,
0000
0001
0100
0010
0000
1000
0100
1000
,
0010
1000
0100
0010
0000
0001
0100
0010
,
1000
0100
1000
0010
0100
0100
0001
0000
,
1000
0010
0100
0001
0000
0000
0001
0010
,
0001
0100
0010
1000
0000
0000
0010
1000
,
0000
0001
0010
0001
0000
0000
1000
0010
,
0000
1000
0100
0010
0000
0001
0100
0010
,
0000
1000
0100
1000
0000
0000
0010
1000
,
0000
0001
0010
0100
1000
0100
0010
0001
,
0000
1000
0010
0100
0001
0010
0100
1000
,
0000
0001
0100
0010
0000
1000
0100
0010
,
0001
0100
0001
0010
0100
1000
0010
1000
,
0001
0100
0001
0010
0100
1000
0010
1000
,
1000
0100
1000
0010
0100
1000
0010
1000
,
1100
0000
0101
0000
0011
0001
0010
0100
,
1000
0100
1000
0010
0100
0001
0010
0001
,
0001
0100
0001
0010
0100
1000
0010
1000
,
1000
0100
1000
0010
0100
0001
0010
0001
,
0101
0000
1100
0000
1010
1000
0010
1000
,
2002
0000
0000
0000
0000
0000
0000
0000
0000
0000
0000
0000
0000
0000
0000
3003
,
0000
0000
0000
0000
;
#NOTES:
     dance-single:
     :
     Hard:
     13:
     :
0000
0000
0000
0000
,
0000
0000
0000
0000
,
0000
0000
0000
0000
,
0000
0000
0000
0000
,
0000
0000
0000
0000
,
0200
0000
0000
0000
,
0010
0000
0000
0000
0301
0010
1000
0010
,
1001
0000
0000
0000
,
1000
0000
0010
0000
1000
0100
0000
1000
0010
0100
0001
0010
0001
0100
0010
0000
,
1000
0000
0010
0000
0100
0001
0000
0100
0001
0000
0010
0000
0100
1000
0000
0000
,
0010
0000
0100
0000
0001
0100
0000
0001
0010
0000
0100
0000
1000
0100
0000
0000
,
1000
0000
0010
0000
0100
0001
0000
0100
0001
0000
0010
0000
0100
0000
1000
0000
,
0010
0000
1000
0100
0000
0010
0001
0000
1000
0000
0000
0000
0001
0000
0010
0000
,
0001
0010
0000
0001
0000
0100
0001
0000
0010
0100
0000
1000
0000
0000
0100
0000
,
0010
0000
0100
0000
1000
0100
0000
1000
0010
1000
0000
0100
0000
1000
0100
0000
,
1000
0000
0010
0000
0100
0000
0001
0100
0000
0010
1000
0000
0100
0000
1000
0100
,
1000
0010
0000
1000
0100
0010
0001
0100
0001
0010
0000
0001
0100
0010
1000
0100
,
1000
0010
0100
0010
1000
0100
0001
0100
,
1000
0000
0010
0000
0100
0000
0001
0000
0010
0000
0001
0000
0100
0000
0010
0100
,
0001
0010
0100
0010
0001
0100
1000
0100
,
0001
0000
0010
0000
0100
0000
1000
0000
0010
0000
1000
0000
0100
0000
0010
0100
,
1000
0010
0100
0010
1000
0100
0001
0100
,
1000
0000
0010
0000
0100
0000
0001
0000
0010
0000
0001
0000
0100
0000
0010
0100
,
0001
0010
0100
0010
0001
0100
0010
1000
,
0001
0000
0000
0000
1000
0000
0001
0010
0100
0000
1000
0000
0001
0000
0000
0000
,
1000
0000
0010
1000
0100
0000
1000
0000
0010
0000
0100
0001
0010
0000
0100
0000
,
1000
0000
0010
1000
0100
0000
1000
0000
0010
0000
1000
0100
1000
0000
0010
0100
,
0001
0000
0010
0001
0100
0000
0001
0000
0010
0000
0100
1000
0010
0000
0100
0000
,
0001
0000
0010
0001
0100
0000
0001
0000
0010
0000
0001
0000
0100
0000
0010
0100
,
0001
0000
0010
0001
0100
0000
0001
0000
0010
0000
0100
1000
0010
0000
0100
0000
,
0001
0000
0010
0001
0100
0000
0001
0000
0010
0000
0001
0100
0001
0000
0010
0100
,
1000
0000
0010
1000
0100
0000
1000
0000
0010
0000
0100
0001
0010
0000
0100
0000
,
1000
0000
0010
1000
0100
0000
1000
0000
0010
0000
1000
0000
0002
0000
2000
0000
,
0000
0000
0000
0000
0000
0000
0000
0000
0000
0000
0000
3003
0000
0000
0000
0000
,
0001
0000
0100
0000
0001
0000
0010
0001
0010
0000
0100
1000
0000
0010
0100
0001
,
0010
0000
0001
0000
0100
0000
1010
0000
0000
1000
0000
0000
0010
0000
0101
0000
,
0000
0000
0001
0000
0010
0000
1100
0000
0000
0010
0000
0000
1000
0000
0100
0000
,
0011
0000
0001
0000
0100
0000
1010
0000
0000
1000
0000
0000
0010
0000
0101
0000
,
0000
0000
0001
0000
0010
0000
1100
0000
0100
1000
0010
0000
0100
0001
0010
0000
,
1010
0000
1000
0000
0100
0000
0011
0000
0000
0001
0000
0000
0010
0000
1100
0000
,
0000
0000
0001
0000
0010
0000
0101
0000
0000
0010
0000
0000
0001
0000
0100
0000
,
1010
0000
1000
0000
0100
0000
0011
0000
0000
0001
0000
0000
0010
0000
0100
0000
,
1000
0000
0010
0000
1000
0000
0100
1000
0010
1000
0100
0010
0001
0100
0001
0000
,
1000
0000
0010
0000
0100
0000
0001
0000
0000
0010
0000
0000
0001
0000
0100
0000
,
0001
0000
0010
0000
0100
0000
1000
0000
0000
0010
0000
0000
1000
0000
0100
0000
,
0000
0000
1000
0000
0001
0000
0010
0000
0000
0001
0000
0000
1000
0000
0010
0000
,
0000
0000
1000
0000
0100
0000
0010
0000
0000
0001
0000
0010
0100
0000
1000
0001
,
0000
0000
0010
0000
0100
0000
1000
0000
0000
0010
0000
0000
1000
0000
0100
0000
,
0000
0000
1000
0000
0010
0000
0100
0000
0001
0010
0100
0000
1000
0000
0010
0100
,
0000
0000
0001
0000
0010
0000
0100
0000
1000
0010
0100
0000
0001
0000
0010
0100
,
1000
0000
0001
0000
0010
0000
0100
0000
0000
1000
0000
0000
0010
1000
0100
0010
,
0001
0000
0100
0001
0000
1000
0010
0000
1000
0100
0000
0010
0001
0100
0001
0000
,
1000
0000
0100
1000
0000
0001
0010
0000
0001
0100
0000
0010
1000
0100
1000
0000
,
0001
0000
0100
0001
0000
1000
0010
0000
1000
0100
0000
0010
0001
0100
0001
0000
,
1100
0000
0000
0011
0000
0000
1010
0000
0000
0000
1000
0000
0010
1000
0100
0000
,
1000
0010
1000
0100
0000
1000
0001
0010
0001
0100
0000
0001
0010
0100
1000
0000
,
0001
0010
0001
0100
0000
0001
1000
0010
1000
0100
0000
1000
0010
0100
0001
0000
,
1000
0000
0010
1000
0000
0001
0100
0000
0001
0010
0000
0001
0100
0010
1000
0000
,
0101
0000
0000
1010
0000
0000
0011
0000
0010
0000
0001
0000
0100
0010
1000
0000
,
2002
0000
0000
0000
0000
0000
0000
0000
0000
0000
0000
0000
0000
0000
0000
3003
,
0000
0000
0000
0000
;
#NOTES:
     dance-double:
     :
     Easy:
     5:
     :
00000000
00000000
00000000
00000000
,
00000000
00000000
00000000
00000000
,
00000000
00000000
00000000
00000000
,
00000000
00000000
00000000
00000000
,
00000000
00000000
00000000
00000000
,
00010000
00000000
00100000
00000000
,
10000000
00000000
01000000
10000000
,
10010000
00000000
00000000
00000000
,
00010000
10000000
00100000
00010000
,
00001000
00000010
00000001
00000000
,
00000001
00000100
00001000
00000000
,
00010000
00100000
10000000
01000000
,
10000000
00100000
00010000
00000000
,
00001000
00000010
00000001
00000000
,
00000001
00000100
00001000
00000000
,
00010000
00100000
10000000
01000000
,
10000000
00100000
00010000
00000000
,
00001000
00000010
00000001
00000100
,
00000010
00001000
00000100
00000000
,
00010000
00100000
10000000
01000000
,
00100000
00010000
01000000
00000000
,
00001000
00000010
00000001
00000100
,
00000010
00001000
00000100
00000000
,
00010000
00100000
10000000
01000000
,
10000000
00000000
00100000
00010000
,
00001000
00000010
00000001
00000100
,
00001000
00000100
00000010
00000000
,
00010000
00100000
10000000
01000000
,
00010000
01000000
00100000
00000000
,
00001000
00000010
00000001
00000100
,
00001000
00000100
00000010
00000000
,
00010000
00100000
10000000
01000000
,
00010000
00001000
00010000
00022000
,
00000000
00000000
00033000
00000000
,
00001000
00000010
00001000
00000000
,
00010000
00100000
10000000
01000000
,
10000000
00100000
00010000
00000000
,
00001000
00000010
00000001
00000100
,
00000001
00000010
00001000
00000000
,
00010000
00100000
10000000
01000000
,
10000000
00100000
00010000
00000000
,
00001000
00000010
00000001
00000100
,
00000001
00000010
00001000
00000000
,
00010000
00100000
01000000
00010000
,
00100000
00001000
00000000
00011000
,
00000000
00001010
00000000
00000110
,
00000000
00000000
00000100
00001000
,
00010000
00100000
01000000
00010000
,
00000000
00100000
00001000
00010000
,
00000000
00000010
00001000
00000100
,
00001000
00000010
00000100
00001000
,
00010000
01000000
10000000
00100000
,
10000000
01000000
00010000
00001000
,
00000100
00000001
00000010
00000001
,
00001000
00000001
00001001
00000000
,
00000001
00000010
00001000
00010000
,
00100000
10000000
01000000
10000000
,
00100000
00010000
00001000
00000010
,
00000001
00000100
00001000
00010000
,
00022000
00000000
00000000
00033000
,
00000000
00000000
00000000
00000000
;
#NOTES:
     dance-double:
     :
     Medium:
     10:
     :
00000000
00000000
00000000
00000000
,
00000000
00000000
00000000
00000000
,
00000000
00000000
00000000
00000000
,
00000000
00000000
00000000
00000000
,
00000000
00000000
00000000
00000000
,
00010000
00000000
00000000
00000000
,
00100000
00000000
00000000
00000000
10000000
01000000
10000000
00000000
,
10100000
00000000
00000000
00000000
,
10000000
00100000
10000000
01000000
10000000
00100000
01000000
00001000
,
00010000
00000010
00000100
00000001
00000010
00000100
00001000
00000000
,
00000010
00000100
00000001
00000010
00000001
00000100
00000010
00010000
,
00001000
00100000
01000000
10000000
00100000
01000000
00010000
00000000
,
10000000
00100000
01000000
00001000
00010000
00000000
00000000
00000000
,
00010000
00000010
00000100
00000001
00000010
00000100
00001000
00000000
,
00000010
00000100
00000001
00000010
00000001
00000100
00000010
00010000
,
00001000
00100000
01000000
10000000
00100000
01000000
00010000
00000000
,
10000000
01000000
00100000
00010000
10000000
00000000
00100000
00010000
,
00001000
00000000
00000010
00000000
00000001
00000100
00001000
00000100
,
00000001
00000000
00000010
00000000
00000001
00000100
00001000
00000000
,
00010000
00000000
00100000
00000000
10000000
01000000
00010000
01000000
,
10000000
00000000
00100000
00000000
10000000
01000000
00010000
00000000
,
00001000
00000000
00000010
00000000
00000001
00000100
00001000
00000100
,
00000001
00000000
00000010
00000000
00000001
00000100
00001000
00000000
,
00010000
00000000
00100000
00000000
10000000
01000000
00010000
01000000
,
10000000
00000000
00100000
00000000
10000000
01000000
00010000
00000000
,
00001000
00000010
00000001
00000100
00000001
00000010
00000100
00010000
,
00000010
00000100
00000001
00000100
00000001
00000010
00001000
00010000
,
00100000
10000000
01000000
10000000
00100000
01000000
00010000
00100000
,
00010000
01000000
00100000
10000000
01000000
00000000
01000000
00010000
,
00001000
00000010
00000001
00000100
00000001
00000010
00000100
00010000
,
00000010
00000100
00000001
00000100
00000001
00000010
00001000
00010000
,
00100000
10000000
01000000
10000000
00100000
01000000
00010000
00100000
,
00010000
01000000
00100000
10000000
01000000
00010000
00002000
00020000
,
00000000
00000000
00000000
00000000
00000000
00033000
00000000
00000000
,
00001000
00000010
00000001
00000100
00000001
00000010
00001000
00000000
,
00010000
00100000
10000000
01000000
00000000
10000000
00100000
01000000
,
00000000
00010000
00100000
01000000
00000000
10000000
00100000
00010000
,
00001000
00000010
00000001
00000100
00000000
00000001
00000010
00000100
,
00000000
00001000
00000010
00000100
00000001
00000010
00001000
00000000
,
00010000
00100000
10000000
01000000
00000000
10000000
00100000
01000000
,
00000000
00010000
00100000
01000000
00000000
10000000
00100000
00010000
,
00001000
00000010
00000001
00000100
00000000
00000001
00000010
00000100
,
00010000
00000010
00001000
00000100
00000010
00000001
00000100
00000000
,
00001000
00100000
00010000
01000000
00000000
00000000
00010000
00100000
,
00010000
01000000
00100000
10000000
00000000
00000000
01000000
00010000
,
00000000
00000010
00001000
00000100
00000000
00000000
00000010
00000001
,
00000000
00001000
00000010
00000100
00001000
00010000
00001000
00000000
,
00000000
00100000
00010000
01000000
00000000
00010000
00100000
00010000
,
00000000
00010000
01000000
00100000
10000000
01000000
00010000
00001000
,
00000000
00001000
00000010
00000001
00000100
00000001
00000010
00000001
,
00000000
00000001
00000100
00000010
00000100
00000000
00001000
00000000
,
00010000
01000000
10000000
00100000
00010000
00100000
10000000
01000000
,
10000000
00100000
01000000
00010000
00100000
00001000
00010000
00000000
,
00001000
00000100
00000001
00000010
00001000
00000010
00000001
00000100
,
00000010
00000000
00001100
00000000
00000011
00000000
00000010
00001000
,
00010000
01000000
10000000
00100000
00010000
00100000
10000000
01000000
,
10000000
00100000
01000000
00010000
00100000
00001000
00010000
00000000
,
00001000
00000100
00000001
00000010
00001000
00000010
00000001
00000100
,
00000010
00000000
00001100
00000000
00000011
00000001
00000100
00001000
,
00022000
00000000
00000000
00000000
00000000
00000000
00000000
00033000
,
00000000
00000000
00000000
00000000
;
#NOTES:
     dance-double:
     :
     Hard:
     14:
     :
00000000
00000000
00000000
00000000
,
00000000
00000000
00000000
00000000
,
00000000
00000000
00000000
00000000
,
00000000
00000000
00000000
00000000
,
00000000
00000000
00000000
00000000
,
00000000
00000000
00000000
00000000
,
00100000
00000000
00000000
00000000
00100000
00010000
01000000
00100000
,
10100000
00000000
00000000
00000000
,
10000000
00000000
00100000
00000000
10000000
01000000
00000000
10000000
00100000
01000000
00010000
01000000
00001000
00010000
00001000
00000000
,
00010000
00000000
00000010
00000000
00000100
00000001
00000000
00000100
00000001
00000000
00000010
00000000
00000100
00001000
00000000
00000000
,
00000010
00000000
00000100
00000000
00000001
00000100
00000000
00000001
00000010
00000000
00000100
00000000
00010000
00001000
00000000
00010000
,
00001000
00000000
00100000
00000000
01000000
10000000
00000000
01000000
10000000
00000000
00100000
00000000
01000000
00000000
00010000
00000000
,
00100000
00000000
00010000
01000000
00000000
00100000
10000000
00000000
00010000
00000000
00000000
00000000
01000000
00000000
00001000
00000000
,
00010000
00000010
00000000
00000100
00000000
00000001
00000100
00000000
00000001
00000010
00000000
00000100
00000000
00000000
00001000
00000000
,
00000010
00000000
00000100
00000000
00000001
00000010
00000000
00000100
00001000
00000010
00000000
00001000
00000000
00000100
00010000
00000000
,
00001000
00000000
00100000
00000000
01000000
00000000
10000000
01000000
00000000
10000000
00100000
00000000
01000000
00000000
00010000
00100000
,
01000000
10000000
00000000
00100000
10000000
01000000
00100000
00010000
01000000
00010000
00000000
00100000
00010000
01000000
00001000
00010000
,
00001000
00000010
00000001
00000100
00001000
00000100
00000001
00000010
,
00000100
00000000
00001000
00000000
00000100
00000000
00000010
00000000
00000001
00000000
00000100
00000000
00000010
00000000
00000100
00001000
,
00010000
00100000
10000000
01000000
00010000
01000000
10000000
00100000
,
01000000
00000000
00010000
00000000
01000000
00000000
00100000
00000000
10000000
00000000
01000000
00000000
00100000
00000000
01000000
00010000
,
00001000
00000010
00000001
00000100
00001000
00000100
00000001
00000010
,
00000100
00000000
00001000
00000000
00000100
00000000
00000010
00000000
00000001
00000000
00000100
00000000
00000010
00000000
00000100
00001000
,
00010000
00100000
10000000
01000000
00010000
01000000
10000000
00100000
,
01000000
00000000
00010000
00000000
00100000
00000000
01000000
10000000
00100000
00000000
00010000
00000000
00011000
00000000
00000000
00000000
,
00001000
00000000
00000010
00000001
00000100
00000000
00000001
00000000
00000010
00000000
00000001
00000100
00000010
00000000
00001000
00000000
,
00000100
00000000
00001000
00000010
00000100
00000000
00000001
00000000
00000010
00000000
00000001
00000100
00000010
00000000
00000100
00001000
,
00010000
00000000
00100000
10000000
01000000
00000000
10000000
00000000
00100000
00000000
10000000
01000000
00100000
00000000
00010000
00000000
,
01000000
00000000
00010000
00100000
01000000
00000000
10000000
00000000
00100000
00000000
10000000
00000000
01000000
00000000
00010000
00000000
,
00001000
00000000
00000010
00000001
00000100
00000000
00000001
00000000
00000010
00000000
00000001
00000100
00000010
00000000
00001000
00000000
,
00000100
00000000
00001000
00000010
00000100
00000000
00000001
00000000
00000010
00000000
00000001
00000100
00000010
00000000
00000100
00001000
,
00010000
00000000
00100000
10000000
01000000
00000000
10000000
00000000
00100000
00000000
10000000
01000000
00100000
00000000
00010000
00000000
,
01000000
00000000
00010000
00100000
01000000
00000000
10000000
00000000
00100000
00000000
01000000
00000000
00002000
00000000
00020000
00000000
,
00000000
00000000
00000000
00000000
00000000
00000000
00000000
00000000
00000000
00000000
00000000
00033000
00000000
00000000
00000000
00000000
,
00010000
00000000
00000010
00000000
00001000
00000000
00000100
00001000
00000010
00000000
00000100
00000001
00000000
00000010
00000100
00010000
,
00001000
00000000
00000010
00000000
00000001
00000000
00000101
00000000
00000000
00000001
00000000
00000000
00000010
00000000
00001100
00000000
,
00000000
00000000
00000100
00000000
00010000
00000000
00010010
00000000
00000000
00000100
00000000
00000000
00000010
00000000
00001000
00000000
,
00010000
00000000
00100000
00000000
10000000
00000000
11000000
00000000
00000000
10000000
00000000
00000000
00100000
00000000
01010000
00000000
,
00000000
00000000
01000000
00000000
00001000
00000000
00101000
00000000
00100000
00010000
01000000
00000000
00100000
00000000
00010000
00000000
,
00001000
00000000
00000010
00000000
00000001
00000000
00000101
00000000
00000000
00000001
00000000
00000000
00000010
00000000
00001100
00000000
,
00000000
00000000
00000100
00000000
00010000
00000000
00010010
00000000
00000000
00000100
00000000
00000000
00000010
00000000
00001000
00000000
,
00010000
00000000
00100000
00000000
10000000
00000000
11000000
00000000
00000000
10000000
00000000
00000000
00100000
00000000
01000000
00000000
,
00001000
00000000
00100000
00000000
01000000
00000000
10000000
01000000
10000000
00100000
01000000
00010000
00100000
00001000
00010000
00000000
,
00001000
00000000
00000010
00000000
00000001
00000000
00000100
00000000
00000000
00000010
00000000
00000000
00001000
00000000
00000100
00000000
,
00000010
00000000
00000001
00000000
00000100
00000000
00000010
00000000
00000000
00001000
00000000
00000000
00000100
00000000
00010000
00000000
,
00000000
00000000
00100000
00000000
10000000
00000000
01000000
00000000
00000000
10000000
00000000
00000000
00100000
00000000
01000000
00000000
,
00000000
00000000
00010000
00000000
00100000
00000000
00010000
00000000
00000000
00100000
00000000
01000000
10000000
00000000
00100000
01000000
,
00000000
00000000
00001000
00000000
00000010
00000000
00000001
00000000
00000000
00000100
00000000
00000000
00000001
00000000
00000010
00000000
,
00000000
00000000
00000001
00000000
00000100
00000000
00000010
00000000
00001000
00000100
00000010
00000000
00000001
00000000
00000100
00000010
,
00000000
00000000
00010000
00000000
01000000
00000000
10000000
00000000
00100000
10000000
01000000
00000000
00100000
00000000
00010000
01000000
,
00000000
00000000
00010000
00000000
00100000
00000000
01000000
00000000
00000000
10000000
00000000
00000000
00010000
01000000
00001000
00010000
,
00000010
00000000
00001000
00000100
00000000
00001000
00000010
00000000
00000100
00000001
00000000
00000010
00000001
00000100
00000001
00000000
,
00000010
00000000
00000100
00001000
00000000
00000010
00001000
00000000
00000100
00001000
00000000
00000010
00010000
00000000
00001000
00000000
,
00100000
00000000
00010000
01000000
00000000
00010000
00100000
00000000
01000000
10000000
00000000
00100000
10000000
01000000
10000000
00000000
,
00110000
00000000
00000000
11000000
00000000
00000000
01010000
00000000
00000000
00000000
01000000
00000000
00001000
00010000
00000010
00000000
,
00001000
00000010
00001000
00000100
00000000
00001000
00000001
00000010
00000001
00000100
00000000
00000001
00000010
00000100
00001000
00000000
,
00000001
00000010
00000001
00000100
00000000
00000001
00001000
00000010
00001000
00000100
00000000
00010000
00001000
00000000
00010000
00000000
,
00100000
00000000
10000000
01000000
00000000
10000000
00100000
00000000
01000000
00010000
00000000
00100000
01000000
00100000
00010000
00000000
,
11000000
00000000
00000000
00110000
00000000
00000000
10100000
00000000
00010000
00000000
01000000
00000000
00001000
00010000
00001000
00000000
,
00022000
00000000
00000000
00000000
00000000
00000000
00000000
00000000
00000000
00000000
00000000
00000000
00000000
00000000
00000000
00033000
,
00000000
00000000
00000000
00000000
;
