
//----- song ID: outo -----//
#TITLE:out of focus;
#ARTIST:Qrispy Joybox;
#BANNER:out of focus.png;
#BACKGROUND:out of focus-bg.png;
#CDTITLE:./CDTitles/DDR A.png;
#MUSIC:out of focus.ogg;
#SAMPLESTART:58.794;
#SAMPLELENGTH:15;
#DISPLAYBPM:84:167;
#BPMS:0=167,63.75=83.5,81=167;
#STOPS:63.75=0.629,140.75=1.438;
#NOTES:
     dance-single:
     :
     Beginner:
     3:
     :
0000
0000
0000
0000
,
0000
0000
0000
0000
,
0000
0000
0000
0000
,
0000
0000
0000
0000
,
0000
0000
0000
0000
,
1000
0000
0000
0000
,
0000
0000
0000
0000
,
0001
0000
0000
0000
,
0000
0000
0000
0000
,
1000
0000
0000
0000
,
0010
0000
0000
0000
,
1000
0000
0000
0000
,
0100
0000
0000
0000
,
0001
0000
0000
0000
,
0010
0000
0000
0000
,
0100
0000
0000
0000
,
0000
1000
0000
0010
,
0000
0010
0000
0001
,
0000
0001
0000
0010
,
0000
0010
0000
1000
,
0000
1000
0000
0000
,
0000
0001
0000
0001
,
0000
0001
0000
0000
,
0000
1000
0000
1000
,
0000
1000
0000
0000
,
0000
0010
0000
0010
,
0000
0001
0000
0010
,
0000
0100
0000
0000
,
0000
0000
0000
0000
,
0000
0000
0000
0000
,
0000
1001
0000
0000
,
0000
0000
0000
0000
,
0000
1001
0000
0000
,
0000
1001
0000
0000
,
0000
1001
0000
0001
,
0001
0000
0001
0000
,
0001
0000
1000
1000
,
0000
0000
1000
0000
,
1000
0000
0010
0010
,
0000
0001
0000
0010
,
0000
0001
0000
0100
,
0000
0100
0000
0000
,
0000
1001
0000
0000
,
0000
0000
1000
0000
,
1000
0000
0001
0001
,
0000
0000
0001
0000
,
0001
0000
0010
0010
,
0000
1000
0000
0010
,
0000
1000
0000
0100
,
0000
0100
0000
0000
,
0000
1001
0000
0000
,
0000
1000
0000
0000
,
0000
0000
0000
0000
,
0000
0001
0000
0000
,
0000
0000
0000
0000
,
0000
0010
0000
0000
,
0000
0001
0000
0000
,
0000
1000
1000
1000
,
1000
0000
0000
0000
,
0000
0000
0000
0000
;
#NOTES:
     dance-single:
     :
     Easy:
     6:
     :
0000
0000
0000
0000
,
0000
0000
0000
0000
,
0000
0000
0000
0000
,
0000
0000
0000
0000
,
0000
0000
0000
0000
,
1000
0000
0000
0000
,
0001
0000
0000
0000
,
1000
0000
0000
0000
,
0010
0000
0000
1000
,
0001
0010
0001
0010
,
0001
1000
0001
0000
,
1000
0010
1000
0010
,
1000
0001
1000
0000
,
0010
1000
0100
0001
,
0001
0100
1000
0010
,
2000
0000
0000
0000
0000
0000
0000
0000
0000
0000
0000
0000
0000
0000
0000
0000
0000
0000
0000
0000
0000
0000
0000
0000
0000
0000
0000
0000
0000
0000
0000
0000
0000
0000
0000
0000
0000
0000
0000
0000
0000
0000
0000
0000
0000
0000
0000
0000
0000
0000
0000
0000
0000
0000
0000
0000
0000
0000
0000
0000
0000
0000
0000
0000
0000
0000
0000
0000
0000
0000
0000
0000
0000
0000
0000
0000
0000
0000
0000
0000
0000
0000
0000
0000
0000
0000
0000
0000
0000
0000
0000
3000
0000
0000
0000
0000
,
0000
0001
0010
0100
,
0010
0100
1000
0100
,
1000
1000
0010
0100
,
0010
0000
0100
0000
0001
0000
1000
0001
,
2000
3001
0010
0001
,
0010
0000
0001
0000
1000
0001
1000
0000
,
0000
0010
1000
0010
,
1000
0000
0001
0000
1000
0001
0010
0000
,
0000
0100
1000
0100
,
1000
0000
0100
0000
0010
0001
0010
0000
,
0000
0001
0100
1000
,
0010
0200
0000
0000
,
0300
1001
0000
0000
,
0000
0000
0000
0000
,
0000
1001
0000
0000
,
0000
0000
0000
0000
,
0000
0110
0000
0000
,
0000
0110
0000
0000
,
0000
1001
1000
0001
,
0200
0000
0000
0000
0000
0000
0000
0000
0000
0000
0000
0000
0000
0000
0000
0000
0000
0000
0000
0300
0000
0000
0000
0000
0001
0000
0000
0000
0000
0000
0000
0000
0000
0000
0000
0000
0000
0000
0000
0000
0000
0000
0000
0000
0000
0000
0000
0000
0001
0000
0000
0000
0000
0000
0000
0000
0000
0000
0000
0000
0000
0000
0000
0000
0000
0000
0000
0000
0000
0000
0000
0000
1000
0000
0000
0000
0000
0000
0000
0000
0000
0000
0000
0000
0000
0000
0000
0000
0000
0000
0000
0000
0000
0000
0000
0000
,
1000
0100
0001
0100
,
0000
1000
1000
0001
,
0001
0100
1000
0100
,
0000
0002
0000
0203
,
0000
0302
0000
0023
,
0000
0031
0100
1000
,
0010
0000
0002
0000
0000
0000
0000
0003
,
0000
0001
0010
1000
,
0100
0002
0000
2003
,
3000
1000
0010
0001
,
0100
1000
0001
1000
,
0000
0002
0000
0103
,
0000
2000
0000
3100
,
0000
0001
0100
1000
,
0010
0002
0000
0000
,
0003
2000
0000
0000
,
3000
0002
0000
0000
,
0003
0200
0000
0000
,
0300
0020
0000
0000
,
0030
2000
0000
0000
,
3000
0002
0000
0000
,
0003
1000
0001
1000
,
0020
0000
0000
0000
,
0030
0000
0000
0000
,
0000
0000
0000
0000
;
#NOTES:
     dance-single:
     :
     Medium:
     12:
     :
0000
0000
0000
0000
,
0000
0000
0000
0000
,
0000
0000
0000
0000
,
0000
0000
0000
0000
,
0000
0000
0000
0000
,
0002
0000
0000
0000
,
2003
0000
0000
0000
,
3002
0000
0000
0000
,
0203
0000
0000
0310
,
1000
0000
0001
1000
0001
0000
0010
0001
,
0000
0001
0010
0001
1000
0000
1000
0001
,
1000
0000
0010
0100
0010
0000
1000
0010
,
0000
0010
1000
0010
0100
0000
0001
0010
,
0001
0000
1000
0010
1000
0000
0001
0100
,
0001
0000
0010
0001
0100
1000
0100
0001
,
0010
0000
0000
0000
0000
0000
0000
0000
0000
0000
0000
0000
0100
0000
0000
0000
0000
0000
0000
0000
0000
0000
0000
0000
1000
0000
0000
0000
0000
0000
0000
0000
0000
0000
0000
0000
0100
0000
0000
0000
0000
0000
0000
0000
0000
0000
0000
0000
0010
0000
0000
0000
0000
0000
0000
0000
0000
0000
0000
0000
0001
0000
0000
0000
0000
0000
0000
0000
0000
0000
0000
0000
0100
0000
0000
0000
0000
0000
0000
0000
0000
0000
0000
0000
0002
0000
0000
0000
0000
0000
0000
0003
0000
0000
0000
0000
,
0000
0000
0000
0000
0100
0000
1010
0000
0100
0000
1000
0000
0100
0010
0001
1000
,
0100
0000
0000
0000
0100
0000
0011
0000
0100
0000
0001
0000
0100
0010
1000
0001
,
0100
0000
0000
0000
0100
0000
1010
0000
0001
0000
0010
0000
0001
0010
1000
0010
,
0001
0000
0000
0000
1000
0000
0011
0000
0100
0000
0001
0000
1000
0010
0001
1000
,
0200
0300
1001
0000
1010
0000
0100
0001
,
0100
0000
0001
1000
1000
0100
0001
0000
,
0110
0000
1001
0000
0101
0000
0010
1000
,
0010
0000
0100
0010
0100
0010
1000
0000
,
0110
0000
0101
0000
1001
0000
0100
1000
,
0100
0000
1000
0001
0001
0100
1000
0000
,
0110
1001
0011
0101
,
1100
0000
1001
0000
0001
0100
2000
0000
,
3001
2002
0000
0000
,
0000
0000
0000
3003
,
0000
2000
0020
0000
0000
0000
0000
0000
,
0000
0000
0000
3030
,
0000
0001
1000
0000
0000
0000
1010
0000
,
0000
0100
0001
0000
0000
0000
0011
0000
,
0000
1000
0100
0010
0001
1000
0001
1000
,
0001
0000
0000
0000
1000
0000
0000
0000
0001
0000
0000
0000
2000
3000
0000
0000
0001
0000
0000
0000
0000
0000
0000
0000
1000
0000
0000
0000
0000
0000
0000
0000
0100
0000
0000
0000
0000
0000
0000
0000
1000
0000
0000
0000
0000
0000
0000
0000
0010
0000
0000
0000
0000
0000
0000
0000
1000
0000
0000
0000
0000
0000
0000
0000
,
0001
1000
1010
0000
0101
0000
1100
0000
,
0000
0100
1000
0001
0100
0001
0010
0001
,
1000
0001
0011
0000
1001
0001
0010
0000
,
0000
0001
0010
0001
0010
0001
1000
0010
,
1000
0010
0001
0010
0001
0010
1000
0100
,
1000
0001
0010
0001
1000
0010
0001
1000
,
0100
0001
0020
0000
0000
0000
0000
0030
,
0000
0100
0010
0001
1000
0010
1000
0001
,
1000
0100
0020
0000
0130
0000
1002
0000
,
0000
1003
0010
0100
0001
1000
0001
0010
,
0001
0100
0101
0000
1100
0000
1001
0000
,
1100
1000
0010
1000
0010
1000
0001
0010
,
0001
0010
1000
0010
1000
0010
0001
0100
,
0001
1000
0010
1000
0001
0010
1000
0001
,
0100
1000
0020
0000
0000
0000
0000
0000
,
1030
0001
0200
0000
0000
0000
0000
0000
,
0300
0002
0000
0000
,
0003
2000
0000
0000
,
3000
0200
0000
0000
,
0300
1000
0010
0000
1000
0000
0010
0000
,
1000
0001
0100
0001
,
0100
0000
0101
0000
1001
0000
0001
1000
,
0001
1000
0001
1000
0000
0000
0000
0000
0000
0000
0000
0000
0000
0000
0000
0000
,
0000
0000
0000
0000
;
#NOTES:
     dance-single:
     :
     Hard:
     15:
     :
0000
0000
0000
0000
,
0000
0000
0000
0000
,
0000
0000
0000
0000
,
0000
0000
0000
0000
,
0000
0000
0000
0000
,
2000
0000
0000
0000
,
3020
0000
0000
0000
,
0230
0000
0000
0000
,
0302
0000
0003
1010
,
1001
0000
0100
0001
0010
0000
0001
1000
,
0000
0010
0100
0001
0100
0000
0100
0001
,
0010
0000
0010
1000
0100
0000
1000
0001
,
0000
0100
0001
1000
0001
0010
0100
1000
,
0001
0000
1000
0000
0100
0000
0010
0000
0001
0000
0010
0000
0100
0000
1000
0010
,
1000
0000
0100
0000
0010
0000
0001
0000
1000
0000
0010
0000
0100
0000
0001
1000
,
0001
0000
0000
0000
0000
0000
0010
0000
0000
0000
0000
0000
0001
0000
0000
0000
0000
0000
0010
0000
0000
0000
0000
0000
0100
0000
0000
0000
0000
0000
1000
0000
0000
0000
0000
0000
0100
0000
0000
0000
0000
0000
1000
0000
0000
0000
0000
0000
0001
0000
0000
0000
0000
0000
1000
0000
0000
0000
0000
0000
0010
0000
0000
0000
0000
0000
0100
0000
0000
0000
0000
0000
0001
0000
0000
0000
0000
0000
0010
0000
0000
0000
0000
0000
0100
0000
0000
0000
0000
0000
0020
0030
0000
0000
0000
0000
,
0001
0000
0000
0000
0001
0000
0000
0000
1000
0000
0000
0000
1000
0000
0000
0000
0100
0000
0000
0000
0010
0000
0000
0000
0001
0000
0000
0000
0000
0000
0000
0000
0000
0000
0000
0000
1001
0000
0000
0000
0000
0000
0000
0000
0000
0000
0000
0000
0010
0000
0000
0000
0000
0000
0001
0000
0000
0000
0000
0000
0100
0000
0000
0000
0000
0000
0000
0000
0000
0000
0000
0000
0001
0000
0000
0000
0000
0000
1000
0000
0000
0010
0000
0000
1000
0000
0000
0000
0000
0000
0001
0000
0000
0000
0000
0000
,
0100
0000
0000
0000
0010
0000
0100
0000
0010
0000
1000
0010
1000
0000
0000
0000
1000
0000
0100
0000
0001
0000
0100
0000
1000
0000
0001
0010
0001
0000
1000
0010
,
1000
0000
0000
0000
0000
0000
0000
0000
0011
0000
0000
0000
1001
0000
0000
0000
1100
0000
0001
0010
0001
0000
0000
0000
0100
0000
0010
0000
1000
0000
0001
1000
,
0001
0000
0000
0000
1000
0000
0010
0000
0001
0000
0010
0000
0100
0000
0001
0000
0010
0100
0010
0000
0001
0010
0001
0000
1000
0100
1000
0010
0100
0001
0010
0000
,
0022
0000
0033
0000
1001
0000
0100
0001
0100
0000
0000
0000
0001
0000
0100
0000
,
1000
0000
0100
0000
0001
1000
0010
1000
0100
0000
1000
0000
0100
0000
0000
0000
,
0011
0000
0000
0000
0001
0000
0010
0100
1000
0000
0000
0000
0100
0000
0001
0000
,
0100
0000
1000
0000
0010
0000
1000
0001
1000
0000
0100
0010
0100
0000
0000
0000
,
1100
0000
0000
0000
1001
0000
0100
1000
0100
0000
0000
0000
1000
0000
0100
0000
,
0001
0000
0100
0000
1000
0001
0010
0001
0100
0000
0001
0000
0100
0000
0000
0000
,
1010
0000
0000
0000
0001
0000
0100
0000
1000
0000
0100
0000
0001
1000
0100
0010
,
0001
0000
0000
1000
0000
0000
0010
0000
0000
0100
0000
0000
0001
0000
0000
0000
0000
0000
1000
0000
0000
0001
0000
0000
1000
0000
0000
0000
0100
0000
0000
0000
0010
0000
0000
0000
0002
0000
0000
0000
0000
0000
0000
0000
0000
0000
0000
0000
,
1003
2002
0000
0000
,
0000
0000
0000
3003
,
0000
0000
0010
0200
0020
0000
0000
0000
0000
0000
0000
0000
0000
0000
0000
0000
,
0000
0000
0000
0330
,
0000
0000
0100
0001
0200
0000
0000
0000
0000
0000
0000
0000
0010
0000
0000
0000
,
0300
0010
2010
0000
0000
0000
0001
0000
,
3000
0000
0001
0000
0100
0000
0010
0000
1000
0000
0001
0000
0010
0001
0100
0010
,
1000
0000
0000
0000
0100
0000
0000
0000
0010
0000
0000
0000
0002
0003
0000
0000
1100
0000
0000
0000
0000
0000
0000
0000
0001
0000
0000
0000
1000
0000
0000
0000
0010
0000
0000
0000
0000
0000
0000
0000
1000
0000
0000
0000
0000
0000
0000
0000
0100
0000
0000
0000
0010
0000
0000
0000
0001
0000
0000
0000
0000
0000
0000
0000
,
0001
0010
0100
0000
1100
0000
0000
0000
1010
0000
0000
0000
0101
0000
0000
0000
,
1001
0000
0001
1000
0010
0000
1000
0001
0010
0000
0001
0000
0100
0010
1000
0000
,
1000
0010
0100
0000
0101
0000
0000
0000
0011
0000
0001
0010
0200
0000
0000
0000
,
1300
0000
0100
0010
0002
0000
0000
0000
1003
0000
0010
0100
0002
0000
0000
0000
,
0103
0000
0010
1000
0200
0000
0000
0000
1300
0000
0001
0010
0200
0000
0000
0000
,
1300
0000
1000
0010
1000
0000
0001
1000
0001
0000
0010
0001
0010
0000
0100
0010
,
0001
0010
0100
1000
0020
0000
0000
0000
0000
0000
0000
0000
1030
0001
0100
0010
,
0000
0000
0010
0100
0001
0000
1000
0001
0010
0000
0001
0000
0100
0010
1000
0000
,
1000
0010
0100
0000
0002
0000
0000
0000
0010
0000
0000
0000
0103
0000
0000
0000
,
1001
0000
1000
0001
0010
0000
0001
1000
0010
0000
1000
0000
0100
0010
0001
0000
,
0001
0010
0100
0000
1100
0000
0000
0000
1010
0000
0000
0000
0210
0000
0000
0000
,
0301
0000
0100
0010
2000
0000
0000
0000
3001
0000
0010
0100
2000
0000
0000
0000
,
3100
0000
0010
0001
0200
0000
0000
0000
0301
0000
1000
0010
0200
0000
0000
0000
,
0301
0000
0001
0010
0001
0000
1000
0001
1000
0000
0010
1000
0010
0000
0100
0010
,
1000
0010
0100
0001
0020
0000
0000
0000
0000
0000
0000
0000
0000
0000
0000
0000
,
0031
1000
0100
0010
0002
0000
0000
0000
0000
0000
0000
0000
0000
0000
0000
0000
,
0010
0203
0000
0000
,
0010
0302
0000
0000
,
0010
2003
0000
0000
,
0000
0000
3100
0010
0200
0000
0000
0000
0001
0000
0000
0000
0010
0000
0000
0000
,
1300
2001
0010
0100
,
3001
0000
0000
0000
1001
0000
0000
0000
1000
0000
0000
0000
0010
0100
0001
1000
,
0100
0010
0002
2000
0000
0000
0000
0000
0000
0000
0000
0000
0000
0000
0000
0000
,
3003
0000
0000
0000
,
0000
0000
0000
0000
;
#NOTES:
     dance-single:
     :
     Challenge:
     16:
     :
0000
0000
0000
0000
,
0000
0000
0000
0000
,
0000
0000
0000
0000
,
0000
0000
0000
0000
,
0000
0000
0000
0000
,
1000
0001
0100
0001
1000
0010
1000
0001
,
0100
0001
0010
0100
1000
0100
0010
0001
,
1000
0100
1000
0001
1000
0010
0001
0010
,
0100
1000
0100
0010
0001
0000
0110
0000
,
1001
0001
0100
1000
0100
0001
1000
0001
,
0000
0100
0010
1000
0010
0001
0010
1000
,
0100
0001
0100
1000
0010
0000
0001
0010
,
0000
1000
0100
0001
1000
0010
0001
1000
,
0100
0000
1000
0000
0010
0000
0100
0000
1000
0000
0100
0000
0010
0000
0001
0100
,
0001
0000
0010
0000
0100
0000
1000
0000
0001
0000
0100
0000
0010
0000
1000
0001
,
1000
0000
0000
0000
0000
0000
0100
0000
0000
0000
0000
0000
1000
0000
0000
0000
0000
0000
0100
0000
0000
0000
0000
0000
0010
0000
0000
0000
0000
0000
0001
0000
0000
0000
0000
0000
0010
0000
0000
0000
0000
0000
0001
0000
0000
0000
0000
0000
1000
0000
0000
0000
0000
0000
0001
0000
0000
0000
0000
0000
0100
0000
0000
0000
0000
0000
0010
0000
0000
0000
0000
0000
1000
0000
0000
0000
0000
0000
0100
0000
0000
0000
0000
0000
0010
0000
0000
0000
0000
0000
0200
0300
0000
0000
0000
0000
,
1000
0000
0000
0000
0100
0000
0000
0000
1000
0000
0000
0000
0001
0000
0000
0000
0010
0000
0000
0000
0100
0000
0000
0000
1000
0000
0000
0000
0000
0000
0100
0000
0000
0000
0000
0000
1000
0000
0000
0000
0000
0000
0001
0000
0000
0000
0000
0000
0100
0000
0000
0000
0000
0000
1000
0000
0000
0000
0000
0000
0110
0000
0000
0000
0000
0000
0110
0000
0000
0000
0000
0000
1000
0000
0000
0000
0000
0000
0001
0000
0000
0100
0000
0000
0001
0000
0000
0000
0000
0000
1000
0000
0000
0000
0000
0000
,
0010
0000
0001
0000
0010
0000
1000
0000
0001
0000
0100
0010
1000
0000
0001
0000
1000
0000
0001
0000
0110
0000
0110
0000
1000
0000
0001
0100
0001
0000
1000
0100
,
1000
0000
0001
0000
0010
0000
0001
0000
1000
0000
0100
0000
0001
0000
0100
0000
1000
0000
0100
0000
0110
0000
0110
0000
0001
0000
1000
0100
1000
0000
0001
0000
,
0010
0000
1000
0000
0010
0000
0001
0000
1000
0000
0010
0000
0100
0000
0001
0000
0010
0100
0001
0000
1000
0010
0001
0000
1000
0100
1000
0010
0100
0001
0010
0000
,
0001
1000
0100
0000
1000
0100
0010
0001
0010
0001
1000
0100
1000
0000
0010
0000
,
0001
0000
0010
0000
1000
0001
0100
0001
0010
0000
0001
0000
0010
0000
0001
0000
,
0010
0000
0100
0000
1000
0100
0010
0001
0010
0001
1000
0100
1000
0000
0010
0000
,
0001
0000
0010
0000
0100
0000
0001
1000
0001
0000
0010
0100
0010
1000
0010
0000
,
0110
0000
0000
0000
1000
0100
0010
0001
0010
0001
1000
0100
1000
0000
0010
0000
,
0110
0000
0110
0000
0001
1000
0100
1000
0010
0000
1000
0000
0010
0000
1000
0000
,
1001
0000
1001
0000
1000
0000
0010
0000
0001
0000
0010
0000
1000
0001
0010
0100
,
1000
0000
0000
0001
0000
0000
0100
0000
0000
0010
0000
0000
1000
0000
0000
0000
0000
0000
0001
0000
0000
1000
0000
0000
0001
0000
0000
0000
0010
0000
0000
0000
0100
0000
0000
0000
1000
0000
0000
0000
0010
0000
0000
0000
0100
0000
0000
0000
,
0001
0000
0001
1000
0100
1000
0010
0100
,
0001
0010
0001
1000
0100
1000
0001
1000
,
0010
0000
0100
0010
0100
0000
0001
0000
1000
0000
0100
0000
1000
0000
0010
0000
,
0100
0001
0010
0001
1000
0100
1000
0001
,
0100
0000
0010
1000
0010
0000
0100
0000
0001
0000
1000
0000
0100
0000
1000
0000
,
0010
0100
0001
1000
0100
1000
0010
0100
,
0001
0000
1000
0000
0010
0100
0001
0000
0100
0001
1000
0000
0100
1000
0010
0100
,
0001
0000
0000
0000
0010
0000
0000
0000
0100
0000
0000
0000
2000
3000
0000
0000
0001
0000
0000
0000
0000
0000
0000
0000
1000
0000
0000
0000
0001
0000
0000
0000
0100
0000
0000
0000
0000
0000
0000
0000
0001
0000
0000
0000
0000
0000
0000
0000
0010
0000
0000
0000
0100
0000
0000
0000
1000
0000
0000
0000
0000
0000
0000
0000
,
0010
0100
0010
0000
0001
0010
0000
0000
0100
0010
0000
0000
0100
0000
0001
0000
,
1000
0000
0100
0000
1000
0000
0001
1000
0100
0000
1000
0000
0010
0100
0001
0000
,
0010
0100
0010
0000
0100
1000
0000
0000
0001
0010
0000
0000
0001
0100
0001
0000
,
0100
0000
0010
1000
0001
0000
0010
0000
0001
0000
0100
0010
1000
0000
0001
0000
,
0010
0000
0100
1000
0010
0000
1000
0000
0001
0000
1000
0100
0010
0000
0001
0000
,
1000
0000
0001
0100
0001
0000
1000
0001
1000
0000
0100
1000
0100
0000
0010
0100
,
1000
0100
0010
0001
0010
0001
1000
0100
1000
0010
0100
0010
1000
0001
0010
0100
,
0000
0000
1000
0100
1000
0000
0001
1000
0100
0000
1000
0000
0010
0100
0001
0000
,
0010
0100
0010
0000
1000
0010
0000
0000
0100
0010
0000
0000
0100
0000
1000
0000
,
0001
0000
0100
0000
0001
0000
1000
0001
0100
0000
0001
0000
0010
0100
1000
0000
,
0010
0100
0010
0000
0100
0001
0000
0000
1000
0010
0000
0000
1000
0100
1000
0000
,
0100
0000
0010
0001
1000
0000
0010
0000
1000
0000
0100
0010
0001
0000
1000
0000
,
0010
0000
0100
0001
0010
0000
0001
0000
1000
0000
0001
0100
0010
0000
1000
0000
,
0001
0000
1000
0100
1000
0000
0001
1000
0001
0000
0100
0001
0100
0000
0010
0100
,
0001
0100
0010
1000
0010
0100
0001
1000
0001
0010
0001
0010
0001
1000
0010
0100
,
0001
0010
0001
0010
0001
0000
1000
0000
0100
0000
1000
0000
0001
0000
0010
0000
,
0001
1000
0100
1000
0010
0100
0001
0100
,
0010
1000
0001
0100
0001
1000
0001
0010
,
1000
0000
0010
0000
0100
0000
1000
0000
0100
0000
0010
0000
0001
0100
0001
1000
,
0100
0000
1000
0000
1001
0000
0000
0000
0100
1000
0100
1000
0001
0100
0001
1000
,
0010
0100
0001
0100
0010
0000
0000
0000
0010
0100
0001
1000
0001
0100
0010
1000
,
0010
0100
0001
0100
0001
0000
0100
0000
1000
0000
0100
0000
0010
0100
0001
1000
,
0100
0010
0002
2000
0000
0000
0000
0000
0000
0000
0000
0000
0000
0000
0000
0000
,
3003
0000
0000
0000
,
0000
0000
0000
0000
;
#NOTES:
     dance-double:
     :
     Easy:
     6:
     :
00000000
00000000
00000000
00000000
,
00000000
00000000
00000000
00000000
,
00000000
00000000
00000000
00000000
,
00000000
00000000
00000000
00000000
,
00000000
00000000
00000000
00000000
,
00010000
00000000
00000000
00000000
,
00001000
00000000
00000000
00000000
,
01000000
00000000
00000000
00000000
,
00010000
00000000
00000000
10000000
,
00010000
00100000
00010000
00100000
,
00001000
00010000
00001000
00000000
,
00000010
00000001
00000010
00000001
,
00000100
00000010
00000100
00000000
,
00000010
00010000
00001000
00100000
,
00010000
10000000
01000000
00010000
,
00002000
00000000
00000000
00000000
00000000
00000000
00000000
00000000
00000000
00000000
00000000
00000000
00000000
00000000
00000000
00000000
00000000
00000000
00000000
00000000
00000000
00000000
00000000
00000000
00000000
00000000
00000000
00000000
00000000
00000000
00000000
00000000
00000000
00000000
00000000
00000000
00000000
00000000
00000000
00000000
00000000
00000000
00000000
00000000
00000000
00000000
00000000
00000000
00000000
00000000
00000000
00000000
00000000
00000000
00000000
00000000
00000000
00000000
00000000
00000000
00000000
00000000
00000000
00000000
00000000
00000000
00000000
00000000
00000000
00000000
00000000
00000000
00000000
00000000
00000000
00000000
00000000
00000000
00000000
00000000
00000000
00000000
00000000
00000000
00000000
00000000
00000000
00000000
00000000
00000000
00000000
00003000
00000000
00000000
00000000
00000000
,
00000000
00100000
00010000
00100000
,
00001000
00000010
00000100
00001000
,
00000100
00010000
00001000
00010000
,
00100000
00000000
10000000
00000000
00010000
00000000
00100000
00001000
,
00020000
00030010
00001000
00000010
,
00001000
00000001
00000100
00001000
,
00000000
00010000
00001000
00010000
,
00001000
00100000
00001000
00100000
,
00000000
01000000
10000000
01000000
,
10000000
01000000
00010000
00001000
,
00000000
00010000
00000010
00001000
,
00000001
00000200
00000000
00000000
,
00000300
00001001
00000000
00000000
,
00000000
00000000
00000000
00000000
,
00000000
00011000
00000000
00000000
,
00000000
00000000
00000000
00000000
,
00000000
00110000
00000000
00000000
,
00000000
01100000
00000000
00000000
,
00000000
11000000
00100000
00001000
,
02000000
00000000
00000000
00000000
00000000
00000000
00000000
00000000
00000000
00000000
00000000
00000000
00000000
00000000
00000000
00000000
00000000
00000000
00000000
03000000
00000000
00000000
00000000
00000000
00010000
00000000
00000000
00000000
00000000
00000000
00000000
00000000
00000000
00000000
00000000
00000000
00000000
00000000
00000000
00000000
00000000
00000000
00000000
00000000
00000000
00000000
00000000
00000000
00010000
00000000
00000000
00000000
00000000
00000000
00000000
00000000
00000000
00000000
00000000
00000000
00000000
00000000
00000000
00000000
00000000
00000000
00000000
00000000
00000000
00000000
00000000
00000000
10000000
00000000
00000000
00000000
00000000
00000000
00000000
00000000
00000000
00000000
00000000
00000000
00000000
00000000
00000000
00000000
00000000
00000000
00000000
00000000
00000000
00000000
00000000
00000000
,
10000000
01000000
00010000
00001000
,
00000000
00000001
00000001
00001000
,
00001000
00000001
00000100
00001000
,
00000000
02000000
00000000
03002000
,
00000000
00023000
00000000
00030200
,
00000000
00001300
00001000
00000010
,
00010000
00000000
00002000
00000000
00000000
00000000
00000000
00003000
,
00000000
00010000
00100000
10000000
,
01000000
00020000
00000000
00032000
,
00003000
00001000
00000010
00000001
,
00000100
00001000
00010000
00001000
,
00000000
00200000
00000000
01300000
,
00000000
00002000
00000000
00003100
,
00000000
00000001
00001000
00000010
,
00010000
02000000
00000000
00000000
,
03000000
20000000
00000000
00000000
,
30000000
00020000
00000000
00000000
,
00030000
00200000
00000000
00000000
,
00300000
00002000
00000000
00000000
,
00003000
00020000
00000000
00000000
,
00030000
00000020
00000000
00000000
,
00000030
00000100
00001000
00010000
,
00002000
00000000
00000000
00000000
,
00003000
00000000
00000000
00000000
,
00000000
00000000
00000000
00000000
;
#NOTES:
     dance-double:
     :
     Medium:
     12:
     :
00000000
00000000
00000000
00000000
,
00000000
00000000
00000000
00000000
,
00000000
00000000
00000000
00000000
,
00000000
00000000
00000000
00000000
,
00000000
00000000
00000000
00000000
,
00020000
00000000
00000000
00000000
,
00032000
00000000
00000000
00000000
,
00023000
00000000
00000000
00000000
,
00030200
00000000
00000000
00000310
,
00001000
00000000
00000001
00001000
00000001
00000000
00000100
00001000
,
00000000
00010000
00001000
00010000
00100000
00000000
10000000
00010000
,
10000000
00000000
01000000
00100000
01000000
00000000
00100000
00001000
,
00000000
00010000
00001000
00010000
00000100
00000000
00000010
00000001
,
00000010
00000000
00001000
00010000
00001000
00000000
01000000
00010000
,
01000000
00000000
00100000
10000000
01000000
00010000
00001000
00010000
,
00000010
00000000
00000000
00000000
00000000
00000000
00000000
00000000
00000000
00000000
00000000
00000000
00001000
00000000
00000000
00000000
00000000
00000000
00000000
00000000
00000000
00000000
00000000
00000000
00000001
00000000
00000000
00000000
00000000
00000000
00000000
00000000
00000000
00000000
00000000
00000000
00000100
00000000
00000000
00000000
00000000
00000000
00000000
00000000
00000000
00000000
00000000
00000000
00001000
00000000
00000000
00000000
00000000
00000000
00000000
00000000
00000000
00000000
00000000
00000000
00010000
00000000
00000000
00000000
00000000
00000000
00000000
00000000
00000000
00000000
00000000
00000000
00001000
00000000
00000000
00000000
00000000
00000000
00000000
00000000
00000000
00000000
00000000
00000000
00020000
00000000
00000000
00000000
00000000
00000000
00000000
00030000
00000000
00000000
00000000
00000000
,
00000000
00000000
00000000
00000000
10000000
00000000
10100000
00000000
01000000
00000000
10000000
00000000
01000000
00010000
00001000
00000010
,
00000001
00000000
00000000
00000000
00000001
00000000
00000011
00000000
00000100
00000000
00000001
00000000
00000100
00001000
00010000
00100000
,
10000000
00000000
00000000
00000000
10000000
00000000
10100000
00000000
00010000
00000000
00100000
00000000
00001000
00000010
00000001
00000010
,
00001000
00000000
00000000
00000000
00010000
00000000
00010010
00000000
00000010
00000000
00000100
00000000
00001000
00010000
00100000
10000000
,
00200000
00300000
00011000
00000000
00001010
00000000
00001000
00100000
,
00001000
00000000
00010000
00001000
00001000
01000000
00010000
00000000
,
00011000
00000000
00110000
00000000
01010000
00000000
00010000
00001000
,
00010000
00000000
00000010
00000100
00000010
00000100
00000001
00000000
,
00001100
00000000
00001010
00000000
00011000
00000000
01000000
00010000
,
01000000
00000000
00001000
00010000
00010000
00000010
00001000
00000000
,
00011000
00001010
00001100
00011000
,
01001000
00000000
10010000
00000000
01000000
00010000
00002000
00000000
,
00013000
00022000
00000000
00000000
,
00000000
00000000
00000000
00033000
,
00000000
00002000
00000200
00000000
00000000
00000000
00000000
00000000
,
00000000
00000000
00000000
00003300
,
00000000
00000001
00001000
00000000
00000000
00000000
00001010
00000000
,
00000000
00010000
00001000
00000000
00000000
00000000
00110000
00000000
,
00000000
10000000
00010000
00100000
00001000
00010000
00000010
00001000
,
00000001
00000000
00000000
00000000
00001000
00000000
00000000
00000000
00000001
00000000
00000000
00000000
00002000
00003000
00000000
00000000
00000001
00000000
00000000
00000000
00000000
00000000
00000000
00000000
00001000
00000000
00000000
00000000
00000000
00000000
00000000
00000000
00000001
00000000
00000000
00000000
00000000
00000000
00000000
00000000
00000100
00000000
00000000
00000000
00000000
00000000
00000000
00000000
00001000
00000000
00000000
00000000
00000000
00000000
00000000
00000000
00010000
00000000
00000000
00000000
00000000
00000000
00000000
00000000
,
00001000
00010000
00100000
00000000
10010000
00000000
00110000
00000000
,
00000000
01000000
10000000
00010000
10000000
00100000
00010000
00001000
,
00010000
00001000
00000010
00000000
00001001
00000000
00001100
00000000
,
00000000
00010000
00000010
00001000
00000010
00001000
00000100
00010000
,
00001000
00100000
01000000
00100000
00001000
00010000
00000010
00001000
,
00000100
00010000
00001000
00100000
01000000
10000000
00010000
00100000
,
00001000
00010000
00002000
00000000
00000000
00000000
00000000
00003000
,
00000000
01000000
00100000
10000000
00010000
01000000
00001000
00010000
,
00001000
00000100
00000002
00000000
00001003
00000000
00020000
00000000
,
00000000
10030000
01000000
00100000
00010000
01000000
00001000
00010000
,
00000010
00000100
00000001
00000000
00001010
00000000
00011000
00000000
,
00000000
00001000
00100000
00010000
00100000
00010000
01000000
00001000
,
00010000
00000010
00000100
00000010
00010000
00001000
00100000
00010000
,
01000000
00001000
00010000
00000010
00000100
00000001
00001000
00000010
,
00010000
00001000
00020000
00000000
00000000
00000000
00000000
00000000
,
00031000
00000010
00000200
00000000
00000000
00000000
00000000
00000000
,
00000300
00002000
00000000
00000000
,
00003000
00020000
00000000
00000000
,
00030000
02000000
00000000
00000000
,
03000000
00100000
10000000
00000000
00010000
00000000
10000000
00000000
,
00100000
01000000
00001000
00010000
,
00001000
00000000
00110000
00000000
00011000
00000000
00010000
00001000
,
00010000
00001000
00010000
00001000
00000000
00000000
00000000
00000000
00000000
00000000
00000000
00000000
00000000
00000000
00000000
00000000
,
00000000
00000000
00000000
00000000
;
#NOTES:
     dance-double:
     :
     Hard:
     15:
     :
00000000
00000000
00000000
00000000
,
00000000
00000000
00000000
00000000
,
00000000
00000000
00000000
00000000
,
00000000
00000000
00000000
00000000
,
00000000
00000000
00000000
00000000
,
00002000
00000000
00000000
00000000
,
00203000
00000000
00000000
00000000
,
00320000
00000000
00000000
00000000
,
02030000
00000000
03000000
10010000
,
00110000
00000000
01000000
00010000
00001000
00000000
00100000
00001000
,
00000000
00000100
00001000
00010000
00001000
00000000
00010000
00001000
,
00000010
00000000
00001000
01000000
00100000
00000000
00010000
00001000
,
00000000
00000010
00001000
00010000
00001000
00100000
01000000
10000000
,
00010000
10000000
01000000
00100000
00001000
00100000
01000000
10000000
,
00100000
00010000
00001000
00000100
00001000
00010000
00000100
00000010
,
00000001
00000000
00000000
00000000
00000000
00000000
00001000
00000000
00000000
00000000
00000000
00000000
00000001
00000000
00000000
00000000
00000000
00000000
00001000
00000000
00000000
00000000
00000000
00000000
00000010
00000000
00000000
00000000
00000000
00000000
00001000
00000000
00000000
00000000
00000000
00000000
00000010
00000000
00000000
00000000
00000000
00000000
00010000
00000000
00000000
00000000
00000000
00000000
00001000
00000000
00000000
00000000
00000000
00000000
00010000
00000000
00000000
00000000
00000000
00000000
00001000
00000000
00000000
00000000
00000000
00000000
00100000
00000000
00000000
00000000
00000000
00000000
00010000
00000000
00000000
00000000
00000000
00000000
01000000
00000000
00000000
00000000
00000000
00000000
00100000
00000000
00000000
00000000
00000000
00000000
20000000
30000000
00000000
00000000
00000000
00000000
,
10000000
00000000
00000000
00000000
10000000
00000000
00000000
00000000
00010000
00000000
00000000
00000000
00010000
00000000
00000000
00000000
01000000
00000000
00000000
00000000
00100000
00000000
00000000
00000000
00010000
00000000
00000000
00000000
00000000
00000000
00000000
00000000
00000000
00000000
00000000
00000000
00011000
00000000
00000000
00000000
00000000
00000000
00000000
00000000
00000000
00000000
00000000
00000000
00000010
00000000
00000000
00000000
00000000
00000000
00001000
00000000
00000000
00000000
00000000
00000000
00000100
00000000
00000000
00000000
00000000
00000000
00000000
00000000
00000000
00000000
00000000
00000000
00000010
00000000
00000000
00000000
00000000
00000000
00000001
00000000
00000000
00000010
00000000
00000000
00000001
00000000
00000000
00000000
00000000
00000000
00000100
00000000
00000000
00000000
00000000
00000000
,
00001000
00000000
00000000
00000000
00010000
00000000
01000000
00000000
00100000
00000000
00010000
00100000
00010000
00000000
00000000
00000000
10000000
00000000
01000000
00000000
00010000
00000000
00001000
00000000
00010000
00000000
00001000
00100000
00001000
00000000
00010000
00001000
,
00010000
00000000
00000000
00000000
00000000
00000000
00000000
00000000
00000010
00000000
00000000
00000000
00011000
00000000
00000000
00000000
01000000
00000000
00010000
00100000
00010000
00000000
00000000
00000000
01000000
00000000
00100000
00000000
00010000
00000000
00001000
00010000
,
00001000
00000000
00000000
00000000
00001000
00000000
00000010
00000000
00000001
00000000
00000100
00000000
00001000
00000000
00010000
00000000
00100000
01000000
00100000
00000000
10000000
00100000
10000000
00000000
01000000
10000000
01000000
00000000
00100000
00010000
00100000
00000000
,
00022000
00000000
00033000
00000000
00101000
00000000
00001000
00000100
00001000
00000000
00000000
00000000
00000001
00000000
00000100
00000000
,
00001000
00000000
00010000
00000000
00001000
00100000
00010000
00100000
00001000
00000000
00001000
00000000
02000000
00000000
00000000
00000000
,
13000000
00000000
00000000
00000000
00001000
00000000
00010000
00001000
00010000
00000000
00000000
00000000
01000000
00000000
00010000
00000000
,
00001000
00000000
00010000
00000000
00000010
00000000
00010000
00001000
00100000
00000000
00001000
00000000
00011000
00000000
00000000
00000000
,
00001100
00000000
00000000
00000000
00001001
00000000
00000001
00000010
00000001
00000000
00000000
00000000
00000100
00000000
00010000
00000000
,
01000000
00000000
00010000
00000000
00100000
00010000
00100000
00001000
00010000
00000000
00010000
00000000
00000200
00000000
00000000
00000000
,
00000301
00000000
00000000
00000000
00000100
00000000
00000010
00000000
00001000
00000000
00010000
00000000
00001000
00100000
00010000
00100000
,
00010000
00000000
00000000
10000000
00000000
00000000
00100000
00000000
00000000
01000000
00000000
00000000
00010000
00000000
00000000
00000000
00000000
00000000
00100000
00000000
00000000
00001000
00000000
00000000
00010000
00000000
00000000
00000000
00001000
00000000
00000000
00000000
00000100
00000000
00000000
00000000
00000002
00000000
00000000
00000000
00000000
00000000
00000000
00000000
00000000
00000000
00000000
00000000
,
00001003
00002002
00000000
00000000
,
00000000
00000000
00000000
00003003
,
00000000
00000000
00010000
00002000
00020000
00000000
00000000
00000000
00000000
00000000
00000000
00000000
00000000
00000000
00000000
00000000
,
00000000
00000000
00000000
00033000
,
00000000
00000000
01000000
10000000
02000000
00000000
00000000
00000000
00000000
00000000
00000000
00000000
00100000
00000000
00000000
00000000
,
03000000
00100000
00002000
00000000
00000000
00000000
00010000
00000000
,
00003000
00000000
00000010
00000000
00000001
00000000
00000100
00000000
00000001
00000000
00001000
00000000
00000001
00001000
00000100
00010000
,
00001000
00000000
00000000
00000000
00100000
00000000
00000000
00000000
01000000
00000000
00000000
00000000
20000000
30000000
00000000
00000000
00110000
00000000
00000000
00000000
00000000
00000000
00000000
00000000
00100000
00000000
00000000
00000000
00001000
00000000
00000000
00000000
00010000
00000000
00000000
00000000
00000000
00000000
00000000
00000000
00001000
00000000
00000000
00000000
00000000
00000000
00000000
00000000
01000000
00000000
00000000
00000000
00000000
00000000
00000000
00000000
10000000
00000000
00000000
00000000
00000000
00000000
00000000
00000000
,
01000000
00001000
00011000
00000000
00001010
00000000
00010100
00000000
,
00001001
00000000
00000010
00000100
00001000
00000000
00000010
00010000
00001000
00000000
00010000
00000000
00000100
00000000
00000001
00000000
,
00000100
00000000
00010000
00000000
00011000
00000000
00000000
00000000
01001000
00000000
01000000
00010000
00200000
00000000
00000000
00000000
,
00310000
00000000
00001000
00010000
00002000
00000000
00000000
00000000
00003100
00000000
00000001
00001000
00000020
00000000
00000000
00000000
,
00001030
00000000
00010000
00001000
00020000
00000000
00000000
00000000
01030000
00000000
10000000
00010000
00200000
00000000
00000000
00000000
,
00310000
00000000
00001000
00010000
00001000
00000000
00000100
00001000
00000001
00000000
00000100
00000000
00001000
00000000
00010000
00000000
,
01000000
10000000
00010000
10000000
00200000
00000000
00000000
00000000
00000000
00000000
00000000
00000000
10300000
00010000
01000000
00100000
,
00000000
00000000
01000000
00010000
01000000
00000000
00100000
10000000
00010000
00000000
00100000
00000000
00001000
00010000
00001000
00000000
,
00010000
00100000
00010000
00000000
00012000
00000000
00000000
00000000
01000000
00000000
00000000
00000000
00013000
00000000
00000000
00000000
,
00011000
00000000
00000100
00001000
00000100
00000000
00000010
00000001
00001000
00000000
00000010
00000000
00010000
00001000
00010000
00000000
,
00001000
00000010
00001000
00000000
00011000
00000000
00000000
00000000
00002010
00000000
00000000
00000000
00013000
00000000
00000000
00000000
,
00011000
00000000
00010000
00001000
00020000
00000000
00000000
00000000
01030000
00000000
10000000
00010000
00200000
00000000
00000000
00000000
,
00310000
00000000
00001000
00010000
00002000
00000000
00000000
00000000
00003100
00000000
00000001
00001000
00000020
00000000
00000000
00000000
,
00001030
00000000
00010000
00001000
00010000
00000000
01000000
00010000
10000000
00000000
10000000
00000000
01000000
00000000
00010000
00000000
,
00000100
00001000
00000001
00000010
00000200
00000000
00000000
00000000
00000001
00000000
00000000
00000000
00001000
00000000
00000000
00000000
,
00000310
00000001
00001000
00000010
00000200
00000000
00000000
00000000
00000000
00000000
00000000
00000000
00000000
00000000
00000000
00000000
,
00000001
00002300
00000000
00000000
,
00100000
00023000
00000000
00000000
,
00001000
02030000
00000000
00000000
,
00000000
00000000
13000000
01000000
20000000
00000000
00000000
00000000
00010000
00000000
00000000
00000000
00100000
00000000
00000000
00000000
,
31000000
10020000
01000000
00100000
,
00031000
00000000
00000000
00000000
00001010
00000000
00000000
00000000
00000001
00000000
00000000
00000000
00000010
00000100
00001000
00000001
,
00000100
00000010
00020000
00002000
00000000
00000000
00000000
00000000
00000000
00000000
00000000
00000000
00000000
00000000
00000000
00000000
,
00033000
00000000
00000000
00000000
,
00000000
00000000
00000000
00000000
;
#NOTES:
     dance-double:
     :
     Challenge:
     16:
     :
00000000
00000000
00000000
00000000
,
00000000
00000000
00000000
00000000
,
00000000
00000000
00000000
00000000
,
00000000
00000000
00000000
00000000
,
00000000
00000000
00000000
00000000
,
00001000
00010000
01000000
00100000
10000000
00100000
01000000
00010000
,
00001000
00000100
00000010
00000100
00000001
00000100
00000010
00001000
,
00000001
00000100
00001000
00010000
00001000
00100000
00010000
00100000
,
01000000
10000000
01000000
00100000
00010000
00000000
01100000
00000000
,
10010000
00010000
01000000
10000000
01000000
00100000
00010000
00001000
,
00000000
00000100
00000010
00001000
00000010
00000001
00000010
00001000
,
00000100
00010000
00000100
00000010
00001000
00010000
00100000
01000000
,
00000000
10000000
01000000
00010000
10000000
00100000
00010000
00001000
,
00000010
00000000
00001000
00000000
00000010
00000000
00000100
00000000
00001000
00000000
00000100
00000000
00000010
00000000
00000001
00000100
,
00000001
00000000
00000010
00000000
00000100
00000000
00010000
00000000
00001000
00000000
00100000
00000000
00001000
00000000
00010000
00001000
,
00010000
00000000
00000000
00000000
00000000
00000000
00001000
00000000
00000000
00000000
00000000
00000000
00010000
00000000
00000000
00000000
00000000
00000000
00001000
00000000
00000000
00000000
00000000
00000000
00100000
00000000
00000000
00000000
00000000
00000000
00010000
00000000
00000000
00000000
00000000
00000000
00100000
00000000
00000000
00000000
00000000
00000000
00010000
00000000
00000000
00000000
00000000
00000000
10000000
00000000
00000000
00000000
00000000
00000000
00010000
00000000
00000000
00000000
00000000
00000000
01000000
00000000
00000000
00000000
00000000
00000000
00100000
00000000
00000000
00000000
00000000
00000000
10000000
00000000
00000000
00000000
00000000
00000000
01000000
00000000
00000000
00000000
00000000
00000000
00100000
00000000
00000000
00000000
00000000
00000000
02000000
03000000
00000000
00000000
00000000
00000000
,
10000000
00000000
00000000
00000000
01000000
00000000
00000000
00000000
00010000
00000000
00000000
00000000
00001000
00000000
00000000
00000000
00010000
00000000
00000000
00000000
00000100
00000000
00000000
00000000
00010000
00000000
00000000
00000000
00000000
00000000
00000100
00000000
00000000
00000000
00000000
00000000
00001000
00000000
00000000
00000000
00000000
00000000
00000010
00000000
00000000
00000000
00000000
00000000
00000100
00000000
00000000
00000000
00000000
00000000
00001000
00000000
00000000
00000000
00000000
00000000
00000110
00000000
00000000
00000000
00000000
00000000
00000110
00000000
00000000
00000000
00000000
00000000
00000001
00000000
00000000
00000000
00000000
00000000
00001000
00000000
00000000
00000100
00000000
00000000
00001000
00000000
00000000
00000000
00000000
00000000
00000001
00000000
00000000
00000000
00000000
00000000
,
00000010
00000000
00001000
00000000
00010000
00000000
00001000
00000000
00010000
00000000
01000000
00100000
10000000
00000000
00100000
00000000
00010000
00000000
10000000
00000000
01100000
00000000
01100000
00000000
10000000
00000000
00010000
01000000
00001000
00000000
00010000
00001000
,
00010000
00000000
00001000
00000000
00000010
00000000
00001000
00000000
00010000
00000000
00100000
00000000
00010000
00000000
00001000
00000000
00000010
00000000
00000100
00000000
00000110
00000000
00000110
00000000
00001000
00000000
00000001
00000100
00000001
00000000
00000100
00000000
,
00001000
00000000
00010000
00000000
00100000
00000000
00010000
00000000
00001000
00000000
00100000
00000000
01000000
00000000
00100000
00000000
00001000
00010000
00001000
00000000
00010000
00000100
00010000
00000000
00000010
00000100
00001000
00000100
00000010
00000001
00000010
00000000
,
00001000
00000001
00000100
00000000
00001000
00010000
00001000
00010000
00001000
00100000
00001000
00010000
00001000
00000000
00100000
00000000
,
00010000
00000000
00100000
00000000
01000000
10000000
01000000
10000000
00100000
00000000
00010000
00000000
00001000
00000000
00010000
00000000
,
00000010
00000000
00000100
00000000
00000001
00000100
00000010
00001000
00000010
00001000
00000001
00000100
00000001
00000000
00000100
00000000
,
00001000
00000000
00010000
00000000
00100000
00000000
00010000
00001000
00010000
00000000
00100000
01000000
00100000
10000000
00100000
00000000
,
01100000
00000000
00000000
00000000
00010000
00001000
00010000
00001000
00010000
00000010
00010000
00001000
00010000
00000000
00000010
00000000
,
00001000
00000000
00000010
00000000
00000100
00000001
00000100
00000001
00000010
00000000
00001000
00000000
00010000
00000000
00001000
00000000
,
01000000
00000000
00100000
00000000
10000000
00000000
00100000
00000000
00010000
00000000
00100000
00000000
01000000
00010000
01000000
00100000
,
01000000
00000000
00000000
10000000
00000000
00000000
01000000
00000000
00000000
10000000
00000000
00000000
01000000
00000000
00000000
00000000
00000000
00000000
00100000
00000000
00000000
00010000
00000000
00000000
00001000
00000000
00000000
00000000
00010000
00000000
00000000
00000000
00000100
00000000
00000000
00000000
00001000
00000000
00000000
00000000
00000010
00000000
00000000
00000000
00000100
00000000
00000000
00000000
,
00000001
00000000
00000001
00001000
00000100
00010000
00001000
00010000
,
00000100
00001000
00000010
00010000
00001000
00010000
00100000
10000000
,
00100000
00000000
01000000
00100000
01000000
00000000
00010000
00000000
10000000
00000000
01000000
00000000
10000000
00000000
00100000
00000000
,
01000000
00010000
00100000
00001000
00010000
00000100
00001000
00000001
,
00000100
00000000
00000010
00001000
00000010
00000000
00000100
00000000
00000001
00000000
00001000
00000000
00000100
00000000
00001000
00000000
,
00000010
00000100
00001000
00010000
00001000
00100000
00010000
01000000
,
00010000
00000000
10000000
00000000
00100000
01000000
00010000
00000000
01000000
00001000
00010000
00000000
00001000
00000010
00000100
00000010
,
00000001
00000000
00000000
00000000
00000100
00000000
00000000
00000000
00000010
00000000
00000000
00000000
00002000
00003000
00000000
00000000
00000001
00000000
00000000
00000000
00000000
00000000
00000000
00000000
00001000
00000000
00000000
00000000
00000001
00000000
00000000
00000000
00000100
00000000
00000000
00000000
00000000
00000000
00000000
00000000
00000001
00000000
00000000
00000000
00000000
00000000
00000000
00000000
00000010
00000000
00000000
00000000
00000100
00000000
00000000
00000000
00001000
00000000
00000000
00000000
00000000
00000000
00000000
00000000
,
00000100
00010000
00001000
00000000
00010000
00100000
00000000
00000000
00100000
10000000
00000000
00000000
01000000
00000000
10000000
00000000
,
01000000
00000000
00010000
00000000
00001000
00000000
00010000
00001000
00010000
00000000
00001000
00000000
00000010
00000100
00000001
00000000
,
00000100
00000010
00000100
00000000
00000010
00001000
00000000
00000000
00001000
00100000
00000000
00000000
00010000
01000000
00010000
00000000
,
01000000
00000000
00100000
10000000
00010000
00000000
00100000
00000000
00010000
00000000
01000000
00100000
10000000
00000000
01000000
00000000
,
00010000
00000000
00001000
00010000
00000100
00000000
00001000
00000000
00000010
00000000
00001000
00000100
00000010
00000000
00000001
00000000
,
00000100
00000000
00000010
00001000
00000010
00000000
00010000
00001000
00010000
00000000
00001000
00100000
00001000
00000000
00100000
00001000
,
00010000
00001000
00100000
00010000
01000000
00010000
10000000
01000000
10000000
00100000
01000000
00100000
10000000
00010000
01000000
00100000
,
00000000
00000000
00010000
00001000
00010000
00000000
00001000
00100000
00001000
00000000
00010000
00000000
00100000
01000000
00010000
00000000
,
01000000
00001000
00010000
00000000
00001000
00000010
00000000
00000000
00000010
00000001
00000000
00000000
00000100
00000000
00000001
00000000
,
00000100
00000000
00001000
00000000
00010000
00000000
00001000
00010000
00001000
00000000
00010000
00000000
00100000
01000000
10000000
00000000
,
01000000
00100000
01000000
00000000
00100000
00010000
00000000
00000000
00010000
00000010
00000000
00000000
00001000
00000100
00001000
00000000
,
00000100
00000000
00000010
00000001
00001000
00000000
00000010
00000000
00001000
00000000
00000100
00000010
00000001
00000000
00000100
00000000
,
00001000
00000000
00010000
00001000
01000000
00000000
00010000
00000000
00100000
00000000
00010000
01000000
00100000
00000000
10000000
00000000
,
01000000
00000000
00100000
00010000
00100000
00000000
00001000
00010000
00001000
00000000
00010000
00000010
00010000
00000000
00000010
00010000
,
00001000
00010000
00000010
00001000
00000100
00001000
00000001
00000100
00000001
00000010
00000100
00000010
00000001
00001000
00000100
00010000
,
00001000
00010000
00000000
00000000
00001000
00000000
00010000
00000000
01000000
00000000
00100000
00000000
10000000
00000000
00100000
00000000
,
01000000
00010000
00001000
00000100
00000010
00000100
00000001
00000100
,
00000010
00001000
00000001
00000100
00001000
00010000
00001000
00100000
,
00010000
00000000
00100000
00000000
01000000
00000000
10000000
00000000
01000000
00000000
00100000
00000000
00010000
00000000
00100000
00001000
,
00010000
00001000
00011000
00001000
00000100
00000010
00000001
00000010
,
00000100
00001000
00010000
00100000
01000000
10000000
01000000
00100000
,
10000000
00000000
01000000
00000000
00010000
00001000
00010000
00000000
00001000
00000000
00010000
00000100
00001000
00000100
00001000
00000010
,
00000100
00000001
00000100
00001000
00000000
00000000
00000000
00000000
00000000
00000000
00000000
00000000
00000000
00000000
00000000
00000000
,
00000000
00000000
00000000
00000000
;
