
//----- song ID: inra -----//
#TITLE:invisible rain;
#ARTIST:ときめきアイドル project 月島美奈都;
#ARTISTTRANSLIT:Tokimeki Idol project Tsukishima Minato;
#BANNER:invisible rain.png;
#BACKGROUND:invisible rain-bg.png;
#CDTITLE:./CDTitles/DDR A.png;
#MUSIC:invisible rain.ogg;
#SAMPLESTART:51.34;
#SAMPLELENGTH:15;
#BPMS:0=97,156=90,160=72,162=58;
#NOTES:
     dance-single:
     :
     Beginner:
     2:
     :
0000
0000
0000
0000
,
0000
0000
0000
0000
,
0000
0000
0000
0000
,
1000
0000
0000
0000
,
0001
0000
0000
0000
,
0010
0000
0000
0000
,
0001
0000
0000
0000
,
1000
0000
0000
0000
,
0200
0000
0300
0000
,
0010
0010
0000
0000
,
1000
1000
0000
0000
,
0010
0010
0000
0000
,
0001
0000
1000
0000
,
0010
0010
0000
0000
,
0001
0001
0000
0000
,
0010
0000
0010
0000
,
2000
0000
0000
3000
,
1000
1000
1000
0000
,
0001
0000
1000
0000
,
0001
0001
0001
0000
,
0010
0010
0010
0000
,
1000
0000
0001
0000
,
1000
0100
1000
0000
,
0001
0000
1000
0000
,
0001
0100
0001
0000
,
0010
0000
0000
0000
,
0100
0000
0100
0000
,
1000
0000
0001
0000
,
0200
0000
0000
0300
,
0001
0000
1000
0000
,
0001
0100
0001
0000
,
1000
0000
0001
0000
,
0010
0000
0000
0000
,
0020
0000
0000
0000
,
0130
0000
0000
0000
,
0001
0000
1000
0000
,
0200
0000
0000
0300
,
0001
0000
1000
0000
,
0010
0000
0000
0000
,
0020
0000
0030
0000
,
0020
0000
0030
0000
,
0020
0000
0000
0030
,
0000
0000
0000
0000
;
#NOTES:
     dance-single:
     :
     Easy:
     4:
     :
0000
0000
0000
0000
,
0000
0000
0000
0000
,
0000
0000
0000
0000
,
1000
0100
1000
0000
,
0001
0100
0001
0001
,
0001
0100
0010
0000
,
1000
0001
0010
0010
,
0001
0000
1000
0000
,
0200
0000
0300
0000
,
0010
0001
0000
0000
,
1000
0100
0000
0000
,
1000
0001
0000
0000
,
0001
0100
1000
0000
,
0100
0001
0001
0000
,
0010
1000
1000
0000
,
0010
0001
1000
0001
,
2000
0000
3000
0000
,
0001
0000
1000
0000
,
0001
1000
0100
1000
,
1000
0000
0001
0000
,
0010
0100
1001
0000
,
1000
0001
0001
0100
,
1000
0100
0001
0000
,
0001
1000
1000
0100
,
0001
0100
1000
0000
,
0001
0001
1000
1000
,
0010
1000
0100
0000
,
1000
1000
0001
0001
,
0200
0000
0000
0310
,
1000
0001
0001
0100
,
1000
0100
0001
0000
,
0010
0001
0001
1000
,
0100
0001
0100
0100
,
0020
0000
0000
0000
,
0130
0000
0000
0000
,
0001
1000
0001
0001
,
0200
0000
0000
0310
,
0100
0001
0010
1000
,
0010
0000
0001
0000
,
0002
0000
0000
0003
,
2000
0000
0000
3000
,
0020
0000
0000
0030
,
0000
0000
0000
0000
;
#NOTES:
     dance-single:
     :
     Medium:
     7:
     :
0000
0000
0000
0000
,
0000
0000
0000
0000
,
0000
0000
0000
0000
0000
0000
1000
0100
,
1000
0000
0100
0000
1000
0001
0010
0000
,
0001
0000
0100
0000
1000
0100
0001
0000
,
0001
0000
0100
0000
0010
0100
1000
0000
,
0100
0000
0001
0000
0010
0100
0010
0001
,
1000
0000
0000
0000
0100
0000
0000
0000
0001
0000
0000
0000
0100
0000
0000
2000
,
0000
0000
3000
0000
,
0010
0001
0000
0000
1000
0000
0100
0000
,
1000
0001
0000
0000
1000
0000
1000
0000
,
0010
1000
0000
0000
0001
0000
0100
0000
,
0001
1000
0000
0002
0010
0000
1003
0000
,
0010
1000
0001
0000
0001
1000
0100
0000
,
1000
0001
1000
0000
1000
0010
0001
0000
,
0010
0100
1000
0100
,
0002
0000
0000
0000
0000
0000
0000
0000
0003
0000
0000
0000
0001
1000
0000
0000
,
0001
0000
0000
1000
0000
0000
0001
0000
0000
0000
1000
0000
0001
0000
0010
0000
,
0001
0100
1000
0000
0100
0010
1000
0000
,
1000
0000
0001
1000
0000
0001
1000
0000
0000
0000
0000
0000
0001
0000
0000
0000
,
1000
0001
0010
0001
1000
0100
0000
0000
,
1000
0000
0001
0000
0001
1000
0100
0000
,
1000
0000
0100
0000
0001
0100
1000
0000
,
0010
0000
1000
0000
1000
0100
0001
0000
,
0100
0000
1000
0000
0001
0100
0001
0000
,
0011
0000
1100
0000
0110
0000
0010
0001
,
1000
0000
0001
0000
1000
0100
1000
0000
,
0001
0010
0001
0000
1000
0010
0100
0001
,
0200
0010
0010
0310
,
0001
0000
1000
0000
1000
0001
0100
0000
,
0001
0000
0100
0000
1000
0100
0001
0000
,
0010
0000
0001
0000
0001
0100
1000
0000
,
0100
0000
0001
0000
1000
0100
1000
0000
,
0020
0000
0100
0100
,
0130
0000
0000
0001
0000
1000
0100
1000
,
0001
0000
1000
0000
0001
0010
0001
1000
,
0200
0000
0000
0001
0000
0000
0310
0000
,
0100
1000
0010
0001
,
0010
0100
0001
0000
0001
1000
0001
1000
,
0002
0000
0000
0003
,
2000
0000
0000
3000
,
2002
0000
0000
3003
,
0000
0000
0000
0000
;
#NOTES:
     dance-single:
     :
     Hard:
     11:
     :
0000
0000
0000
0000
,
0000
0000
0000
0000
,
0000
0000
0000
0000
0000
0000
0000
0000
0000
0000
0000
0000
0100
0010
0100
0010
,
1000
0000
0000
0000
0100
0000
0000
1000
0000
0000
0100
0000
0011
0000
0000
0000
,
0001
0000
0000
0000
0100
0000
0000
0001
0000
0010
0100
0000
0010
0000
0001
0000
,
0001
0000
0000
0000
0100
0000
0000
0001
0000
0000
0100
0000
1010
0000
0000
0000
,
1000
0000
0000
0000
0100
0000
0000
1000
0000
0010
0100
0000
0010
0000
1000
0000
,
0001
0000
0010
0000
0001
0000
1000
0000
0100
0000
0010
0000
0001
1000
0000
2002
,
0000
0000
0000
3003
,
0110
0000
0001
0010
0001
0000
1000
0100
1000
0000
0001
1000
0100
0000
1000
0000
,
0001
0000
1000
0000
0001
0000
0010
0000
0000
0001
0010
0000
0001
1000
0000
0000
,
0110
0000
1000
0010
1000
0000
0001
0100
0001
0000
1000
0001
0100
0000
0001
0000
,
0100
0001
1000
0100
1000
0001
1000
0001
,
0110
0000
1000
0010
1000
0000
0001
0100
0001
0000
1000
0001
0100
0000
0100
0000
,
0001
0000
1000
0000
0001
0000
0010
0000
1000
0000
0010
0000
0001
0010
0000
0000
,
0010
0000
0000
0001
0000
0000
1000
0000
0000
0000
0001
0000
0100
0000
0000
0000
,
1002
0000
1000
0000
0000
0000
0003
0000
0000
0000
0000
0000
0001
1000
0000
0000
,
0011
0000
0000
0110
0000
0000
1100
0000
0000
0000
1000
0000
0001
0000
0010
0000
,
0001
0000
1000
0000
0100
0000
0001
0100
1000
0001
0010
0000
0001
0000
0001
0000
,
1000
0000
0100
0001
0000
0100
1000
0000
0000
0000
0000
0000
0001
1000
0000
0100
,
1000
0000
0001
0000
0010
0000
0001
0000
1000
0000
0100
0000
1000
0100
1000
0001
,
0010
0000
0000
1100
0000
0000
1000
0000
0000
0000
0001
0000
1000
0100
0000
0000
,
1000
0000
0000
0001
0000
0000
1000
0000
0000
0000
0100
0000
1000
0100
0000
0000
,
0010
0000
0000
0101
0000
0000
0001
0000
0000
0000
1000
0000
0001
0100
0000
0000
,
0001
0000
0000
1000
0000
0000
0001
0000
0000
0000
0100
0000
0001
0100
0000
0000
,
0001
0000
1000
0010
1000
0000
0100
0010
0100
0000
0010
0001
0010
0000
0001
0000
,
1000
0000
0020
0000
0000
0000
1030
0000
0000
0000
0100
0000
0001
1000
0000
0000
,
1000
0000
0001
0010
0001
0000
0100
1000
0100
0000
0010
0000
0100
0000
0001
0000
,
0200
0000
0000
0000
0001
0000
0000
0000
0010
0000
0000
0000
1300
0100
0010
0001
,
0100
0000
0000
0101
0000
0000
0001
0000
0000
0000
1000
0000
0001
0100
0000
0000
,
0001
0000
0000
1000
0000
0000
0001
0000
0000
0000
0100
0001
0100
0001
0000
0000
,
0010
0000
0000
1100
0000
0000
1000
0000
0000
0000
0001
0000
1000
0100
0000
0000
,
1001
0000
0000
0110
0000
0000
1001
0000
0000
0000
0100
0000
1000
0100
0000
0000
,
0020
0001
0100
1000
,
0130
0000
0000
0000
0000
0000
0001
0000
0000
0000
1000
0000
0100
1000
0000
0000
,
0001
0000
0010
0000
0001
0000
0000
1000
0000
0001
0010
0000
0001
0000
1000
0000
,
0200
0000
0000
0000
0000
0000
0001
0000
0000
0000
0000
0000
0310
0000
0100
0010
,
0100
0000
0000
1000
0001
0000
0000
0001
0010
0000
0000
0010
1000
0000
1000
0000
,
0001
1000
0100
0000
1000
0000
0001
0100
0001
0000
0100
0000
0001
0000
1000
0000
,
0002
0000
0000
0003
,
0200
0000
0000
0300
,
2000
0002
0000
0000
0000
0000
0000
0000
0000
0000
0000
0000
3003
0000
0000
0000
,
0000
0000
0000
0000
;
#NOTES:
     dance-double:
     :
     Easy:
     4:
     :
00000000
00000000
00000000
00000000
,
00000000
00000000
00000000
00000000
,
00000000
00000000
00000000
00000000
,
00001000
00010000
00001000
00000000
,
00000100
00000001
00000001
00000001
,
00000100
00001000
00010000
00000000
,
01000000
00000000
00000000
00000000
,
10000000
00000000
00000000
00000000
,
02000000
00000000
03000000
00000000
,
00010000
00001000
00000000
00000000
,
00000010
00000001
00000000
00000000
,
00000100
00001000
00000000
00000000
,
00010000
01000000
10000000
00000000
,
01000000
00010000
00001000
00000000
,
00000010
00000001
00000001
00000000
,
00000100
00001000
00010000
00001000
,
00020000
00000000
00030000
00000000
,
00010000
01000000
10000000
00000000
,
00010000
10000000
01000000
00010000
,
00001000
00010000
00001000
00000000
,
00000100
00000001
00001001
00000000
,
00001000
00000001
00000001
00000100
,
00001000
00000100
00000001
00000000
,
00000100
00001000
00001000
00010000
,
00010000
01000000
10000000
00000000
,
10000000
01000000
00100000
00001000
,
00010000
00000000
00000100
00000000
,
00001000
00001000
00000001
00000001
,
00000100
00000100
00001000
00010000
,
00100000
00100000
10000000
01000000
,
00010000
01000000
10000000
00000000
,
01000000
00010000
00010000
00001000
,
00001000
00000100
00000010
00000100
,
00000020
00000000
00000000
00000000
00000000
00000000
00000000
00000000
00000000
00000000
00000000
00000000
00000000
00000000
00000000
00000000
00000000
00000000
00000000
00000000
00000000
00000000
00000000
00000000
00000000
00000000
00000000
00000000
00000000
00000000
00000000
00000000
00000000
00000000
00000000
00000000
00000000
00000000
00000000
00000000
00000000
00000000
00000000
00000000
00000000
00000000
00000000
00000000
00000000
00000000
00000000
00000000
00000000
00000000
00000000
00000000
00000000
00000000
00000000
00000000
00000000
00000000
00000000
00000000
00000000
00000000
00000000
00000000
00000000
00000000
00000000
00000000
00000000
00000000
00000000
00000000
00000000
00000000
00000000
00000000
00000000
00000000
00000000
00000000
00000000
00000000
00000000
00000000
00000000
00000000
00000000
00000000
00000000
00000000
00000000
00000000
00000000
00000000
00000000
00000000
00000000
00000000
00000000
00000000
00000000
00000000
00000000
00000000
00000000
00000000
00000000
00000000
00000000
00000000
00000000
00000000
00000000
00000000
00000000
00000000
00000000
00000000
00000000
00000000
00000000
00000000
00000000
00000000
00000000
00000000
00000000
00000000
00000000
00000000
00000000
00000000
00000000
00000000
00000000
00000000
00000000
00000000
00000000
00000030
00000000
00000000
00000000
00000000
00000000
00000000
00000000
00000000
00000000
00000000
00000000
00000000
00000000
00000000
00000000
00000000
00000000
00000000
00000000
00000000
00000000
00000000
00000000
00000000
00000000
00000000
00000000
00000000
00000000
00000000
00000000
00000000
00000000
00000000
00000000
00000000
00000000
00000000
00000000
00000000
00000000
00000000
00000000
00000000
00000000
00000000
00000000
00000000
,
00000100
00000000
00000000
00000000
,
00001000
00010000
00001000
00001000
,
02000000
00000000
00000000
03100000
,
01000000
00010000
00100000
10000000
,
00100000
00000000
00001000
00000000
,
00020000
00000000
00000000
00030000
,
00002000
00000000
00000000
00003000
,
00000020
00000000
00000000
00000030
,
00000000
00000000
00000000
00000000
;
#NOTES:
     dance-double:
     :
     Medium:
     7:
     :
00000000
00000000
00000000
00000000
,
00000000
00000000
00000000
00000000
,
00000000
00000000
00000000
00000000
00000000
00000000
10000000
01000000
,
10000000
00000000
01000000
00000000
10000000
00010000
00100000
00000000
,
00010000
00000000
01000000
00000000
10000000
01000000
00010000
00000000
,
00100000
00000000
00001000
00000000
00010000
00000100
00001000
00000000
,
00000100
00000000
00000001
00000000
00000100
00000010
00000100
00000001
,
00000100
00000000
00000000
00000000
00001000
00000000
00000000
00000000
00010000
00000000
00000000
00000000
00100000
00000000
00000000
20000000
,
00000000
00000000
30000000
00000000
,
00100000
00010000
00000000
00000000
00001000
00000000
00010000
00000000
,
00001000
00000100
00000000
00000000
00000001
00000000
00000001
00000000
,
00000010
00001000
00000000
00000000
00010000
00000000
00001000
00000000
,
00010000
00001000
00000000
00020000
00000000
00000000
00130000
00000000
,
00100000
10000000
00010000
00000000
00010000
10000000
01000000
00000000
,
10000000
00010000
10000000
00000000
10000000
00100000
00010000
00000000
,
00001000
00000100
00000001
00000100
,
00000002
00000000
00000000
00000000
00000000
00000000
00000000
00000000
00000003
00000000
00000000
00000000
00000001
00001000
00000000
00000000
,
00000001
00000000
00000000
00001000
00000000
00000000
00000001
00000000
00000000
00000000
00000000
00000000
00000100
00000000
00000000
00000000
,
00001000
00010000
00100000
00000000
01000000
00100000
10000000
00000000
,
10000000
00000000
00010000
10000000
00000000
00010000
10000000
00000000
00000000
00000000
00000000
00000000
00010000
00000000
00000000
00000000
,
10000000
01000000
00010000
00001000
00010000
00001000
00000000
00000000
,
00000100
00000000
00001001
00000000
00000001
00001000
00000100
00000000
,
00001000
00000000
00000100
00000000
00000001
00000100
00001000
00000000
,
00000010
00000000
00010000
00000000
00001000
00010000
00001000
00000000
,
01000000
00000000
00100000
00000000
10000000
01000000
10000000
00000000
,
01100000
00000000
00010000
00000000
00011000
00000000
00000010
00000100
,
00000010
00000000
00000010
00000000
00000001
00000100
00000001
00000000
,
00000100
00001000
00010000
00000000
00001000
00100000
01000000
10000000
,
02000000
10000000
00100000
13000000
,
01000000
00000000
10010000
00000000
10000000
00010000
01000000
00000000
,
00010000
00000000
01000000
00000000
10000000
01000000
00010000
00000000
,
00100000
00000000
00001000
00000000
00010000
00001000
00010000
00000000
,
00000100
00000010
00000001
00001000
,
00000020
00000000
00000000
00000000
,
00000130
00000000
00000000
00001000
00000000
00010000
00001000
00010000
,
00100000
00000000
10000000
00000000
00010000
00100000
00010000
10000000
,
02000000
00000000
00000000
00010000
00000000
00000000
03100000
00000000
,
01000000
10000000
00100000
00010000
,
00001000
00000100
00000001
00000000
00001000
00000000
00000001
00000000
,
00000200
00000000
00000000
00000300
,
00002000
00000000
00000000
00003000
,
00200000
00000000
00000000
00300000
,
00000000
00000000
00000000
00000000
;
#NOTES:
     dance-double:
     :
     Hard:
     11:
     :
00000000
00000000
00000000
00000000
,
00000000
00000000
00000000
00000000
,
00000000
00000000
00000000
00000000
00000000
00000000
00000000
00000000
00000000
00000000
00000000
00000000
01000000
00100000
01000000
00100000
,
10000000
00000000
00000000
00000000
01000000
00000000
00000000
10000000
00000000
00000000
01000000
00000000
00010000
00000000
00000000
00000000
,
00001000
00000000
00000000
00000000
00000010
00000000
00000000
00000001
00000000
00000010
00000100
00000000
00000010
00000000
00000001
00000000
,
00000100
00000000
00000000
00000000
00001000
00000000
00000000
00010000
00000000
00000000
00100000
00000000
10000000
00000000
00000000
00000000
,
10000000
00000000
00000000
00000000
01000000
00000000
00000000
10000000
00000000
00100000
01000000
00000000
00100000
00000000
10000000
00000000
,
01000000
00000000
00010000
00000000
00001000
00000000
00000010
00000000
00000001
00000000
00000100
00000000
00001000
00000100
00000000
00000002
,
00000000
00000000
00000000
00000003
,
00000010
00000000
00000001
00000010
00000001
00000000
00001000
00000100
00001000
00000000
00000001
00000100
00001000
00000000
00010000
00000000
,
00001000
00000000
00100000
00000000
00010000
00000000
00100000
00000000
00000000
00001000
00100000
00000000
00010000
01000000
00000000
00000000
,
00100000
00000000
10000000
00100000
10000000
00000000
00010000
01000000
00010000
00000000
10000000
01000000
00010000
00000000
00001000
00000000
,
00010000
00001000
00000100
00000010
00001000
00000010
00000100
00001000
,
00010000
00000000
00100000
10000000
00100000
00000000
10000000
00010000
10000000
00000000
10000000
01000000
00010000
00000000
00001000
00000000
,
00000010
00000000
00000100
00000000
00001000
00000000
00000010
00000000
00000001
00000000
00000010
00000000
00001000
00000001
00000000
00000000
,
00000100
00000000
00000000
00001000
00000000
00000000
00010000
00000000
00000000
00000000
00100000
00000000
01000000
00000000
00000000
00000000
,
20020000
00000000
00000000
00000000
00000000
00000000
30030000
00000000
00000000
00000000
00000000
00000000
00010000
10000000
00000000
00000000
,
00110000
00000000
00000000
00011000
00000000
00000000
00000110
00000000
00000000
00000000
00001000
00000000
00000001
00000000
00000010
00000000
,
00000001
00000000
00000100
00000000
00001000
00000000
00000100
00000001
00000100
00000001
00000010
00000000
00000001
00000000
00000100
00000000
,
00001000
00000000
00010000
00001000
00000000
00010000
00100000
00000000
00000000
00000000
00000000
00000000
01000000
00100000
00000000
01000000
,
00100000
00000000
10000000
00000000
01000000
00000000
00010000
00000000
00001000
00000000
00000010
00000000
00001000
00010000
00001000
00010000
,
00100000
00000000
00000000
00010000
00000000
00000000
00001000
00000000
00000010
00000000
00000100
00000000
00000001
00000100
00000000
00000000
,
00001000
00000000
00000000
00000100
00000000
00000000
00010000
00000000
00000000
00000000
00001000
00000000
00010000
00001000
00000000
00000000
,
00010000
00000000
00000000
00100000
00000000
00000000
10000000
00000000
00000000
00000000
10000000
00000000
01000000
00010000
00000000
00000000
,
00010000
00000000
00000000
00001000
00000000
00000000
00000100
00000000
00000000
00000000
00000100
00000000
00000001
00000100
00000000
00000000
,
00000001
00000000
00001000
00000010
00001000
00000000
00000100
00010000
00000100
00000000
00010000
00001000
00010000
00000000
00100000
00000000
,
01000000
00000000
00200000
00000000
00000000
00000000
10300000
00000000
00000000
00000000
01000000
00000000
00010000
00001000
00000000
00000000
,
00100000
00000000
00010000
00100000
00010000
00000000
01000000
00001000
01000000
00000000
00001000
00010000
00001000
00000000
00000010
00000000
,
00000200
00000000
00000000
00000000
00001000
00000000
00000000
00000000
00000010
00000000
00000000
00000000
00000301
00000100
00000010
00001000
,
00010000
00000000
00000000
00001000
00000000
00000000
00010000
00000000
00100000
00000000
01000000
00000000
10000000
01000000
00000000
00000000
,
00010000
00000000
00000000
01000000
00000000
00000000
00001000
00000000
00000000
00000000
00010000
00001000
00010000
00001000
00000000
00000000
,
00001000
00000000
00000000
00000010
00000000
00000000
00000001
00000000
00000000
00000000
00000100
00000000
00001000
00010000
00000000
00000000
,
00010000
00000000
00000000
00100000
00000000
00000000
10010000
00000000
00000000
00000000
01000000
00000000
10000000
01000000
00000000
00000000
,
00200000
00010000
00001000
00010000
,
00301000
00000000
00000000
00000000
00000000
00000000
00000100
00000000
00000000
00000000
00000001
00000000
00000100
00000001
00000000
00000000
,
00001000
00000000
00000010
00000000
00001000
00000000
00000000
00000001
00000000
00000100
00000010
00000000
00010000
00000000
00001000
00000000
,
02000000
00000000
00000000
00000000
00000000
00000000
00010000
00000000
00000000
00000000
00000000
00000000
03100000
00000000
01000000
00100000
,
01000000
00000000
00000000
00010000
00001000
00000000
00000000
00001000
00000010
00000000
00000000
00000010
00000001
00000000
00001000
00000000
,
00000100
00010000
00001000
00000000
00010000
00000000
00100000
00000000
01000000
00000000
00010000
00000000
10000000
00000000
00010000
00000000
,
02000000
00000000
00000000
00000000
00000000
00000000
00000000
00000000
00000000
00000000
00000000
00000000
00000000
03000000
00000000
00000000
,
00200000
00000000
00000000
00300000
,
00002000
00000020
00000000
00000000
00000000
00000000
00000000
00000000
00000000
00000000
00000000
00000000
00003030
00000000
00000000
00000000
,
00000000
00000000
00000000
00000000
;
