
//----- song ID: yoja -----//
#TITLE:ようこそジャパリパークへ;
#ARTIST:どうぶつビスケッツ×PPP;
#TITLETRANSLIT:Youkoso Japari Park e;
#ARTISTTRANSLIT:Doubutsu biscuits×PPP;
#BANNER:Youkoso Japari Park e.png;
#BACKGROUND:Youkoso Japari Park e-bg.png;
#CDTITLE:./CDTitles/DDR A.png;
#MUSIC:Youkoso Japari Park e.ogg;
#SAMPLESTART:39.521;
#SAMPLELENGTH:15;
#BPMS:0=170;
#NOTES:
     dance-single:
     :
     Beginner:
     3:
     :
0000
0000
0000
0000
,
0000
0000
0000
0000
,
0000
0000
0000
0000
,
0001
0000
0000
0000
,
1000
0000
0000
0000
,
0001
0000
0001
0000
,
1000
0000
1000
0000
,
0002
0000
0003
0000
,
2000
0000
3000
0000
,
0020
0000
0030
0000
,
0000
0000
1001
0000
,
1000
0000
0000
0000
,
0010
0000
0000
0000
,
0001
0001
0000
0000
,
1000
1000
0000
0000
,
0001
0000
0000
0000
,
0010
0000
0000
0000
,
1000
1000
0000
0000
,
0000
0000
0000
0000
,
0001
0000
0001
0000
,
0100
0000
0100
0000
,
1000
0000
1000
0000
,
0001
0000
0001
0000
,
2000
0000
3000
0000
,
0020
0000
0030
0000
,
0002
0000
0003
0000
,
2000
0000
3000
0000
,
0000
0000
0000
0000
,
0001
0000
0010
0000
,
0001
0000
0010
0000
,
1000
1000
1000
0000
,
0001
0001
0001
0000
,
1000
0000
0010
0000
,
1000
0000
0010
0000
,
0001
0001
0001
0000
,
1000
1000
1000
0000
,
0001
0000
0000
0000
,
0100
0000
0000
0000
,
1000
0000
0000
0000
,
0010
0000
0000
0000
,
0001
0001
0001
0000
,
1000
1000
1000
0000
,
0010
0010
0010
0000
,
0200
0000
0000
0000
,
0300
0000
0000
0000
,
0000
0000
1001
0000
,
0001
0000
0001
0000
,
1000
0000
1000
0000
,
0010
0010
0010
0000
,
0010
0010
0010
0000
,
1000
0000
1000
0000
,
0001
0000
0001
0000
,
0100
0100
0100
0000
,
0200
0000
0300
0000
,
0001
0001
0001
0000
,
1000
1000
1000
0000
,
0001
0000
1000
0000
,
0001
0000
1000
0000
,
0010
0010
0010
0000
,
0100
0100
0100
0000
,
0010
0000
0100
0000
,
0010
0000
0100
0000
,
0001
0000
1000
0000
,
0001
0000
1001
0000
,
0000
0000
0000
0000
;
#NOTES:
     dance-single:
     :
     Easy:
     6:
     :
0000
0000
0000
0000
,
0000
0000
0000
0000
,
0000
0000
0000
0000
,
0020
0000
0030
0000
,
0200
0000
0300
0000
,
0001
0000
0010
0000
,
1000
0000
0100
0000
,
0001
0100
0001
0000
,
1000
0100
1000
0000
,
0010
0100
0010
0000
,
0002
0000
1003
0000
,
0001
0000
0100
0000
,
1000
0000
0100
0000
,
1000
1000
0010
0000
,
0001
0001
0010
0000
,
1000
0000
0010
0000
,
0001
0000
0100
0000
,
1000
0001
1000
0000
,
0001
0001
1000
1000
,
0001
0000
0100
0000
,
1000
0000
0100
0000
,
0001
0000
0100
0000
,
2000
0000
3000
0000
,
0001
0010
0001
0000
,
1000
0010
1000
0000
,
0001
1000
0001
1000
,
0001
0000
0020
0000
,
0030
0000
0000
0000
,
1000
1000
0010
0000
,
0001
0001
0010
0000
,
1000
1000
0001
0001
,
1000
0001
1000
0000
,
0001
0100
0001
0000
,
1000
0100
1000
0000
,
0001
0001
1000
1000
,
0001
1000
0001
1000
,
0001
0000
0000
0000
,
0010
0000
0100
0000
,
1000
0000
0010
0000
,
0001
0000
1000
0000
,
0001
0001
0100
0000
,
1000
1000
0100
0000
,
0001
0001
0010
0000
,
1000
0000
0001
0000
,
1001
0000
0000
0000
,
0200
0000
0310
0000
,
0001
0100
0001
0000
,
1000
0100
1000
0000
,
0001
0001
1000
1000
,
0001
1000
0001
0000
,
1000
0010
1000
0000
,
0001
0010
0001
0000
,
1000
1000
0001
0001
,
1000
0001
1000
0000
,
0001
0100
0010
0000
,
1000
0100
0010
0000
,
0100
0100
0010
0010
,
0100
0010
0100
0000
,
0001
0010
1000
0000
,
1000
0010
0001
0000
,
0100
0100
0010
0010
,
0100
0010
0100
0000
,
1000
0000
0001
0000
,
1000
0001
1001
0000
,
0000
0000
0000
0000
;
#NOTES:
     dance-single:
     :
     Medium:
     10:
     :
0000
0000
0000
0000
,
0000
0000
0000
0000
,
0000
0000
0000
0000
,
0100
1000
0100
1000
0000
0001
0100
0010
,
0000
1000
0001
1000
0000
0001
0010
0100
,
2000
3100
0002
0103
,
1000
0010
0001
0100
,
1000
0100
1000
0000
0001
0100
0001
0000
,
1000
0010
1000
0000
0001
0010
0001
0000
,
1000
0001
0100
0000
0001
1000
0100
0000
,
0020
0030
1001
0000
,
0010
0000
0001
0100
0010
0000
0000
1000
,
0000
0001
0010
0000
0100
0000
0100
0000
,
1000
0000
1000
0200
0000
0000
0310
0000
,
0001
0000
0001
0200
0000
0000
0310
0000
,
1000
0000
0100
1000
0100
0000
0000
0010
,
0000
0001
1000
0000
0001
0000
0001
0000
,
1000
0010
0100
0020
0000
0000
0130
0000
,
0001
0010
1000
1001
,
0010
1000
0100
0000
0010
0000
0010
0000
,
0001
0100
0010
0000
0100
0000
0100
0000
,
0002
0000
0010
0000
1003
0000
0100
1000
,
0000
0010
0000
0001
0000
0010
0000
2000
,
0000
0000
0000
0100
3100
0000
0010
0000
,
0002
0000
0000
0100
0103
0000
0010
0000
,
1000
0000
0001
0010
0000
1000
0000
0100
,
0000
0001
0100
0010
0000
0100
0010
0100
,
0010
1000
0001
0110
,
1000
0010
0100
0010
0000
1000
0001
0100
,
0000
0001
1000
0100
0000
0010
0001
0000
,
1100
0101
1010
0011
,
1000
0001
0100
0001
2000
0000
3000
0000
,
0001
0010
0100
0010
0000
0001
1000
0100
,
0000
1000
0001
0100
0000
0010
1000
0000
,
0101
1100
0011
1010
,
0002
0010
2003
0010
,
3002
0000
0000
0003
0000
0010
0100
0010
,
0100
1000
0010
0001
,
1000
1100
0001
0101
,
0020
0000
0000
0000
0130
0000
0000
0100
,
0001
0000
1000
0100
0000
0100
0000
0100
,
1000
0000
0001
0100
0000
0100
0000
0100
,
0001
0000
0010
0100
0000
0100
0000
0100
,
0010
0000
0001
0000
,
1000
0010
1000
0000
0001
0100
0001
0000
,
2000
3000
0110
0000
,
0001
0100
0001
0100
0000
0000
0010
0000
,
1000
0100
1000
0100
0000
0000
0010
0000
,
0101
1100
0101
1100
,
0001
1000
0010
1000
0000
0000
0001
0000
,
1000
0010
1000
0020
0000
0000
0130
0000
,
0001
0010
0001
0020
0000
0000
0130
0000
,
1000
1100
0001
0101
,
2000
0000
3000
0001
1000
0000
1000
0000
,
0001
0000
0001
0000
0010
0001
0100
0000
,
1000
0000
1000
0000
0010
1000
0100
0000
,
1001
0110
1001
0110
,
1000
0001
0010
0001
1000
0000
1000
0000
,
0010
0000
0010
0000
0001
0100
0001
0000
,
0010
0000
0010
0000
1000
0100
1000
0000
,
0001
0000
0010
0000
1000
0000
0100
1000
,
0002
0000
0003
1000
0001
0000
0001
0000
,
1000
0000
0010
0000
0001
0000
0100
0010
,
0000
1000
0010
0000
0220
0000
0330
0000
,
0000
0000
0000
0000
;
#NOTES:
     dance-single:
     :
     Hard:
     14:
     :
0000
0000
0000
0000
,
0000
0000
0000
0000
,
0000
0000
0000
0000
,
0010
1000
0001
0010
0000
0001
1000
0100
,
0000
1000
0001
0100
0000
0010
1000
0100
,
0010
1100
0010
0101
,
1010
0011
0101
1100
,
0001
0000
1000
0010
1000
0000
0001
0010
0001
0000
1000
0010
1000
0000
0001
0010
,
0001
0000
1000
0100
1000
0000
0001
0100
0001
0000
1000
0100
1000
0000
0001
0000
,
1000
0000
0001
0010
0001
0000
1000
0010
1000
0000
0001
0010
0001
0000
1000
0000
,
0020
0030
0110
0000
,
0010
0000
0010
0000
1000
0000
0010
0000
0100
0000
0000
0100
0000
0000
0001
0000
,
0000
0000
1000
0000
0100
0000
0001
0000
0100
0000
0000
0100
0000
0000
1000
0000
,
0001
1000
0001
2000
0000
0100
3100
0000
,
1000
0001
1000
0002
0000
0100
0103
0000
,
1000
0000
1000
0000
0010
0000
1000
0000
0001
0000
0000
0001
0000
0000
1000
0000
,
0000
0000
0001
0100
0001
0000
1000
0100
1000
0000
0000
0100
0000
0000
0100
0000
,
0010
0001
0100
0002
0000
0000
0103
0000
,
1010
0100
0011
0100
,
1000
1000
0100
0100
0001
0100
1000
1000
,
0001
0001
0100
0100
0010
1000
0001
0000
,
1000
0000
1000
0100
0010
0000
0010
0011
,
0000
1100
0000
0101
0000
1010
0000
1001
,
0000
0010
0001
0100
1000
0000
0100
0000
,
1000
0100
0001
0010
1000
0000
0001
0000
,
0110
0000
1000
0100
0010
0001
0100
0010
,
0000
0010
0100
0010
1000
0001
0100
0010
,
1000
0001
0010
1100
,
0001
0100
0010
0110
0000
1000
0100
0110
,
0000
0001
1000
1001
0000
0010
1000
0001
,
0100
0000
0001
0100
0001
0000
1000
0100
1000
0000
0001
0100
0001
0000
1000
0100
,
1000
0010
0100
0001
2000
0001
3001
0000
,
1000
0010
0100
0110
0000
0001
0010
0110
,
0000
1000
0001
1001
0000
0100
0001
1000
,
0010
0000
1000
0010
1000
0000
0001
0010
0001
0000
1000
0010
1000
0000
0001
0010
,
0001
0000
1000
0100
1000
0000
0001
0100
0001
0000
1000
0100
1000
0000
0001
0100
,
0002
0000
0000
1003
0000
0100
0010
0001
,
1000
0010
0001
0100
,
1000
0000
0000
1000
0100
0000
0010
0000
0001
0000
0000
0001
0100
0000
0010
0000
,
0200
0000
0000
0000
0300
0000
0010
0100
0010
0000
0000
0000
0100
0000
0010
0000
,
1000
0000
0001
0100
0010
1000
0001
1000
,
0010
0000
1000
0001
0010
0100
1000
0001
,
1000
0000
0100
0010
0001
0100
0010
1000
,
0001
0000
1000
0000
,
0010
0000
0001
0010
0001
0000
0010
0100
0010
0000
0001
0010
0001
0000
0010
0100
,
0020
0030
1001
0000
,
0010
0001
0100
0001
0000
0001
1000
0000
,
0010
1000
0100
1000
0000
1000
0001
0000
,
1000
0000
0001
0010
0001
0000
1000
0010
1000
0000
0001
0010
0001
0000
1000
0010
,
1000
0001
0100
0010
0000
0100
0100
0000
,
0001
0100
1000
0200
0000
0001
0301
0000
,
1000
0100
0001
0200
0000
1000
1300
0000
,
0001
0000
1000
0100
1000
0000
0001
0100
0001
0000
1000
0100
1000
0000
0001
0100
,
0002
0000
1003
0100
0001
0000
0001
0000
,
0100
1000
0100
1000
0001
0100
0001
0100
,
0010
1000
0010
1000
0001
1000
0001
1000
,
0001
0000
1000
0100
1000
0000
0001
0100
0001
0000
1000
0010
1000
0000
0001
0010
,
0001
0010
0100
1000
0001
0000
0001
0000
,
0100
0001
0100
0001
1000
0100
1000
0100
,
0010
0001
0010
0001
1000
0001
1000
0001
,
1000
0000
0001
0100
0001
0000
1000
0100
1000
0000
0001
0010
0001
0000
1000
0010
,
1000
0010
0100
0001
1000
0000
1000
0000
,
1001
0000
0010
0000
1001
0000
0100
0010
,
0000
0001
0100
0000
0220
0000
0330
0000
,
0000
0000
0000
0000
;
#NOTES:
     dance-single:
     :
     Challenge:
     12:
     :
0000
0000
0000
0000
,
0000
0000
0000
0000
,
0000
0000
0000
0000
,
1001
0000
0000
1010
0000
0000
0000
0110
,
0000
0000
0000
0101
0000
0010
1000
0001
,
1000
0100
0001
0100
1000
0010
0001
0010
,
0100
1000
0100
0001
0010
1000
0010
0000
,
0110
0011
0110
1100
,
1000
0001
0010
0100
0010
0001
1000
0000
,
0001
0100
1000
0100
0001
0100
1000
0100
,
0020
0030
1001
0000
,
0011
0000
0000
0000
1001
0000
0000
1010
,
0000
0000
0101
0000
,
1000
0001
0100
0010
1000
0001
0010
0000
,
0100
1000
0001
1000
0100
0010
0001
0000
,
0011
0011
1100
1100
,
0001
0010
0100
1000
0100
0010
0001
0000
,
1000
0100
0001
0100
1000
0100
0001
0100
,
0020
0130
1001
0000
,
1000
0010
0100
0001
0100
0010
1000
0001
,
0010
0100
1000
0001
1000
0100
0010
0000
,
0001
0000
1000
0001
0100
0000
0010
1000
,
0000
1100
0000
0110
0000
0011
0000
1001
,
0000
0000
0000
0001
0100
0000
0000
0000
,
1001
0000
0000
1000
0010
0000
0000
0001
,
1000
0000
0100
0010
0000
0001
0000
0110
,
0000
0001
1000
0010
0000
0000
0000
0000
,
0000
0110
1001
0110
,
0001
0010
0100
1000
0000
0100
0010
0001
,
0000
1000
0001
0100
0000
0010
1000
0001
,
1000
0100
0001
0100
1000
0010
0001
0010
,
1000
0001
0100
0001
1000
0000
0000
0000
,
1000
0010
0100
0001
0000
0100
0010
1000
,
0000
0100
0010
0001
0000
0100
0001
1000
,
0001
0100
1000
0100
0001
0010
1000
0010
,
0100
0001
0100
1000
0010
0001
0010
0000
,
0110
0000
0000
0000
0000
1000
0010
0100
,
0001
0010
0100
1000
,
0100
0000
0000
0010
0000
0000
0001
0000
1000
0000
0000
0010
0000
0000
0100
0000
,
0001
0000
0000
0000
0000
0000
1000
0001
1000
0000
0000
0000
0000
0000
0001
0000
,
0010
0000
0010
0002
0000
1003
0000
0010
,
0100
0000
0100
2000
0000
3100
0000
0001
,
0010
0000
0010
0001
0010
0100
1000
0100
,
0110
0000
1001
0000
,
0110
0000
0000
0000
,
0020
0030
1001
0000
,
1000
0100
0010
0001
0000
0100
0100
0000
,
0001
1000
0010
0100
0000
0001
0001
0000
,
1000
0100
0010
0001
1000
0010
0100
0001
,
1000
0010
1000
0001
0000
0000
0000
0000
,
0001
0100
0010
1000
0000
0100
0100
0000
,
1000
0100
0010
0001
0000
1000
1000
0000
,
0001
0100
0010
1000
0001
1000
0100
0010
,
0001
0000
0000
0010
0100
0000
1001
0000
,
1000
0100
0010
0001
0010
0100
0010
0100
,
1000
0010
0100
0001
0100
0010
0100
0010
,
1000
0010
0100
0001
1000
0100
0010
0001
,
0010
0100
1000
0001
0010
0100
0010
0000
,
0001
0010
0100
1000
0100
0010
0100
0010
,
0001
0100
0010
1000
0010
0100
0010
0100
,
0001
0100
0010
1000
0001
0010
0100
1000
,
0100
0000
0000
0010
0001
0000
1001
0000
,
0101
0000
0000
0000
0110
0000
0000
1001
,
0000
0100
0010
0000
2002
0000
3003
0000
,
0000
0000
0000
0000
;
#NOTES:
     dance-double:
     :
     Easy:
     6:
     :
00000000
00000000
00000000
00000000
,
00000000
00000000
00000000
00000000
,
00000000
00000000
00000000
00000000
,
00100000
00000000
10000000
00000000
,
01000000
00000000
00010000
00000000
,
00001000
00001000
00001000
00000000
,
00010000
00010000
00010000
00000000
,
00000010
00001000
00000100
00000000
,
00000010
00000001
00000100
00000000
,
00001000
00010000
00001000
00000000
,
00010000
00000000
00011000
00000000
,
00001000
00000000
01000000
00000000
,
00010000
00000000
01000000
00000000
,
00100000
00100000
01000000
00000000
,
00010000
00010000
10000000
00000000
,
01000000
00000000
00010000
00000000
,
00001000
00000000
00000010
00000000
,
00000001
00001000
00000001
00000000
,
00000100
00000100
00000010
00000000
,
00010000
00000000
00001000
00000000
,
00100000
00000000
00010000
00000000
,
10000000
00000000
00010000
00000000
,
00200000
00000000
00300000
00000000
,
00010000
00010000
01000000
00000000
,
10000000
10000000
01000000
00000000
,
00010000
00001000
00010000
00001000
,
00010000
00000000
00000020
00000000
,
00000030
00000000
00000000
00000000
,
00000100
00000001
00000010
00000000
,
00000100
00001000
00000010
00000000
,
00010000
00010000
00001000
00001000
,
00010000
00001000
00010000
00000000
,
00001000
01000000
00010000
00000000
,
10000000
01000000
00100000
00000000
,
00010000
00010000
10000000
10000000
,
00010000
10000000
00010000
10000000
,
00010000
00000000
00000000
00000000
,
00100000
00000000
00010000
00000000
,
00001000
00000000
00000100
00000000
,
00000010
00000000
00000001
00000000
,
00000100
00000010
00000100
00000000
,
00000001
00001000
00000001
00000000
,
00000010
00000100
00010000
00000000
,
00001000
00000000
00010000
00000000
,
00011000
00000000
00000000
00000000
,
00100000
00000000
01100000
00000000
,
10000000
01000000
10000000
00000000
,
00010000
01000000
00010000
00000000
,
00001000
00001000
00010000
00010000
,
00001000
00010000
00001000
00000000
,
00000010
00001000
00000010
00000000
,
00000100
00000001
00000100
00000000
,
00000001
00000001
00001000
00001000
,
00000001
00001000
00000001
00000000
,
00000010
00000001
00000100
00000000
,
00000010
00001000
00000100
00000000
,
00010000
00010000
00001000
00001000
,
00010000
00001000
00010000
00000000
,
00100000
00010000
00100000
00000000
,
01000000
10000000
01000000
00000000
,
00010000
00010000
01000000
01000000
,
00010000
01000000
00010000
00000000
,
00100000
00000000
00001000
00000000
,
00010000
00001000
00011000
00000000
,
00000000
00000000
00000000
00000000
;
#NOTES:
     dance-double:
     :
     Medium:
     10:
     :
00000000
00000000
00000000
00000000
,
00000000
00000000
00000000
00000000
,
00000000
00000000
00000000
00000000
,
00001000
00000001
00001000
00000001
00000000
00000010
00000100
00001000
,
00000000
00000010
00010000
00001000
00000000
00100000
00010000
10000000
,
00020000
01030000
20000000
31000000
,
00010000
00001000
00000010
00000001
,
00001000
00000010
00001000
00000000
00000001
00000100
00000001
00000000
,
00000010
00000100
00000010
00000000
00000100
00010000
00001000
00000000
,
00100000
00010000
00100000
00000000
01000000
10000000
01000000
00000000
,
20000000
30000000
10010000
00000000
,
00100000
00000000
10000000
00010000
01000000
00000000
00000000
00100000
,
00000000
10000000
01000000
00000000
00010000
00000000
00010000
00000000
,
00001000
00000000
00000010
00000200
00000000
00000000
00000310
00000000
,
00000001
00000000
00000100
00000020
00000000
00000000
00000130
00000000
,
00001000
00000000
00010000
00001000
00010000
00000000
00000000
00001000
,
00000000
01000000
00010000
00000000
01000000
00000000
01000000
00000000
,
00100000
10000000
01000000
20000000
00000000
00000000
30010000
00000000
,
10000000
01000000
00010000
00001000
,
00020000
00000010
00032000
00000010
,
00023000
00000100
00032000
00000100
,
00013000
00000000
01000000
00000000
10000000
00000000
00100000
01000000
,
00000000
00001000
00000000
00010000
00000000
00000010
00000000
00002000
,
00000000
00000000
00000000
00000010
00003010
00000000
00000001
00000000
,
00000200
00000000
00000000
00000010
00000310
00000000
00000100
00000000
,
00001000
00000000
00010000
00001000
00000000
00010000
00000000
00100000
,
00000000
10000000
00010000
01000000
00000000
00100000
10000000
01000000
,
00100000
01000000
01000000
10010000
,
00100000
10000000
01000000
00010000
00000000
00001000
00010000
00000010
,
00000000
00001000
00000001
00000010
00000000
00000100
00001000
00000000
,
00012000
00000010
00010000
00003010
,
00010000
01000000
10000000
00010000
10000000
00000000
00000000
00000000
,
00100000
00010000
01000000
00100000
00000000
10000000
01000000
00010000
,
00000000
00001000
00010000
00001000
00000000
00000010
00001000
00000000
,
00021000
00100000
00001000
00130000
,
00001000
00000100
00000001
00000010
,
00000100
00000000
00000000
00000000
00000000
00001000
00000001
00001000
,
00000100
00000010
00001000
00010000
,
01000000
11000000
00010000
01010000
,
00200000
00000000
00000000
00000000
01300000
00000000
00000000
10000000
,
01000000
00000000
00010000
00001000
00000000
00001000
00000000
00001000
,
00000010
00000000
00000001
00001000
00000000
00001000
00000000
00001000
,
00000001
00000000
00000100
00000010
00000000
00000010
00000000
00000010
,
00000100
00000000
00001000
00000000
,
00010000
00001000
00100000
00000000
00010000
10000000
00100000
00000000
,
02000000
03000000
10010000
00000000
,
00100000
10000000
01000000
00100000
00000000
00000000
00001000
00000000
,
00010000
00000010
00000100
00000010
00000000
00000000
00010000
00000000
,
00021000
00000010
00032000
00000010
,
00013000
00001000
00010000
00001000
00000000
00000000
00001000
00000000
,
00000010
00000001
00000100
00000010
00000000
00000000
00010000
00000000
,
00001000
00100000
01000000
00100000
00000000
00000000
00001000
00000000
,
00012000
00100000
00023000
00100000
,
00031000
00000000
00000000
00010000
00001000
00000000
00001000
00000000
,
00100000
00000000
00100000
00000000
00010000
01000000
00100000
00000000
,
10000000
00000000
10000000
00000000
01000000
00100000
00010000
00000000
,
00011000
00110000
00011000
00110000
,
00001000
00000010
00000100
00000010
00000001
00000000
00000001
00000000
,
00000100
00000000
00000100
00000000
00000010
00001000
00000010
00000000
,
00010000
00000000
00010000
00000000
00001000
00010000
00001000
00000000
,
00010000
00000000
01000000
00000000
10000000
00000000
00100000
10000000
,
00020000
00000000
00030000
10000000
00010000
00000000
00010000
00000000
,
10000000
00000000
01000000
00000000
00010000
00000000
00001000
00010000
,
00000000
00000010
00001000
00000000
00002002
00000000
00003003
00000000
,
00000000
00000000
00000000
00000000
;
#NOTES:
     dance-double:
     :
     Hard:
     14:
     :
00000000
00000000
00000000
00000000
,
00000000
00000000
00000000
00000000
,
00000000
00000000
00000000
00000000
,
00100000
10000000
01000000
00100000
00000000
00001000
00010000
00100000
,
00000000
00010000
00001000
00000010
00000000
00001000
00010000
00000010
,
00001000
00011000
01010000
00011000
,
00001100
00000101
00000011
00001010
,
00011000
00000000
00100000
00010000
00100000
00000000
00001000
00010000
00001000
00000000
00100000
00010000
00100000
00000000
00001000
00000000
,
00010000
00000000
00000010
00001000
00000010
00000000
00010000
00001000
00010000
00000000
00000010
00001000
00000010
00000000
00010000
00000000
,
00001000
00000000
01000000
00010000
01000000
00000000
00001000
00010000
00001000
00000000
01000000
00010000
01000000
00000000
00001000
00000000
,
00020000
00030000
00011000
00000000
,
00100000
00000000
00010000
00000000
10000000
00000000
01000000
00000000
00100000
00000000
00000000
01000000
00000000
00000000
00100000
00000000
,
00000000
00000000
00001000
00000000
00010000
00000000
00000100
00000000
00001000
00000000
00000000
00000010
00000000
00000000
00000100
00000000
,
00001000
00000100
00000001
00000100
00000000
00001000
00010000
00000000
,
01000000
10000000
00010000
01000000
00000000
00100000
01000000
00000000
,
00010000
00000000
00010000
00000000
10000000
00000000
01000000
00000000
00010000
00000000
00000000
00001000
00000000
00000000
00010000
00000000
,
00000000
00000000
00000010
00001000
00000010
00000000
00010000
00001000
00010000
00000000
00000000
00000100
00000000
00000000
00000010
00000000
,
00000001
00001000
00000001
00000200
00000000
00000000
00000310
00000000
,
00010010
00001000
00110000
01000000
,
00001000
00010000
00100000
00010000
00001000
00010000
00100000
00100000
,
00010000
00001000
00000100
00001000
00010000
00001000
00000100
00000000
,
00000001
00000000
00000010
00000100
00001000
00000000
00000010
00001010
,
00000000
00011000
00000000
00110000
00000000
01100000
00000000
21000000
,
00000000
00000000
30010000
01000000
10000000
00000000
00010000
00000000
,
11000000
00000000
00100000
00001000
00010000
00000000
00000010
00001000
,
00000001
00000000
00000010
00000001
00000100
00000010
00010000
00001000
,
00000000
00001000
00010000
00100000
10000000
00010000
00100000
01000000
,
10000000
00100000
01000000
10010000
,
00100000
00001000
00010000
00011000
00000000
00000100
00001000
00001100
,
00000000
00000001
00000100
00000101
00000000
00000010
00010000
00001000
,
00010000
00000000
00000100
00001000
00000100
00000000
00010000
00001000
00010000
00000000
00000100
00001000
00000100
00000000
00010000
00001000
,
00010000
00001000
00100000
00010000
20000000
00010000
30010000
00000000
,
10000000
01000000
00100000
01100000
00000000
00001000
00010000
00011000
,
00000000
00000010
00000100
00000110
00000000
00010000
00001000
00010000
,
00001000
00000000
01000000
00010000
01000000
00000000
00001000
00010000
00001000
00000000
01000000
00010000
01000000
00000000
00001000
00010000
,
00001000
00000000
00100000
00010000
00100000
00000000
00001000
00010000
00001000
00000000
00100000
00010000
00100000
00000000
00001000
00010000
,
00002000
00000000
00000000
00003100
00000000
00000001
00001000
00000100
,
00000010
00000001
00000100
00001000
,
00010000
00000000
00000000
00100000
00000000
00000000
10000000
00000000
00010000
00000000
00000000
01000000
00000000
00000000
10000000
00000000
,
02000000
00000000
00000000
00000000
03000000
00000000
00100000
01000000
00100000
00000000
00000000
00000000
00000000
00000000
10000000
00000000
,
00010000
00000000
00100000
00010000
00001000
00000100
00000010
00000001
,
00001000
00000000
00000010
00001000
00010000
01000000
00100000
10000000
,
00010000
00000000
00100000
00010000
00001000
00000100
00000010
00000001
,
00002000
00000000
00000002
00003003
,
00001000
00000000
00000010
00001000
00000010
00000000
00010000
00001000
00010000
00000000
00000010
00001000
00000010
00000000
00010000
00001000
,
00020000
00030000
01010000
00000000
,
00100000
10000000
01000000
00010000
00000000
00010000
00001000
00000000
,
00000010
00000001
00000100
00001000
00000000
00001000
00010000
00000000
,
00011000
00000000
00100000
00010000
00100000
00000000
00001000
00010000
00001000
00000000
00100000
00010000
00100000
00000000
00001000
00010000
,
00001000
00010000
00001000
00020000
00000000
00001000
00031000
00000000
,
00000010
00000001
00000100
00001000
00000000
00001000
00010000
00000000
,
00100000
10000000
01000000
00010000
00000000
00010000
00001000
00000000
,
00011000
00000000
00000010
00001000
00000010
00000000
00010000
00001000
00010000
00000000
00000010
00001000
00000010
00000000
00010000
00001000
,
00020000
00000000
00000000
00001000
00031000
00000000
00011000
00000000
,
00102000
00000010
00100000
00003010
,
01020000
00000100
01000000
00030100
,
00010000
00000000
00000010
00001000
00000010
00000000
00010000
00001000
00010000
00000000
00000010
00001000
00000010
00000000
00010000
00001000
,
00010000
00001000
00100000
00010000
10000000
00000000
10000000
00000000
,
01002000
00000100
01000000
00003100
,
00120000
00000010
00100000
00030010
,
00010000
00000000
00000100
00001000
00000100
00000000
00010000
00001000
00010000
00000000
00000100
00001000
00000100
00000000
00010000
00001000
,
00010000
00000010
00001000
00000001
00000100
00000000
00000100
00000000
,
00001010
00000000
00010000
00000000
00101000
00000000
01000000
00100000
,
00000000
00010000
10000000
00000000
02200000
00000000
03300000
00000000
,
00000000
00000000
00000000
00000000
;
#NOTES:
     dance-double:
     :
     Challenge:
     13:
     :
00000000
00000000
00000000
00000000
,
00000000
00000000
00000000
00000000
,
00000000
00000000
00000000
00000000
,
10010000
00000000
00000000
00011000
00000000
00000000
00000000
00001001
,
00000000
00000000
00000000
00011000
00000000
01010000
00110000
00000000
,
00011000
00001100
00001001
00001010
,
00011000
01010000
10010000
00110000
,
00011000
00001100
00011000
00110000
,
00011000
00001010
00011000
01010000
,
00101000
00011000
00010010
00011000
,
02200000
03300000
10010000
00000000
,
10100000
00000000
00000000
00000000
01001000
00000000
00000000
00010100
,
00000000
00000000
00000011
00000000
,
00001001
00011000
10010000
00011000
,
10010000
00011000
00001001
00011000
,
01100000
01100000
10010000
10010000
,
11000000
01010000
00011000
00001010
,
00000101
00000101
00001010
00001010
,
00001001
00000110
00001001
00000000
,
00000011
00000101
00001010
00001100
,
00110000
01010000
10100000
11000000
,
00110000
00000000
01100000
00000000
00110000
00000000
00101000
00010100
,
00000000
00000110
00000000
00001100
00000000
00010100
00000000
00011000
,
00000000
00000000
00000000
00001100
00000110
00000000
00000000
00000000
,
00000101
00000000
00000000
00001001
00001010
00000000
00000000
00000000
,
00000011
00001010
00011000
01010000
,
11000000
10100000
00110000
00011000
,
00001100
00000110
00001001
00000110
,
00000011
00000011
00001100
00001100
,
00001001
00011000
10010000
00011000
,
00010010
00101000
00010100
01001000
,
00011000
01100000
10010000
00000000
,
10100000
10100000
01010000
01010000
,
10010000
00011000
00001001
00011000
,
00101000
00010010
01001000
00010100
,
00001001
00011000
10010000
00011000
,
00000220
00000330
00022000
00033000
,
02200000
03300000
00022000
00033000
,
00110000
00110000
01100000
01100000
,
11000000
01100000
10010000
00000000
,
11000000
11000000
11000000
01010000
,
00011000
00011000
00011000
00001010
,
00000011
00000011
00000011
00000101
,
00001100
00000000
00011000
00000000
,
00110000
00000000
00000000
00000000
,
02200000
03300000
10010000
00000000
,
10010000
00011000
00001001
00011000
,
00001001
00011000
10010000
00011000
,
00001010
00011000
01010000
00011000
,
00001100
00011000
00110000
00011000
,
00001001
00011000
10010000
00011000
,
10010000
00011000
00001001
00011000
,
00101000
00011000
00010010
00011000
,
01001000
00011000
00010100
00000110
,
00000011
00001100
00110000
11000000
,
10100000
01010000
00001010
00000101
,
00001001
00001010
00010010
00011000
,
01001000
01010000
10010000
10100000
,
11000000
00110000
00001100
00000011
,
00000101
00001010
01010000
10100000
,
10010000
10010000
01100000
01100000
,
10010000
00011000
00001001
00011000
,
01100000
00000000
00000000
00000000
00000110
00000000
00000000
00001001
,
00000000
00011000
10010000
00000000
,
00000000
00000000
00000000
00000000
;
