
//----- song ID: iaru -----//
#TITLE:いーあるふぁんくらぶ;
#ARTIST:みきとP;
#TITLETRANSLIT:Yi-er fanclub;
#ARTISTTRANSLIT:MikitoP;
#BANNER:Yi-er fanclub.png;
#BACKGROUND:Yi-er fanclub-bg.png;
#CDTITLE:./CDTitles/jubeat plus.png;
#MUSIC:Yi-er fanclub.ogg;
#SAMPLESTART:66.186;
#SAMPLELENGTH:15;
#DISPLAYBPM:145;
#BPMS:0=144.8,4=145;
#NOTES:
     dance-single:
     :
     Beginner:
     2:
     :
0000
0000
0000
0000
,
0000
0000
0000
0000
,
0000
0000
0000
0000
,
0000
0000
0000
0000
,
0000
0000
0000
0000
,
0000
0000
0000
0000
,
1000
0000
0000
0000
,
0001
0000
0000
0000
,
0010
0000
0000
0000
,
0100
0000
0000
0000
,
2000
0000
3000
0000
,
0002
0000
0003
0000
,
1000
0000
0000
0000
,
0010
0000
0000
0000
,
0100
0000
0000
0000
,
0001
0000
0000
0000
,
0010
0000
0000
0000
,
0100
0000
0100
0000
,
0100
0000
0000
0000
,
0001
0000
0001
0000
,
0001
0000
0000
0000
,
1000
0000
1000
0000
,
1000
0000
0100
0000
,
0010
0000
0000
0000
,
0010
0000
0000
0000
,
0001
0000
0001
0000
,
0001
0000
0000
0000
,
0100
0000
0100
0000
,
0100
0000
0000
0000
,
1000
0000
1000
0000
,
1000
0000
0000
0000
,
0001
0000
0000
0000
,
0100
0000
0000
0000
,
0010
0000
0000
0000
,
1000
0000
0000
0000
,
0001
0000
0000
0000
,
0020
0000
0030
0000
,
0200
0000
0300
0000
,
2000
0000
3000
0000
,
0001
0001
0001
0000
,
0010
0000
0010
0000
,
0100
0000
0100
0000
,
0001
0000
0000
0000
,
1000
0000
0000
0000
,
0001
0000
0001
0000
,
1000
0000
1000
0000
,
0010
0000
0000
0000
,
0100
0000
0000
0000
,
1001
0000
0000
0000
,
1001
0000
0000
0000
,
0001
0000
0100
0000
,
0010
0000
0000
0000
,
1000
0000
0100
0000
,
0010
0000
0000
0000
,
0001
0000
1000
0000
,
0100
0000
0000
0000
,
1000
0000
0001
0000
,
0010
0000
0000
0000
,
0010
0000
0100
0000
,
0010
0000
0000
0000
,
1001
0000
0000
0000
,
0000
0000
0000
0000
;
#NOTES:
     dance-single:
     :
     Easy:
     4:
     :
0000
0000
0000
0000
,
0000
0000
0000
0000
,
0000
0000
0000
0000
,
0000
0000
0000
0000
,
0000
0000
0000
0000
,
0000
0000
0000
0000
,
1000
0000
1000
0000
,
0001
0000
0001
0000
,
0010
0000
0010
0000
,
0100
0000
0100
0000
,
2000
0000
3000
0000
,
0002
0003
0200
0300
,
0010
0010
0010
0000
,
0100
0100
0100
0000
,
0001
0010
0100
0000
,
0100
1000
0010
0000
,
1001
0000
1000
0000
,
0010
0000
0001
0001
,
1000
0000
0001
0000
,
0100
0000
0001
0001
,
0000
0100
0001
0000
,
0001
0000
1000
1000
,
0010
0010
0010
0000
,
0100
0100
0000
0000
,
1000
0001
0010
0000
,
0001
1000
0010
0000
,
0001
0100
0010
0000
,
1000
0100
0010
0000
,
0100
1000
0010
0000
,
0100
0001
0010
0000
,
1000
1000
0001
0001
,
0100
0100
0000
0000
,
0001
0000
0001
0000
,
1000
0000
1000
0000
,
0010
0000
0010
0000
,
0001
0000
0001
0000
,
1000
0000
0001
0000
,
1000
0000
0001
0000
,
0010
0000
0010
0000
,
1000
0001
1001
0000
,
0001
0010
0100
1000
,
0001
0100
0010
0000
,
1000
0000
0001
0000
,
0100
0001
1000
0000
,
0001
0010
0100
1000
,
0001
0100
0010
0000
,
1000
0000
0001
1000
,
1001
0000
0100
0001
,
0010
0000
0100
1000
,
0020
0000
0030
0000
,
0010
0010
0100
0000
,
0001
0001
1000
0000
,
0010
0000
1000
0000
,
0001
0100
0001
0000
,
0010
0010
0001
0000
,
1000
1000
0100
0000
,
0010
0000
0001
0000
,
1000
0100
0010
0000
,
1001
0000
0010
0010
,
1001
0000
0000
0000
,
2002
0000
0000
0000
,
0000
0000
0000
0000
,
0000
3003
0000
0000
,
0000
0000
0000
0000
;
#NOTES:
     dance-single:
     :
     Medium:
     8:
     :
0000
0000
0000
0000
,
0000
0000
0000
0000
,
0000
0000
0000
0000
,
0000
0000
0000
0000
,
0000
0000
0000
0000
,
0000
0000
0000
0000
,
1000
1000
0001
0001
,
0100
0010
1000
0001
,
0010
0010
0100
0100
,
1000
0001
0100
0010
,
2002
0000
0000
3003
,
0020
0100
0200
0330
,
2000
0001
0100
3001
,
0002
0010
2003
0010
,
3200
0010
1000
0310
,
0001
0100
1000
0001
,
0100
0110
1000
0101
,
0001
0000
1000
0000
1000
0010
0100
0000
,
0001
1100
0010
0110
,
1000
0000
0001
0000
0001
0010
0100
0000
,
0000
1000
0001
0000
0100
0000
0110
0000
,
1000
0000
0001
0000
0010
0001
0100
0000
,
0011
0000
1010
0000
0001
0100
0001
0000
,
1000
1000
0001
0001
,
0010
0100
1000
0000
0010
0000
0010
0000
,
1000
0001
1100
0101
,
0010
0100
0001
0000
0010
0000
0010
0000
,
0001
0000
1000
0000
0100
0100
0100
0000
,
0000
0010
0001
0000
1000
0100
1000
0000
,
0010
0000
0010
0000
0100
0001
0100
0000
,
0010
1000
1000
0000
0001
0001
0100
0000
,
0001
0010
0100
0000
1100
0000
1100
0000
,
0020
0130
0001
0020
,
0130
1000
0001
0001
,
2000
3001
0100
0002
,
1003
0010
0100
0100
,
0002
0103
1000
2000
,
3100
0001
0220
0330
,
0001
1000
0001
0100
0001
1000
0001
0000
,
0010
0100
2002
3003
,
0001
0000
0101
0000
0010
1000
0100
0000
,
1000
0000
1100
0000
0010
0001
0100
0000
,
0010
0100
0001
1000
,
0001
0010
0100
0010
0001
0000
1001
0000
,
1000
0000
0110
0000
0001
1000
0100
0000
,
0001
0000
0110
0000
1000
0001
0100
0000
,
0020
0030
0100
0010
,
2002
0000
3003
0000
0010
0100
0010
0000
,
0202
0303
1000
0001
,
0120
0100
0100
0130
,
0001
0000
1000
0000
0010
1000
0100
0000
,
1000
0001
0100
0000
0001
0100
0001
0000
,
0010
0100
1100
0011
,
1000
0100
0010
0100
1000
0000
0001
0000
,
0100
0000
0010
0000
1000
0010
0100
0000
,
0001
1000
0010
0000
1000
0100
0001
0000
,
0100
0010
0001
1000
,
0001
0100
0010
1000
0001
0000
0010
0000
,
2002
0000
3003
0000
0010
0100
0010
0000
,
0220
0000
0000
0330
,
2002
0000
0000
0000
,
0000
0000
0000
0000
,
0000
3003
0000
0000
,
0000
0000
0000
0000
;
#NOTES:
     dance-single:
     :
     Hard:
     12:
     :
0000
0000
0000
0000
,
0000
0000
0000
0000
,
0000
0000
0000
0000
,
0000
0000
0000
0000
,
0000
0000
0000
0000
,
0000
0000
0000
0000
,
1000
0100
1000
0001
,
0010
0000
0001
0000
1000
0010
0100
0001
,
1000
0010
1000
0001
,
0100
0000
0001
0000
1000
0100
0010
0001
,
2000
0100
0001
0010
,
3002
0010
2003
3010
,
0100
0001
1000
0000
0100
0010
0002
0000
,
1003
0001
0100
0000
0001
0100
0020
0000
,
0130
0001
0010
0000
0100
1000
0020
0000
,
0130
0000
0001
0000
1000
0000
0000
0010
0000
0000
0100
0000
0001
0000
0010
0000
,
0100
0000
1000
0000
0100
0000
0000
0000
1000
0000
0000
0001
0100
0000
0001
0000
,
0010
0100
1000
0000
0010
0100
0001
0100
,
0001
0000
0010
0000
0100
0000
0000
0000
1000
0000
0000
0010
1000
0000
0010
0000
,
0100
0001
0010
0100
1000
0010
0100
0000
,
0000
0000
0001
0100
0001
0000
0000
0000
1000
0000
0000
0100
1000
0000
0010
0000
,
0100
0001
1000
0100
0010
0001
0100
0010
,
1000
1000
0001
0001
0100
0100
0010
0010
,
0100
0002
2000
0000
3003
0000
0110
0000
,
1000
0100
2000
0000
3001
1000
0010
0100
,
0001
0100
1000
0000
0100
0010
1000
0001
,
0100
0000
0001
0000
0020
0000
0000
0000
0130
0000
0000
1000
0100
0000
0010
0000
,
0001
0000
0001
0100
0000
0000
1000
0000
0100
0000
0001
0000
0010
0000
0000
0000
,
0100
0000
1000
0001
1000
0000
0000
0000
0010
0000
0000
0100
0001
0000
1000
0000
,
0100
1000
0001
0010
1000
0010
0001
0100
,
0010
0010
0010
1000
0100
0010
0001
0100
,
0001
1000
0100
0000
0010
0010
0002
0000
,
1003
0100
0010
0100
1000
0000
0001
0100
,
0010
0100
0001
0000
1100
0000
0101
0000
,
0001
0010
0100
0010
0001
0000
1000
0010
,
0100
0010
1000
0000
0011
0000
1010
0000
,
0001
0100
1000
0100
0001
0000
1000
0010
,
0001
0010
1000
0000
0011
0000
1100
0000
,
0001
0010
0001
0100
0010
1000
0100
0010
,
0001
0110
1001
0020
,
0130
0001
0010
1000
0010
0001
0100
0000
,
0010
1000
0100
0001
0100
1000
0010
0000
,
2000
3200
0320
0032
,
1003
0010
0100
0001
2000
0100
3100
0000
,
0001
0100
1000
0100
0010
1000
0100
0000
,
1000
0010
0001
0010
0100
0001
0020
0000
,
0230
0000
1300
0000
1000
0100
0010
0001
,
0200
0000
1300
0000
1000
0100
0001
0020
,
0200
0000
0330
0000
0001
0010
0100
1000
,
0001
0100
0001
0000
1000
0000
0010
0000
0100
0000
0000
0000
0101
0000
0000
0000
,
0001
0000
0000
0100
0010
0000
1000
0000
0001
0000
0001
0000
0100
0000
0000
0000
,
0010
0000
0000
1000
0001
0000
0010
0000
0100
0000
0100
0000
1000
0000
0000
0000
,
0010
0100
0002
0000
0013
0100
2000
0000
,
3001
0100
0001
1000
0020
0000
0130
0000
,
0001
0000
0000
1000
0100
0000
1000
0000
0010
0000
0010
0000
0100
0000
0000
0000
,
0001
0000
0000
0010
0100
0000
1000
0000
0100
0000
0100
0000
0010
0000
0000
0000
,
0001
0100
0020
0000
1030
0100
0020
0000
,
0031
0100
1000
0100
0010
1000
0100
0001
,
2000
0000
3001
0000
0100
1000
0010
0000
,
1000
0001
1000
0001
1000
0000
0010
0100
0010
0100
0010
0000
0000
0000
0000
0000
,
2002
0000
0000
0000
,
0000
0000
0000
3003
,
0000
0000
0010
0100
0010
0000
0000
0000
0000
0000
0000
0000
0000
0000
0000
0000
,
0000
0000
0000
0000
;
#NOTES:
     dance-double:
     :
     Easy:
     5:
     :
00000000
00000000
00000000
00000000
,
00000000
00000000
00000000
00000000
,
00000000
00000000
00000000
00000000
,
00000000
00000000
00000000
00000000
,
00000000
00000000
00000000
00000000
,
00000000
00000000
00000000
00000000
,
10000000
00100000
10000000
00100000
,
01000000
00010000
01000000
00000000
,
00001000
00010000
00001000
00010000
,
00000100
00001000
00000100
00000000
,
00000020
00000000
00000030
00000000
,
00000002
00000000
00001003
00000000
,
00000010
00000100
00000010
00001000
,
00000010
00000100
00000010
00000000
,
00000100
00010000
00001000
00010000
,
00000100
00010000
00001000
00000000
,
00001000
00000000
00100000
00000000
,
01000000
00000000
10000000
00010000
,
01000000
00000000
00100000
00000000
,
01000000
00000000
00001000
00000000
,
00010000
00000100
00001000
00000000
,
00000010
00000000
00000100
00000001
,
00001000
00001000
00000010
00000010
,
00000100
00000110
00000000
00000000
,
00000001
00000100
00000000
00000100
,
00000010
00001000
00000100
00000100
,
00010000
00001000
00000000
00001000
,
00100000
00010000
01000000
01000000
,
00000000
00100000
00000000
01000000
,
00010000
10000000
01000000
01000000
,
00100000
00100000
00010000
00010000
,
10000000
10010000
00000000
00000000
,
10000000
10000000
01000000
00000000
,
00100000
00000000
00001000
00001000
,
00010000
00010000
00000100
00000000
,
00000010
00000000
00000001
00001000
,
00000010
00000010
00000100
00000000
,
00001000
00000000
00010000
00000000
,
00001000
00100000
00010000
00000000
,
01000000
00100000
10010000
00000000
,
10000000
10000000
00100000
00100000
,
01000000
00100000
10000000
00000000
,
20000000
30000000
00020000
00030000
,
01000000
00001000
00010000
00000000
,
00000100
00000100
00000010
00000010
,
00000001
00000100
00001000
00010000
,
00001000
00000000
00100000
01000000
,
00100000
00000000
00010000
10000000
,
00200000
00300000
01000000
00100000
,
10010000
00000000
00000000
00000000
,
01000000
00001000
01000000
00000000
,
00010000
00000100
00010000
00000000
,
00000200
00000300
00000020
00000030
,
00000001
00000100
00000001
00000000
,
00000010
00010000
00000010
00000000
,
00001000
00100000
00001000
00000000
,
00200000
00300000
02000000
03000000
,
10000000
00000000
00100000
01000000
,
10010000
00000000
01000000
00100000
,
00020000
00000000
00030000
00000000
,
00022000
00000000
00000000
00000000
,
00000000
00000000
00000000
00000000
,
00000000
00033000
00000000
00000000
,
00000000
00000000
00000000
00000000
;
#NOTES:
     dance-double:
     :
     Medium:
     9:
     :
00000000
00000000
00000000
00000000
,
00000000
00000000
00000000
00000000
,
00000000
00000000
00000000
00000000
,
00000000
00000000
00000000
00000000
,
00000000
00000000
00000000
00000000
,
00000000
00000000
00000000
00000000
,
00010000
01000000
00010000
01000000
,
00001000
00010000
00001000
00001100
,
00000001
00000100
00000001
00000100
,
00000010
00010000
00001000
00011000
,
00020000
00000000
10030000
00000000
,
20000000
00000000
30020000
00000000
,
10030000
00000000
01000000
00000000
00010000
00000000
00001000
00000100
,
00000010
00001000
00001001
00000000
,
00000001
00000000
00000100
00000000
00001000
00000000
00010000
01000000
,
00100000
00010000
10010000
00000000
,
00010000
01000000
00001000
00000000
00010000
00000000
00010000
00000000
,
00001000
00010000
00000010
00000000
00000100
00000000
00000100
00000000
,
00000001
00001000
00000010
00000000
00000100
00000000
00000100
00000000
,
00001000
00010000
00000010
00000000
00000100
00000000
00001000
00000000
,
00000000
00010000
01000000
00000000
10000000
00000000
10000000
00000000
,
00100000
01000000
00010000
00000000
00100000
00000000
00001000
00000000
,
00010000
00001000
00010000
00001000
00010000
00000000
00000010
00000000
,
00000200
00000020
00000000
00000330
,
00000001
00000100
00000010
00000000
00010000
00000000
00001000
00000000
,
00010000
01000000
11000000
01010000
,
10000000
01000000
00100000
00000000
00001000
00000000
00010000
00000000
,
00001000
00000100
00000101
00001100
,
00000000
00001000
00010000
00000000
00100000
00000000
10000000
00000000
,
01000000
00100000
10010000
01010000
,
10000000
00100000
10000000
00100000
10000000
00000000
01000000
00000000
,
00100000
00001000
00010000
00000000
00001010
00000000
00001010
00000000
,
00000001
00000001
00000110
00001000
,
00010000
00110000
01000000
01000000
,
10000000
10000000
01100000
00010000
,
00001000
00001010
00000100
00000100
,
00000001
00000100
00010100
00001000
,
00010000
01100000
10010000
00000000
,
00100000
01000000
00100000
01000000
00010000
01000000
00010000
01000000
,
00001000
00100000
00011000
00000000
,
00001000
00000100
00000001
00000000
00000101
00000000
00000010
00000000
,
00000100
00001000
00010000
00000000
00101000
00000000
00010000
00000000
,
00100000
11000000
01010000
00101000
,
00010000
00001000
00010000
00001000
00000100
00000000
00000010
00000000
,
00000001
00000100
00001000
00000000
00011000
00000000
00100000
00000000
,
01000000
10000000
00010000
00000000
01100000
00000000
00001000
00000000
,
00101000
00000000
00000000
00000000
00010000
00000100
00001000
00000010
,
00001000
00000000
00000101
00010100
,
00011000
00000000
00000000
00000000
00010000
01000000
00001000
00100000
,
00002000
00023000
00230000
10300000
,
10000000
00000000
00100000
00000000
01000000
00100000
00010000
00000000
,
00100000
10000000
01000000
00000000
00010000
00000000
00001000
00000000
,
00010010
00001100
00000110
00001001
,
00000010
00000100
00001000
00000100
00000010
00000000
00000000
00000000
,
00000001
00000000
00000100
00000000
00000010
00000100
00001000
00000000
,
00000100
00000001
00000010
00000000
00001000
00000000
00010000
00000000
,
00101000
01010000
01100000
10010000
,
00100000
01000000
10000000
01000000
00100000
00000000
00000000
00000000
,
01100000
00000000
00010000
00001000
,
00000220
00000000
00000000
00000330
,
00002002
00000000
00000000
00000000
,
00000000
00000000
00000000
00000000
,
00000000
00003003
00000000
00000000
,
00000000
00000000
00000000
00000000
;
#NOTES:
     dance-double:
     :
     Hard:
     12:
     :
00000000
00000000
00000000
00000000
,
00000000
00000000
00000000
00000000
,
00000000
00000000
00000000
00000000
,
00000000
00000000
00000000
00000000
,
00000000
00000000
00000000
00000000
,
00000000
00000000
00000000
00000000
,
00010000
00000000
00100000
00001000
00100000
00000000
00001000
00010000
,
00000100
00000000
00001000
00000001
00001000
00000000
00000010
00000000
,
00010000
00000000
00001000
00100000
00001000
00000000
01000000
00001000
,
00010000
00000000
01000000
00100000
01000000
00000000
10000000
00000000
,
00020000
00000000
00000000
00000000
,
00230000
00000000
00302000
00013000
,
00000200
00000000
00001000
00000000
00010000
00000000
00001300
00000010
,
00000200
00000000
00010000
00000000
00002300
00000000
00013000
01000000
,
00200000
00000000
00010000
00000000
00001000
00000000
00310000
01000000
,
00200000
00000000
00001000
00000000
00320000
00000000
00031000
00000010
,
00000001
00000000
00000100
00000000
00001000
00000000
00000000
00000000
00000100
00000000
00000000
00000010
00000000
00000000
00010000
00000000
,
00001000
00010000
01000000
00000000
00100000
00001000
00010000
01000000
,
10000000
00000000
00100000
00000000
00010000
00000000
00000000
00000000
00100000
00000000
00000000
01000000
00000000
00000000
00001000
00000000
,
00010000
00001000
00000010
00000100
00001000
00000010
00000100
00000000
,
00000000
00000000
00001000
00000000
00010000
00000000
00000000
00000000
01000000
00000000
00000000
10000000
00000000
00000000
00010000
00000000
,
01000000
00001000
00010000
00001000
00000100
00000010
00000100
00000001
,
00000020
00000000
00000230
00000000
00001300
00000100
00000010
00001000
,
00000010
00000001
00001000
00000000
00000100
00010000
00011000
00000000
,
00001000
00000000
00010000
00000000
02000000
00000000
00000000
00000000
03010000
00000000
00000000
01000000
00000000
00000000
00100000
00000000
,
00001000
00010000
00001000
00000000
00010000
01000000
00100000
00001000
,
00010000
00000000
00001000
00000000
00000200
00000000
00000000
00000000
00000301
00000000
00000000
00000100
00000000
00000000
00000010
00000000
,
00010000
00001000
00010000
00001000
01000000
00100000
00010000
00000000
,
00000000
00000000
00001000
00000000
00000020
00000000
00000000
00000000
00000031
00000000
00000000
00000010
00000000
00000000
00000100
00000000
,
00010000
00001000
00000100
00001000
00010000
01000000
00100000
00001000
,
00020000
00000000
00230000
00000000
01300000
00010000
10000000
01000000
,
00100000
00001000
00010000
00000000
00001010
00000000
00011000
00000000
,
00001000
01000000
00100000
00010000
00002000
00000000
00013000
00000100
,
00000010
00001000
00020000
00000000
00031000
00000000
00011000
00000000
,
00010000
01000000
10000000
00100000
00020000
00000000
00031000
00000100
,
00000001
00000010
00002000
00000000
00013000
00000000
00011000
00000000
,
00010000
10000000
00100000
01000000
00020000
00000000
00031000
00000001
,
00000010
00000100
00002000
00000000
00013000
00000000
00011000
00000000
,
00010000
01000000
10000000
00100000
00010000
00001000
00000100
00000001
,
00000010
00001000
00021000
01030000
,
01000000
00100000
00001000
00010000
00001000
00000100
00000010
00000000
,
00000010
00000100
00010000
00001000
00010000
01000000
00100000
00000000
,
20000000
30020000
00032000
00003002
,
00000013
00000100
00010000
00001000
00000010
00000100
00010000
00000000
,
00001000
01000000
00010000
00100000
10000000
00010000
00001000
00000000
,
00010000
00000100
00001000
00000010
00000001
00001000
00010000
00000000
,
00200000
00000000
10300000
00000000
01000000
00010000
00001000
00000100
,
00000002
00000000
00000013
00000000
00000100
00000010
00001000
00000000
,
00022000
00000000
00033000
00000000
00010000
01000000
10000000
00000000
,
00100000
01000000
00001000
00010000
01000000
00100000
00010000
10000000
,
00200000
00000000
00000000
00320000
00000000
00000000
00031000
00000000
00000100
00000000
00000010
00000000
00000100
00000000
00000000
00000000
,
00000002
00000000
00000000
00000023
00000000
00000000
00001030
00000000
00010000
00000000
00100000
00000000
01000000
00000000
00000000
00000000
,
00010000
10000000
00200000
00000000
00310000
00001000
00000020
00000000
,
00000031
00000100
00010000
00001000
00000020
00000000
00000130
00000000
,
00000200
00000000
00000000
00002300
00000000
00000000
00013000
00000000
00100000
00000000
01000000
00000000
00100000
00000000
00000000
00000000
,
20000000
00000000
00000000
32000000
00000000
00000000
03010000
00000000
00001000
00000000
00000100
00000000
00000010
00000000
00000000
00000000
,
00001000
00000001
00000200
00000000
00001300
00010000
02000000
00000000
,
03010000
10000000
00100000
00010000
00001000
00000100
00002000
00000000
,
00000002
00000000
00003003
00000000
00000001
00000100
00001000
00010000
,
02000000
10000000
13000000
00100000
00010000
00001000
00000000
00000000
,
00002002
00000000
00000000
00000000
,
00000000
00000000
00000000
00003003
,
00000000
00001000
00010000
00000000
00000000
00000000
00000000
00000000
,
00000000
00000000
00000000
00000000
;
