
//----- song ID: wake -----//
#TITLE:Wake Me Up;
#ARTIST:Avicii;
#BANNER:Wake Me Up.png;
#BACKGROUND:Wake Me Up-bg.png;
#CDTITLE:./CDTitles/DDR A.png;
#MUSIC:Wake Me Up.ogg;
#SAMPLESTART:102.591;
#SAMPLELENGTH:12;
#DISPLAYBPM:124;
#BPMS:0=123,4=124,116=129,117=124;
#NOTES:
     dance-single:
     :
     Beginner:
     3:
     :
0000
0000
0000
0000
,
0000
0000
0000
0000
,
0000
0000
0000
0000
,
0000
0000
0000
0000
,
0000
0000
0000
0000
,
1000
0000
0001
0000
,
1000
0000
0000
0000
,
1000
0000
0001
0000
,
0010
0000
0000
0000
,
1000
0000
0001
0000
,
1000
0000
0000
0000
,
1000
0000
0010
0000
,
0001
0000
0000
0000
,
1000
0000
0001
0000
,
1000
0000
0001
0000
,
1000
0000
0001
0000
,
0010
0000
0001
0000
,
1000
0000
0001
0000
,
0010
0000
0100
0000
,
1000
0000
0010
0000
,
0100
0000
0000
0000
,
1000
1000
1000
0000
,
1000
0000
0000
0000
,
0001
0001
0001
0000
,
0001
0000
0000
0000
,
1000
1000
1000
0000
,
0001
0000
1000
0000
,
0010
0010
0010
0000
,
0002
0003
0000
0000
,
1000
1000
1000
0000
,
0010
0000
1000
0000
,
0001
0001
0001
0000
,
0010
0000
0001
0000
,
0010
0010
0010
0000
,
0100
0000
0010
0000
,
1000
0000
0100
0000
,
0020
0030
0000
0000
,
1000
1000
0001
0000
,
0001
0000
0000
0000
,
0001
0001
1000
0000
,
1000
0000
0000
0000
,
0110
0000
0110
0000
,
0110
0000
0000
0000
,
1000
0000
0010
0010
,
0020
0000
0030
0000
,
1000
0000
0001
0000
,
2000
3000
0000
0000
,
1000
0000
0100
0000
,
2000
3000
0000
0000
,
0001
0000
0100
0000
,
0002
0003
0000
0000
,
0020
0000
0000
0000
,
0000
0000
0030
0000
,
1000
0000
1000
0000
,
0010
0000
0010
0000
,
0001
0001
0001
0000
,
1000
1000
1000
0000
,
0100
0100
0100
0000
,
0010
0010
0010
0000
,
0001
0000
0000
0000
,
0000
0000
0000
0000
;
#NOTES:
     dance-single:
     :
     Easy:
     5:
     :
0000
0000
0000
0000
,
0000
0000
0000
0000
,
0000
0000
0000
0000
,
0000
0000
0000
0000
,
0000
0000
0000
0000
,
0010
0000
0001
0000
,
1000
0001
1000
0000
,
0010
0000
1000
0000
,
0001
0000
0001
0000
,
0010
0000
0100
0000
,
1000
0001
1000
0000
,
0010
0000
0100
0001
,
0200
0000
0300
0000
,
0010
0000
1000
0000
,
1000
0010
0100
0000
,
0001
0000
0010
0000
,
0010
0001
0100
0000
,
0010
0000
0100
0000
,
0001
0010
0001
1000
,
0001
0000
0010
0001
,
2000
0000
3000
0000
,
1000
0100
0010
0010
,
0100
0000
0000
1000
,
0001
1000
0001
0001
,
0010
0000
0000
0001
,
0010
0100
1000
1000
,
0100
0000
1000
0000
,
0001
0010
0001
0001
,
0100
0000
0000
0001
,
0010
0001
1000
0001
,
0010
0000
0000
0001
,
1000
0010
1000
0001
,
0100
0000
0000
0010
,
0100
0010
1000
0100
,
1000
0000
0001
0010
,
0100
0000
1000
0010
,
0200
0000
0300
0000
,
1001
1001
1001
0000
,
0010
0000
0000
0100
,
0010
1000
0001
1000
,
1001
0000
0000
0001
,
1001
0000
0110
0000
,
0001
0010
0001
1000
,
0001
0000
0010
0100
,
0020
0000
0030
0000
,
0001
1000
0010
1000
,
0010
0000
0000
0000
,
1000
0001
0100
0001
,
0010
0000
0000
0000
,
0001
1000
0100
1000
,
0100
0000
0000
0000
,
0010
1000
1000
0100
,
0100
0010
0010
0000
,
0001
0100
0010
0100
,
0001
0001
1000
0000
,
0010
0100
0010
1000
,
0001
0001
1000
0001
,
1000
0100
1000
0100
,
0010
0001
0010
0001
,
1000
0000
0000
0000
,
0000
0000
0000
0000
;
#NOTES:
     dance-single:
     :
     Medium:
     9:
     :
0000
0000
0000
0000
,
0000
0000
0000
0000
,
0000
0000
0000
0000
,
0000
0000
0000
0000
,
0000
0000
0000
0000
,
0001
0010
0000
0001
1000
0000
0010
0000
,
1000
0010
0100
0001
,
1000
0010
0000
1000
0001
0000
0010
0000
,
0100
1000
0001
0100
,
0010
1000
0000
0001
0100
0000
0010
0000
,
1000
0001
0100
0001
,
0010
0001
0000
1000
0001
0000
0010
0000
,
0001
0001
0100
0000
,
0001
0010
0000
0001
1000
0000
0010
0000
,
1000
0010
0000
0100
0001
0000
0010
0000
,
0100
0010
0000
0001
1000
0000
0010
0000
,
0100
0001
0000
1000
0100
0000
1000
0000
,
0010
1000
0000
0001
0100
0000
0010
0000
,
1000
0001
0000
1000
0100
0000
0010
0000
,
0001
0100
0000
0010
1000
0000
0010
0000
,
1000
0001
0000
0010
0100
0000
0000
0000
,
1001
1100
0101
0011
,
1000
0100
0000
0010
0100
0000
0010
0001
,
1000
1010
0101
1010
,
1000
0001
0000
0010
0001
0000
0010
0100
,
1000
0000
0001
0100
0001
0000
1000
0010
,
1000
0001
0000
0010
0001
0000
1000
0100
,
1000
1001
0100
1001
,
0001
0100
0000
0010
0100
0001
0010
0100
,
1000
0000
0101
0000
0010
0000
1000
0001
,
1000
0100
0000
0001
0100
0000
0010
0100
,
0001
0000
1100
0000
0001
0000
1000
0001
,
1000
0100
0000
0010
0001
0000
1000
0001
,
0100
0000
0100
0010
0100
0000
0001
0100
,
0001
1000
0000
0100
0010
0001
1000
0100
,
1000
0000
0010
0000
0100
0000
0001
0100
,
0002
0000
0000
0000
0003
0100
0010
0100
,
0001
0000
0011
0000
1010
0000
1000
0001
,
1000
0100
0000
0010
0100
0000
1000
0100
,
1000
0000
1010
0000
0011
0000
0001
0100
,
0001
1000
0000
0010
0100
0001
0010
0001
,
0100
0000
1000
0100
1000
0000
0001
0100
,
0001
1000
0000
0001
0010
0001
0010
0100
,
1000
0000
1010
0000
1100
0000
0001
0100
,
0002
0000
0100
0000
0103
0000
0010
1000
,
0100
0001
1100
0001
,
1000
0000
0100
0001
0010
0000
0001
1000
,
0100
0000
1000
0000
0101
0000
0010
1000
,
0010
0000
0010
1000
0100
0000
0001
1000
,
0100
0000
0010
0000
0011
0000
0001
0100
,
0010
0000
1000
0000
0010
0000
0100
0001
,
0010
0001
0011
0100
,
1100
0000
0010
0000
0110
0000
0000
0001
,
0100
0000
0110
0000
1001
0000
0010
1000
,
0100
0000
0110
0000
0010
0001
0100
0001
,
0010
0000
0100
1000
0100
0010
0100
1000
,
0001
0000
0100
0010
0100
0001
0100
0010
,
1000
0000
0001
0010
0100
0000
1000
0010
,
0100
0000
0001
0100
1000
0100
0001
0100
,
1000
0000
0000
0000
,
0000
0000
0000
0000
;
#NOTES:
     dance-single:
     :
     Hard:
     12:
     :
0000
0000
0000
0000
,
0000
0000
0000
0000
,
0000
0000
0000
0000
,
0000
0000
0000
0000
,
0000
0000
0000
0000
,
1000
0010
0000
1000
0100
0010
0000
0001
,
0100
0010
0000
1000
0001
0010
0000
0001
,
0100
0010
0000
1000
0100
0010
0000
0001
,
0010
0100
0000
1000
0001
0100
0000
0010
,
1000
0001
0000
0010
0100
1000
0000
0010
,
0100
0010
0000
1000
0001
0010
0000
0100
,
1000
0001
0000
0100
0001
0010
0000
0100
,
1000
0100
0000
0010
0001
0000
0000
0000
,
1000
0001
0000
0100
0010
0001
0010
0100
,
0001
1000
0000
0100
0010
0001
0010
0100
,
1000
0001
0000
0100
0010
1000
0100
1000
,
0001
0100
0000
0010
0100
0001
1000
0001
,
0010
0100
0000
1000
0001
0100
0010
1000
,
0001
1000
0000
0001
0010
0100
1000
0100
,
0010
0001
0000
1000
0100
1000
0001
0100
,
0001
0000
0000
0000
0000
0010
0001
0010
,
0200
1300
2000
3100
0200
0310
0020
0031
,
0001
0000
0100
0000
0000
0000
0010
0000
1000
0000
0001
0100
0001
0000
0010
0000
,
0002
1003
2000
3100
0200
0310
0020
0031
,
1000
0000
0001
0000
0000
0000
0010
0000
0001
0000
1000
0001
1000
0000
0100
0000
,
0020
0130
0002
0103
0020
0130
2000
3100
,
0010
0001
0010
0100
1000
0001
0100
0000
,
0001
0100
1000
0100
0001
0010
1000
0010
,
0001
0100
0010
1000
0100
0010
0001
0000
,
2000
3001
0002
0103
0200
0310
0020
1030
,
0100
0000
0010
0000
0000
0000
0010
0000
0001
0000
0010
0001
0010
0000
0100
0000
,
2000
3001
0002
0013
0020
0130
0200
1300
,
1000
0000
0100
0000
0000
0000
0010
0000
0001
0000
0100
0001
0100
0000
0010
0000
,
2000
3100
0020
0031
0200
0310
2000
3001
,
0010
0100
1000
0001
0100
0010
1000
0000
,
0100
0010
0001
0010
0100
1000
0010
0100
,
0001
0000
0000
0000
0000
0010
0100
0010
,
1001
0000
0011
0010
0100
1000
0010
0100
,
0001
0010
1000
0010
0001
0100
1000
0000
,
0101
0000
1010
1000
0001
0100
0010
1000
,
0100
0010
0001
1000
0010
0100
1000
0000
,
0100
0001
0100
0010
0100
1000
0100
0010
,
1000
0100
0001
0100
0010
0100
1000
0000
,
0001
0100
1000
0100
0001
0010
1000
0010
,
0001
0100
0010
1000
0100
0010
0001
0000
,
0002
0000
2003
0000
,
3020
0000
0230
0000
,
0302
0000
0023
0000
,
0230
0000
2300
0000
,
3001
0001
0100
0100
,
1000
1000
0010
0010
,
0001
0010
0100
0000
0010
0100
1000
0000
,
0100
0010
0001
0100
0010
1000
0000
0010
,
1001
0000
0000
0000
0110
0000
0000
0001
0010
0100
0010
0000
0100
0000
1000
0000
,
1010
0000
0000
0000
0101
0000
0000
0010
0001
0010
0001
0000
0010
0000
0100
0000
,
0110
0000
0000
0000
1001
0000
0000
0001
0100
0010
0100
0000
0010
0000
1000
0000
,
1100
0000
0000
0000
0011
0000
0000
1000
0100
1000
0100
0000
0010
0000
0001
0000
,
0101
0000
0000
0000
1010
0000
0000
0001
0010
0100
1000
0000
0100
0000
0010
0000
,
0011
0000
0000
0000
1100
0000
0000
0001
0100
0010
1000
0000
0100
0000
0010
0000
,
1001
0000
0000
0000
,
0000
0000
0000
0000
;
#NOTES:
     dance-double:
     :
     Easy:
     5:
     :
00000000
00000000
00000000
00000000
,
00000000
00000000
00000000
00000000
,
00000000
00000000
00000000
00000000
,
00000000
00000000
00000000
00000000
,
00000000
00000000
00000000
00000000
,
00000001
00000100
00001000
00000000
,
00010000
00010000
00001000
00000000
,
00010000
00100000
10000000
00000000
,
01000000
00000000
00010000
00000000
,
00001000
00000010
00000001
00000000
,
00000100
00001000
00010000
00000000
,
00001000
00001000
00000100
00000001
,
00000020
00000000
00000030
00000000
,
00001000
00010000
00001000
00000000
,
00010000
01000000
10000000
00000000
,
00100000
00010000
00001000
00000000
,
00010000
00010000
00001000
00000000
,
00000100
00000001
00000010
00000000
,
00001000
00010000
00001000
00010000
,
00000100
00010000
00001000
01000000
,
00200000
00000000
00000000
00300000
,
10000000
01000000
00010000
00010000
,
00001000
00000000
00000010
00000001
,
00000100
00001000
00010000
00010000
,
00100000
00000000
10000000
00100000
,
00010000
00001000
00010000
00010000
,
01000000
00010000
00001000
00001000
,
00010000
00001000
00000100
00000100
,
00000001
00000000
00000100
00001000
,
00010000
00001000
00100000
01000000
,
00010000
00000000
00001000
00010000
,
00000010
00000100
00001000
00010000
,
00001000
00000000
00000100
00000001
,
00000010
00001000
00010000
00001000
,
00010000
00000000
01000000
10000000
,
01000000
00000000
00010000
00001000
,
00020000
00000000
00030000
00000000
,
00011000
00011000
00001000
00000100
,
00000001
00000000
00000010
00001000
,
00010000
00100000
00010000
00001000
,
00011000
00000000
00000010
00010000
,
00011000
00000000
00100000
00001000
,
00010000
00001000
00000100
00000001
,
00000010
00000010
00001000
00010000
,
02000000
00000000
03000000
00000000
,
10000000
10000000
00100000
00010000
,
00002000
00003000
00000000
00000000
,
00010000
00010000
00001000
00000010
,
00000002
00000003
00000000
00000000
,
00000100
00000100
00001000
00010000
,
02000000
03000000
00000000
00000000
,
10000000
01000000
01000000
00010000
,
00010000
00001000
00001000
00000000
,
00010000
00001000
00000100
00000001
,
00000100
00000100
00001000
00010000
,
00001000
00010000
01000000
10000000
,
01000000
01000000
00010000
00001000
,
00000100
00000001
00000010
00001000
,
00010000
00100000
00010000
00001000
,
00000100
00000000
00000000
00000000
,
00000000
00000000
00000000
00000000
;
#NOTES:
     dance-double:
     :
     Medium:
     9:
     :
00000000
00000000
00000000
00000000
,
00000000
00000000
00000000
00000000
,
00000000
00000000
00000000
00000000
,
00000000
00000000
00000000
00000000
,
00000000
00000000
00000000
00000000
,
10000000
00100000
00000000
01000000
00010000
00000000
00100000
00000000
,
01000000
00010000
00001000
00000100
,
00000001
00000010
00000000
00000100
00001000
00000000
00000010
00000000
,
00000100
00001000
00010000
01000000
,
00100000
00010000
00000000
10000000
01000000
00000000
00010000
00000000
,
00001000
00010000
00001000
00000100
,
00000010
00001000
00000000
00000001
00000100
00000000
00001000
00000000
,
00010000
00010000
00001000
00001000
,
00010000
00001000
00000000
00001000
00010000
00000000
00100000
00000000
,
10000000
00010000
00000000
00010000
00100000
00000000
01000000
00000000
,
00010000
00001000
00000000
00001000
00000010
00000000
00000001
00000000
,
00000100
00001000
00000000
00001000
00010000
00000000
01000000
00000000
,
10000000
01000000
00000000
01000000
00010000
00000000
00001000
00000000
,
00010000
00100000
00000000
00100000
00010000
00000000
00001000
00000000
,
00000100
00000010
00000000
00000010
00001000
00000000
00000100
00000000
,
00000010
00000001
00000000
00000001
00000100
00000000
00000000
00000000
,
00011000
01001000
00011000
00010100
,
00000010
00000100
00000000
00010000
00001000
00000000
01000000
00100000
,
10000000
10100000
01010000
00011000
,
00001000
00010000
00000000
00000100
00000010
00000000
00000001
00000010
,
00001000
00000000
00010000
00001000
00010000
00000000
00100000
10000000
,
00100000
00010000
00000000
00001000
00010000
00000000
00000100
00010000
,
00001000
00101000
00011000
00010010
,
00000100
00000010
00000000
00001000
00000100
00000010
00001000
00010000
,
00001000
00000000
01001000
00000000
00100000
00000000
00010000
00001000
,
00010000
00100000
00000000
10000000
00100000
00000000
10000000
01000000
,
00010000
00000000
00011000
00000000
00001000
00000000
00000010
00000001
,
00000010
00000100
00000000
00001000
00000001
00000000
00000100
00001000
,
00010000
00000000
00010000
00100000
01000000
00000000
00100000
00010000
,
00001000
00010000
00000000
00000100
00010000
00001000
00010000
00001000
,
00100000
00000000
01000000
00000000
00010000
00000000
00001000
00010000
,
00002000
00000000
00000000
00000000
00003000
00000100
00000010
00000100
,
00000001
00000000
00000011
00000000
00001100
00000000
00000100
00010000
,
00001000
00010000
00000000
00100000
01000000
00000000
10000000
01000000
,
00010000
00000000
10100000
00000000
01010000
00000000
00001000
00010000
,
00001000
00010000
00000000
00000100
00010000
00001000
00100000
00001000
,
00010000
00000000
00000010
00000100
00000010
00000000
00001000
00000001
,
00000010
00001000
00000000
00010000
00001000
00010000
00100000
01000000
,
00100000
00000000
01010000
00000000
00011000
00000000
00000100
00010000
,
00002000
00010000
00013000
00001000
,
00000100
00000001
00000011
00001000
,
00010000
00000000
00001000
00000000
00010000
00000000
00100000
00010000
,
00001000
00010000
00011000
01000000
,
10000000
00000000
00100000
00000000
10000000
00000000
01000000
10000000
,
00100000
00010000
00011000
00001000
,
00000100
00000000
00000001
00000000
00000010
00000000
00001000
00000010
,
00000001
00000100
00001100
00001000
,
00011000
00000000
00010000
00000000
01010000
00000000
00000000
10000000
,
01000000
00000000
00110000
00000000
00011000
00000000
00000010
00010000
,
00001000
00000000
00011000
00000000
00000010
00001000
00000100
00001000
,
00000010
00000000
00000100
00001000
00010000
00001000
00010000
00001000
,
00100000
00000000
01000000
00100000
01000000
00010000
00001000
00010000
,
01000000
00000000
10000000
00100000
00010000
00000000
00001000
00010000
,
00100000
00000000
00010000
00001000
00010000
00001000
00000100
00000010
,
00000100
00000000
00000000
00000000
,
00000000
00000000
00000000
00000000
;
#NOTES:
     dance-double:
     :
     Hard:
     13:
     :
00000000
00000000
00000000
00000000
,
00000000
00000000
00000000
00000000
,
00000000
00000000
00000000
00000000
,
00000000
00000000
00000000
00000000
,
00000000
00000000
00000000
00000000
,
00010000
00001000
00000000
01000000
00100000
00010000
00000000
00001000
,
00100000
01000000
00000000
00010000
01000000
10000000
00000000
00100000
,
00010000
00001000
00000000
00000010
00001000
00010000
00000000
00001000
,
00000100
00000001
00000000
00000010
00001000
00010000
00000000
00001000
,
00000100
00000010
00000000
00001000
00000100
00000010
00000000
00001000
,
00010000
00100000
00000000
10000000
01000000
00100000
00000000
00010000
,
01000000
00100000
00000000
00010000
00001000
00100000
00000000
01000000
,
00010000
00001000
00000000
00000010
00001000
00010000
00000000
00001000
,
01000000
00100000
00010000
00001000
00100000
00001000
00010000
00000000
,
00001000
01000000
00100000
10000000
01000000
00010000
00001000
00000000
,
00000010
00000001
00000010
00001000
00010000
00001000
00000100
00000000
,
00000001
00000010
00000100
00001000
00000010
00000100
00001000
00000000
,
00010000
00100000
10000000
00100000
00010000
00001000
00010000
00001000
,
00000010
00000001
00000100
00000010
00010000
00001000
00100000
00000000
,
00010000
00100000
01000000
00000000
10000000
01000000
00010000
00000000
,
00001000
00010000
00001000
00000000
00000000
00010000
01000000
00000000
,
11000000
00000000
01010000
00000000
00011000
00000000
00000010
00000001
,
00000010
00001000
00000000
00100000
00010000
00001000
00000100
00000010
,
00000011
00001010
00101000
01100000
,
10000000
01000000
00000000
00010000
00001000
00000010
00001000
00010000
,
00001000
00000000
00100000
00000000
00001000
00000000
00010000
00001000
00010000
00000000
00001000
00000000
00000010
00000000
00001000
00010000
,
00001000
00010000
00100000
10000000
00000000
01000000
00010000
00001000
,
00100000
00001000
00010000
00001000
00000100
00000010
00000001
00000010
,
00001000
00010000
01000000
00001000
00010000
01000000
10000000
00000000
,
10000000
01000000
00010000
00001000
00000100
00000001
00000010
00000100
,
00010000
00001000
00000000
00100000
00100000
01000000
01000000
00010000
,
00001000
00010000
01000000
10000000
00100000
00010000
00001000
00010000
,
00001000
00000010
00000000
00000001
00000001
00000010
00000010
00001000
,
00010000
00000000
01000000
00000000
00100000
00000000
00001000
00010000
00001000
00000000
00000100
00000000
00000010
00000000
00001000
00000001
,
00001000
00000100
00010000
00001000
00100000
00010000
10000000
01000000
,
00010000
00001000
00000010
00000001
00000100
00000010
00001000
00010000
,
01000000
00000000
00000000
00000000
00000000
10000000
01000000
00010000
,
01010000
00000000
00011000
00000000
00001100
00000000
00000101
00000001
,
00000010
00001000
00000000
00010000
00001000
00000100
00000001
00000010
,
00001010
00000000
00011000
00000000
01010000
00000000
11000000
10000000
,
00010000
00100000
00000000
10000000
00100000
00010000
00001000
00000100
,
00000110
00000000
00000001
00000100
00001100
00000000
00010000
01000000
,
10000000
01000000
00010000
00001000
00000010
00000001
00000011
00000000
,
00000100
00000001
00000100
00001000
00010000
00100000
01000000
00010000
,
10000000
01000000
00010000
00001000
00000010
00000001
00000100
00001000
,
00020000
00002000
00003000
02000000
,
00030000
00000000
20000000
00000000
03000000
00000000
31000000
00010000
,
00002000
00020000
00030000
00000200
,
00003000
00000002
00000000
00000303
,
00002000
00003010
00000002
00000103
,
00000020
00002030
00023000
00031000
,
00000002
00002003
00023000
20030000
,
30020000
00000000
00032000
00000000
00003001
00000000
00000000
00000001
,
00000101
00000000
00000000
00000000
00001010
00000000
00000000
00000001
00000100
00000001
00000100
00000000
00001000
00000000
00010000
00000000
,
00011000
00000000
00000000
00000000
00110000
00000000
00000000
00100000
10000000
00100000
10000000
00000000
01000000
00000000
00100000
00000000
,
00110000
00000000
00000000
00000000
11000000
00000000
00000000
00010000
00001000
00010000
00001000
00000000
00000010
00000000
00000001
00000000
,
00000101
00000000
00000000
00000000
00001100
00000000
00000000
00010000
00001000
00010000
00001000
00000000
01000000
00000000
00100000
00000000
,
10100000
00000000
00000000
00000000
01010000
00000000
00000000
00100000
00010000
00100000
01000000
00000000
00010000
00000000
00001000
00000000
,
00001010
00000000
00000000
00000000
00000011
00000000
00000000
00000100
00000001
00000100
00000010
00000000
00001000
00000000
00010000
00000000
,
00011000
00000000
00000000
00000000
,
00000000
00000000
00000000
00000000
;
