
//----- song ID: twme -----//
#TITLE:Twin memories W;
#ARTIST:ときめきアイドル project;
#ARTISTTRANSLIT:Tokimeki Idol project;
#BANNER:Twin memories W.png;
#BACKGROUND:Twin memories W-bg.png;
#CDTITLE:./CDTITLES/DDR A.png;
#MUSIC:Twin memories W.ogg;
#SAMPLESTART:85.508;
#SAMPLELENGTH:15;
#DISPLAYBPM:160;
#BPMS:0=160.3,4=160;
#NOTES:
     dance-single:
     :
     Beginner:
     2:
     :
0000
0000
0000
0000
,
0000
0000
0000
0000
,
0000
0000
0000
0000
,
0000
0000
0000
0000
,
0000
0000
0000
0000
,
0000
0000
0000
0000
,
1000
0000
1000
0000
,
0001
0000
0001
0000
,
0020
0030
0000
0000
,
1001
0000
0000
0000
,
1000
0000
1000
0000
,
0010
0000
0000
0000
,
0001
0000
0001
0000
,
0010
0000
0000
0000
,
2000
3000
0000
0000
,
0002
0003
0000
0000
,
0010
0000
0000
0000
,
1001
0000
0000
0000
,
1000
0000
1000
0000
,
0010
0000
0010
0000
,
1000
0000
1000
0000
,
0100
0000
0000
0000
,
0001
0000
0001
0000
,
0010
0000
0010
0000
,
0001
0000
0001
0000
,
0001
0000
0000
0000
,
0001
0000
0001
0000
,
0010
0000
0010
0000
,
0001
0000
0001
0000
,
0100
0000
0000
0000
,
1000
0000
1000
0000
,
0010
0000
0010
0000
,
1000
0000
1000
0000
,
0100
0000
0000
0000
,
1001
0000
0000
0000
,
0000
0000
0000
0000
,
0000
0000
0000
0000
,
0000
0000
0000
0000
,
0002
0003
0000
0000
,
2000
3000
0000
0000
,
1000
0000
0000
0000
,
1000
0000
1000
0000
,
0001
0000
0000
0000
,
0001
0000
0001
0000
,
1000
0000
1000
0000
,
0001
0000
0001
0000
,
0020
0030
0000
0000
,
1001
0000
0000
0000
,
1000
0000
1000
0000
,
0010
0000
0000
0000
,
0001
0000
0001
0000
,
0010
0000
0000
0000
,
2000
3000
0000
0000
,
0002
0003
0000
0000
,
0010
0000
0000
0000
,
1001
0000
0000
0000
,
0000
0000
0000
0000
,
1000
0000
1000
0000
,
0010
0000
0010
0000
,
1000
0000
1000
0000
,
0100
0000
0000
0000
,
0001
0000
0001
0000
,
0010
0000
0010
0000
,
0001
0000
0001
0000
,
0001
0000
0000
0000
,
0001
0000
0001
0000
,
0010
0000
0010
0000
,
0001
0000
0001
0000
,
0100
0000
0000
0000
,
1000
0000
1000
0000
,
0010
0000
0010
0000
,
1000
0000
1000
0000
,
0100
0000
0000
0000
,
1001
0000
0000
0000
,
0000
0000
0000
0000
,
0001
0000
0001
0000
,
1000
0000
1000
0000
,
0020
0030
0000
0000
,
0200
0300
0000
0000
,
0001
0000
0000
1000
,
0000
0000
0010
0000
,
1001
0000
0000
0000
,
0000
0000
0000
0000
;
#NOTES:
     dance-single:
     :
     Easy:
     6:
     :
0000
0000
0000
0000
,
0000
0000
0000
0000
,
0000
0000
0000
0000
,
0000
0000
0000
0000
,
0000
0000
0000
0000
,
0000
0000
0000
0000
,
2000
0000
3001
0000
,
0002
0000
1003
0000
,
1010
0000
1001
0000
,
0011
0000
1001
0000
,
1000
0000
0100
0000
,
0010
0001
1000
0000
,
0001
0000
0100
0000
,
0010
1000
0001
0000
,
2000
0000
3001
0000
,
0002
0000
1003
0000
,
0011
0000
0110
0000
,
2002
0000
3003
0000
,
1000
1000
0001
0000
,
0010
0100
0010
0000
,
0100
1000
0001
1000
,
0010
1000
0001
0000
,
2000
0000
3010
0000
,
0002
0000
0103
0000
,
0001
0100
1000
0010
,
0002
0000
0003
0000
,
0001
0001
1000
0000
,
0010
0100
0010
0000
,
0100
0001
1000
0001
,
0010
0001
1000
0000
,
0002
0000
0013
0000
,
2000
0000
3100
0000
,
1000
0100
0010
0001
,
0200
0000
0310
0000
,
2002
0000
0000
0000
,
3003
0000
0000
0000
,
1000
0000
1000
0000
,
0001
0000
0001
0000
,
0000
1000
0001
1000
,
0000
0010
0100
0001
,
1000
0000
0100
0000
,
0010
0001
1000
0000
,
0001
0000
0100
0000
,
0010
1000
0001
0000
,
2000
0000
3001
0000
,
0002
0000
1003
0000
,
1010
0000
1001
0000
,
0011
0000
1001
0000
,
1000
0000
0100
0000
,
0010
0001
1000
0000
,
0001
0000
0100
0000
,
0010
1000
0001
0000
,
2000
0000
3001
0000
,
0002
0000
1003
0000
,
0011
0000
0110
0000
,
2002
0000
0000
3003
,
0000
0000
0000
0000
,
1000
1000
0001
0000
,
0010
0100
0010
0000
,
0100
1000
0001
1000
,
0010
1000
0001
0000
,
2000
0000
3010
0000
,
0002
0000
0103
0000
,
0001
0100
1000
0010
,
0002
0000
0003
0000
,
0001
0001
1000
0000
,
0010
0100
0010
0000
,
0100
0001
1000
0001
,
0010
0001
1000
0000
,
0002
0000
0013
0000
,
2000
0000
3100
0000
,
1000
0100
0010
0001
,
0200
0000
0310
0000
,
2002
0000
0000
0000
,
3003
0000
0000
0000
,
1000
0000
1000
0000
,
0001
0000
0001
0000
,
0100
0010
1000
0000
,
0001
0010
0100
0000
,
1000
0100
0001
1000
,
0010
0001
1000
0001
,
2002
0000
0000
0000
,
3003
0000
0000
0000
,
0000
0000
0000
0000
;
#NOTES:
     dance-single:
     :
     Medium:
     9:
     :
0000
0000
0000
0000
,
0000
0000
0000
0000
,
0000
0000
0000
0000
,
0000
0000
0000
0000
,
0000
0000
0000
0000
,
0000
0000
0000
0000
,
2000
0000
0000
0001
0000
3001
0000
0000
,
0002
0000
0000
1000
0000
1003
0000
0000
,
0100
0100
0010
0010
,
0100
0000
0000
1001
0000
0000
0000
0000
,
1000
0100
0001
0010
,
0100
0000
0001
1000
0000
0000
0000
0000
,
0001
0100
1000
0010
,
0100
0000
1000
0001
0000
0000
0000
0000
,
0002
0000
0000
0013
0000
0001
0000
0000
,
2000
0000
0000
3010
0000
1000
0000
0000
,
0001
0000
0100
0000
0010
0000
1000
0002
,
0000
0000
0000
1003
0000
1001
0000
0000
,
1000
1000
0100
0100
,
0010
0001
1000
0000
0010
0000
0100
0000
,
0001
0001
0100
0100
,
0010
1000
0001
0000
0010
0000
0100
0000
,
1000
0000
0001
0100
0001
0000
1000
0000
,
0001
0000
1000
0100
1000
0000
0001
0000
,
0100
0000
0010
0000
1000
0000
0001
0020
,
0000
0000
0000
0031
0000
1001
0000
0000
,
0001
0001
0010
0010
,
0100
1000
0001
0000
0100
0000
0010
0000
,
1000
1000
0010
0010
,
0100
0001
1000
0000
0100
0000
0010
0000
,
0001
0000
1000
0100
1000
0000
0001
0000
,
1000
0000
0001
0100
0001
0000
1000
0000
,
0010
0000
0000
0100
0000
0001
0000
1000
,
0000
0001
0000
0010
0000
0100
0000
2000
,
0000
0000
0000
0000
,
3000
0000
0000
0000
,
1000
1000
0001
0001
,
1000
0001
0100
0000
0010
1000
0001
0000
,
0010
0100
1000
0001
,
1000
0010
0100
0001
,
2000
0001
0001
3001
,
0011
0000
0000
0110
0000
0000
0000
0000
,
0002
1000
1000
1003
,
1010
0000
0000
0110
0000
0000
0000
0000
,
2000
0000
0000
0001
0000
3001
0000
0000
,
0002
0000
0000
1000
0000
1003
0000
0000
,
0100
0100
0010
0010
,
0100
0000
0000
1001
0000
0000
0000
0000
,
1000
0100
0001
0010
,
0100
0000
0001
1000
0000
0000
0000
0000
,
0001
0100
1000
0010
,
0100
0000
1000
0001
0000
0000
0000
0000
,
0002
0000
0000
0013
0000
0001
0000
0000
,
2000
0000
0000
3010
0000
1000
0000
0000
,
0001
0000
0100
0000
0010
0000
1000
0001
,
0000
0000
0000
0000
0100
0010
0000
1000
,
0000
0100
0000
0010
0000
1001
0000
0000
,
1000
1000
0100
0100
,
0010
0001
1000
0000
0010
0000
0100
0000
,
0001
0001
0100
0100
,
0010
1000
0001
0000
0010
0000
0100
0000
,
1000
0000
0001
0100
0001
0000
1000
0000
,
0001
0000
1000
0100
1000
0000
0001
0000
,
0100
0000
0010
0000
1000
0000
0001
0020
,
0000
0000
0000
0031
0000
1001
0000
0000
,
0001
0001
0010
0010
,
0100
1000
0001
0000
0100
0000
0010
0000
,
1000
1000
0010
0010
,
0100
0001
1000
0000
0100
0000
0010
0000
,
0001
0000
1000
0100
1000
0000
0001
0000
,
1000
0000
0001
0100
0001
0000
1000
0000
,
0010
0000
0000
0100
0000
0001
0000
1000
,
0000
0001
0000
0010
0000
0100
0000
2000
,
0000
0000
0000
0000
,
3000
0000
0000
0000
,
2000
0000
3100
0000
,
0002
0000
0103
0000
,
1000
0001
0100
0010
,
1000
0001
0010
0100
,
1100
0000
0000
0011
0000
0000
0101
0000
,
0000
1010
0000
0000
0100
0010
0000
2002
,
0000
0000
0000
0000
,
3003
0000
0000
0000
,
0000
0000
0000
0000
;
#NOTES:
     dance-single:
     :
     Hard:
     11:
     :
0000
0000
0000
0000
,
0000
0000
0000
0000
,
0220
0000
0000
0330
,
0011
0000
0000
0110
0000
0000
1100
0000
,
2002
0000
0000
3003
,
0101
0000
0000
0110
0000
0001
1000
0000
,
0002
0000
0013
0100
0000
1000
0001
0000
,
2000
0000
3010
0100
0000
0001
1000
0000
,
0001
1000
0001
0000
1000
0001
1000
0000
,
0100
0010
0100
1000
0000
0001
1000
0000
,
0001
0010
0100
1000
0000
0010
0100
0010
,
1000
0000
0001
0100
0000
0010
1000
0000
,
0100
0000
0010
0001
1000
0010
0100
0001
,
1000
0000
0010
0100
0000
0001
1000
0000
,
0200
0000
0310
0001
0000
0010
0100
0000
,
2000
0000
3001
0100
0000
0010
1000
0000
,
0001
0000
0000
0000
1000
0100
0010
0001
,
0000
1000
0010
1000
0000
0101
0000
0000
,
1001
1010
0110
0101
,
0011
0110
1100
1001
,
0001
0010
0100
0000
1000
0001
0100
0000
,
0010
1000
0010
0100
0000
1001
0000
2000
,
0000
3100
0001
0100
0000
1000
0001
1000
,
0002
0000
0103
1000
0000
0100
0001
1000
,
0100
1000
0000
0010
0100
0000
0001
0010
,
0000
0100
0000
1000
0000
0110
0000
0000
,
1001
0011
0110
1100
,
1010
0110
0101
1001
,
1000
0010
0100
0000
0001
1000
0100
0000
,
0010
0001
0010
0100
0000
1001
0000
0002
,
0000
0103
1000
0100
0000
0001
1000
0002
,
0000
0000
0013
0100
0000
1000
0100
0010
,
0001
0000
1000
0001
0000
0101
0000
1001
,
0000
1010
0000
0101
0000
1000
0002
2000
,
0000
0000
0000
0000
,
3003
0000
0000
0000
,
0100
1000
0100
0000
0100
0001
0100
0000
,
0010
0001
0010
0000
0010
1000
0010
0000
,
0000
0001
0010
0100
1000
0001
0100
0010
,
0000
1000
0010
0100
0001
1000
0000
0000
,
0200
0010
0010
0310
,
1100
0000
0100
0010
0000
0010
0001
0000
,
0002
1000
1000
1003
,
1010
0000
0000
0110
0000
1000
0001
0000
,
2000
0000
3100
0010
0000
0001
1000
0000
,
0002
0000
0103
0010
0000
1000
0001
0000
,
1000
0001
1000
0000
0001
1000
0001
0000
,
0010
0100
0010
0001
0000
1000
0001
0000
,
1000
0100
0010
0001
0000
0100
0010
0100
,
0001
0000
1000
0010
0000
0100
0001
0000
,
0010
0000
0100
1000
0001
0100
0010
1000
,
0001
0000
0100
0010
0000
1000
0001
0000
,
0020
0000
0130
1000
0000
0100
0010
0000
,
0002
0000
1003
0010
0000
0100
0001
0000
,
1000
0000
0000
0000
0001
0010
0100
1000
,
0000
0000
0000
0000
0001
1000
0000
0001
,
0000
0010
0100
1000
0000
0110
0000
0000
,
1001
0101
0110
1010
,
1100
0110
0011
1001
,
1000
0100
0010
0000
0001
1000
0010
0000
,
0100
0001
0100
0010
0000
1001
0000
0002
,
0000
0013
1000
0010
0000
0001
1000
0001
,
2000
0000
3010
0001
0000
0010
1000
0001
,
0010
0000
0000
0010
0100
0000
1000
0100
,
0000
0010
0000
0001
0000
0110
0000
0000
,
1001
1100
0110
0011
,
0101
0110
1010
1001
,
0001
0100
0010
0000
1000
0001
0010
0000
,
0100
1000
0100
0010
0000
1001
0000
2000
,
0000
3010
0001
0010
0000
1000
0001
2000
,
0000
0000
3100
0010
0000
0001
0010
0100
,
1000
0000
0001
1000
0000
1010
0000
1001
,
0000
0101
0000
1010
0000
0001
2000
0002
,
0000
0000
0000
0000
,
3003
0000
0000
0000
,
1000
0000
0001
0000
0010
0100
1000
0000
,
0001
0000
1000
0000
0010
0100
0001
0000
,
1000
0100
1000
0000
0100
0010
0100
0000
,
0010
0001
0010
0000
0001
1000
0001
0000
,
1000
0001
0000
0001
0100
0000
0100
0010
,
0000
0010
1000
0000
1000
0001
0000
2002
,
0000
0000
0000
0000
,
3003
0000
0000
0000
,
0000
0000
0000
0000
;
#NOTES:
     dance-double:
     :
     Easy:
     6:
     :
00000000
00000000
00000000
00000000
,
00000000
00000000
00000000
00000000
,
00000000
00000000
00000000
00000000
,
00000000
00000000
00000000
00000000
,
00000000
00000000
00000000
00000000
,
00000000
00000000
00000000
00000000
,
00002000
00000000
00013000
00000000
,
00020000
00000000
00031000
00000000
,
00101000
00000000
00011000
00000000
,
00010010
00000000
00011000
00000000
,
00001000
00000000
00000010
00000000
,
00000001
00000100
00001000
00000000
,
00010000
00000000
00100000
00000000
,
10000000
01000000
00010000
00000000
,
00002000
00000000
00013000
00000000
,
00020000
00000000
00031000
00000000
,
00010010
00000000
00101000
00000000
,
00022000
00000000
00033000
00000000
,
00001000
00001000
00010000
00000000
,
00100000
10000000
00100000
00000000
,
01000000
00001000
00010000
00001000
,
00100000
00001000
00010000
00000000
,
00002000
00000000
00003010
00000000
,
00000002
00000000
00000103
00000000
,
00000001
00000100
00001000
00010000
,
00002000
00000000
00003000
00000000
,
00010000
00010000
00001000
00000000
,
00000010
00000001
00000010
00000000
,
00000100
00010000
00001000
00010000
,
00000010
00010000
00001000
00000000
,
00020000
00000000
00130000
00000000
,
20000000
00000000
31000000
00000000
,
10000000
01000000
00010000
00001000
,
00020000
00000000
00031000
00000000
,
00022000
00000000
00000000
00000000
,
00033000
00000000
00000000
00000000
,
00001000
00000000
00001000
00000000
,
00010000
00000000
00010000
00000000
,
00000000
00001000
00010000
00001000
,
00000000
00010000
00001000
00010000
,
00001000
00000000
00000010
00000000
,
00000001
00000100
00001000
00000000
,
00010000
00000000
00100000
00000000
,
10000000
01000000
00010000
00000000
,
00002000
00000000
00013000
00000000
,
00020000
00000000
00031000
00000000
,
00101000
00000000
00011000
00000000
,
00010010
00000000
00011000
00000000
,
00001000
00000000
00000010
00000000
,
00000001
00000100
00001000
00000000
,
00010000
00000000
00100000
00000000
,
10000000
01000000
00010000
00000000
,
00002000
00000000
00013000
00000000
,
00020000
00000000
00031000
00000000
,
00010010
00000000
00101000
00000000
,
00022000
00000000
00000000
00033000
,
00000000
00000000
00000000
00000000
,
00001000
00001000
00010000
00000000
,
00100000
10000000
00100000
00000000
,
01000000
00001000
00010000
00001000
,
00100000
00001000
00010000
00000000
,
00002000
00000000
00003010
00000000
,
00000002
00000000
00000103
00000000
,
00000001
00000100
00001000
00010000
,
00002000
00000000
00003000
00000000
,
00010000
00010000
00001000
00000000
,
00000010
00000001
00000010
00000000
,
00000100
00010000
00001000
00010000
,
00000010
00010000
00001000
00000000
,
00020000
00000000
00130000
00000000
,
20000000
00000000
31000000
00000000
,
10000000
01000000
00010000
00001000
,
00020000
00000000
00031000
00000000
,
00022000
00000000
00000000
00000000
,
00033000
00000000
00000000
00000000
,
00001000
00000000
00001000
00000000
,
00010000
00000000
00010000
00000000
,
00001000
00000010
00000001
00000000
,
00000001
00000100
00001000
00000000
,
00010000
00100000
10000000
10000000
,
00100000
00010000
00001000
00010000
,
00022000
00000000
00000000
00000000
,
00033000
00000000
00000000
00000000
,
00000000
00000000
00000000
00000000
;
#NOTES:
     dance-double:
     :
     Medium:
     9:
     :
00000000
00000000
00000000
00000000
,
00000000
00000000
00000000
00000000
,
00000000
00000000
00000000
00000000
,
00000000
00000000
00000000
00000000
,
00000000
00000000
00000000
00000000
,
00000000
00000000
00000000
00000000
,
00002000
00000000
00000000
00010000
00000000
00013000
00000000
00000000
,
00020000
00000000
00000000
00001000
00000000
00031000
00000000
00000000
,
00002000
00000000
00023000
00000000
,
00031000
00000000
00000000
00011000
00000000
00000000
00000000
00000000
,
00010000
00100000
10000000
01000000
,
00100000
00000000
00001000
00010000
00000000
00000000
00000000
00000000
,
00001000
00000010
00000001
00000100
,
00000010
00000000
00010000
00001000
00000000
00000000
00000000
00000000
,
00020000
00000000
00000000
00030010
00000000
00010000
00000000
00000000
,
00002000
00000000
00000000
00103000
00000000
00001000
00000000
00000000
,
00010000
00000000
01000000
00000000
10000000
00000000
01000000
00010000
,
00000000
00000000
00000000
00001000
00000000
00011000
00000000
00000000
,
00001000
00001000
00010000
00010000
,
00001000
00000010
00000001
00000000
00000010
00000000
00001000
00000000
,
00010000
00010000
00001000
00001000
,
00010000
00100000
10000000
00000000
00100000
00000000
00010000
00000000
,
00001000
00000000
00010000
01000000
00010000
00000000
00001000
00000000
,
00010000
00000000
00001000
00000100
00000001
00000000
00000100
00000000
,
00001000
00000000
00010000
00000000
00100000
00000000
10000000
00100000
,
00000000
00000000
00000000
00010000
00000000
00011000
00000000
00000000
,
00010000
00010000
00001000
00001000
,
00010000
01000000
10000000
00000000
01000000
00000000
00010000
00000000
,
00001000
00001000
00010000
00010000
,
00001000
00000100
00000001
00000000
00000100
00000000
00001000
00000000
,
00010000
00000000
00001000
00000100
00001000
00000000
00010000
00000000
,
00001000
00000000
00010000
01000000
10000000
00000000
01000000
00000000
,
00010000
00000000
00000000
00001000
00000000
00000100
00000000
00000001
,
00000000
00000100
00000000
00001000
00000000
00010000
00000000
00002000
,
00000000
00000000
00000000
00000000
,
00003000
00000000
00000000
00000000
,
00001000
00001000
00010000
00010000
,
00001000
00010000
00001000
00000000
00010000
00001000
00010000
00000000
,
00100000
10000000
01000000
00010000
,
00001000
00000010
00000001
00000100
,
00002000
00010000
00010000
00013000
,
00020000
00000000
00000000
00031000
00000000
00000000
00000000
00000000
,
00020000
00001000
00001000
00031000
,
00002000
00000000
00000000
00013000
00000000
00000000
00000000
00000000
,
00002000
00000000
00000000
00010000
00000000
00013000
00000000
00000000
,
00020000
00000000
00000000
00001000
00000000
00031000
00000000
00000000
,
00002000
00000000
00023000
00000000
,
00031000
00000000
00000000
00011000
00000000
00000000
00000000
00000000
,
00010000
00100000
10000000
01000000
,
00100000
00000000
00001000
00010000
00000000
00000000
00000000
00000000
,
00001000
00000010
00000001
00000100
,
00000010
00000000
00010000
00001000
00000000
00000000
00000000
00000000
,
00020000
00000000
00000000
00030010
00000000
00010000
00000000
00000000
,
00002000
00000000
00000000
00103000
00000000
00001000
00000000
00000000
,
00010000
00000000
01000000
00000000
10000000
00000000
01000000
00010000
,
00000000
00000000
00000000
00000000
00001000
00010000
00000000
00001000
,
00000000
00010000
00000000
00001000
00000000
00011000
00000000
00000000
,
00001000
00001000
00010000
00010000
,
00001000
00000010
00000001
00000000
00000010
00000000
00001000
00000000
,
00010000
00010000
00001000
00001000
,
00010000
00100000
10000000
00000000
00100000
00000000
00010000
00000000
,
00001000
00000000
00010000
01000000
00010000
00000000
00001000
00000000
,
00010000
00000000
00001000
00000100
00000001
00000000
00000100
00000000
,
00001000
00000000
00010000
00000000
00100000
00000000
10000000
00100000
,
00000000
00000000
00000000
00010000
00000000
00011000
00000000
00000000
,
00010000
00010000
00001000
00001000
,
00010000
01000000
10000000
00000000
01000000
00000000
00010000
00000000
,
00001000
00001000
00010000
00010000
,
00001000
00000100
00000001
00000000
00000100
00000000
00001000
00000000
,
00010000
00000000
00001000
00000100
00001000
00000000
00010000
00000000
,
00001000
00000000
00010000
01000000
10000000
00000000
01000000
00000000
,
00010000
00000000
00000000
00001000
00000000
00000100
00000000
00000001
,
00000000
00000100
00000000
00001000
00000000
00010000
00000000
00002000
,
00000000
00000000
00000000
00000000
,
00003000
00000000
00000000
00000000
,
00002000
00000000
00003100
00000000
,
00020000
00000000
01030000
00000000
,
00001000
00010000
00100000
10000000
,
01000000
00010000
00001000
00000010
,
00000001
00000001
00000000
00000100
00000100
00000000
00001000
00010000
,
00000000
00010000
00001000
00000000
00001000
00010000
00000000
00022000
,
00000000
00000000
00000000
00000000
,
00033000
00000000
00000000
00000000
,
00000000
00000000
00000000
00000000
;
#NOTES:
     dance-double:
     :
     Hard:
     11:
     :
00000000
00000000
00000000
00000000
,
00000000
00000000
00000000
00000000
,
00002000
00000000
00000000
00000000
,
00013000
00000000
00000000
00100000
00000000
00000000
10000000
00000000
,
02000000
00000000
00000000
00000000
,
03010000
00000000
00000000
00001000
00000000
00010000
00001000
00000000
,
00000020
00000000
00000031
00000010
00000000
00001000
00010000
00000000
,
00002000
00000000
00013000
00100000
00000000
10000000
00100000
00000000
,
00010000
00001000
00010000
00000000
00001000
00010000
00001000
00000000
,
00000100
00000001
00000100
00001000
00000000
00010000
00001000
00000000
,
00010000
00100000
10000000
00100000
00000000
01000000
00010000
01000000
,
00100000
00000000
00010000
00001000
00000000
00001000
00010000
00000000
,
00001000
00000000
00000010
00000001
00000010
00001000
00010000
00001000
,
00000100
00000000
00000001
00000100
00000000
00001000
00010000
00000000
,
00200000
00000000
10300000
00100000
00000000
00010000
00001000
00000000
,
00020000
00000000
00031000
00000010
00000000
00000001
00000010
00000000
,
00001000
00000000
00000000
00000000
00010000
00001000
00010000
00100000
,
00000000
10000000
00100000
10000000
00000000
01010000
00000000
00000000
,
10010000
10100000
01100000
01010000
,
00101000
00011000
00010100
00001001
,
00000001
00000010
00001000
00000000
00010000
00001000
00010000
00000000
,
00100000
10000000
00100000
00010000
00000000
00011000
00000000
00002000
,
00000000
00003100
00000001
00000100
00000000
00001000
00010000
00001000
,
00020000
00000000
01030000
10000000
00000000
00100000
00010000
00001000
,
00000100
00001000
00000000
00000100
00000001
00000000
00000100
00000010
,
00000000
00001000
00000000
00000001
00000000
00000110
00000000
00000000
,
00001001
00000011
00000110
00001100
,
00010010
00011000
01001000
10010000
,
10000000
00100000
00010000
00000000
00001000
00010000
00001000
00000000
,
00000010
00000001
00000010
00001000
00000000
00011000
00000000
00020000
,
00000000
01030000
10000000
01000000
00000000
00010000
00001000
00020000
,
00000000
00000000
00031000
00000100
00000000
00000001
00000010
00001000
,
00010000
00000000
00001000
00010000
00000000
01000000
00000000
10000000
,
00000000
00100000
00000000
00010000
00000000
00001000
00020000
00002000
,
00000000
00000000
00000000
00000000
,
00033000
00000000
00000000
00000000
,
00000000
00000000
00000000
00000000
,
00000000
00000000
00000000
00000000
,
00000000
00010000
00000100
00001000
00000010
00000100
00000001
00000010
,
00000000
00001000
00010000
01000000
10000000
00100000
00000000
00000000
,
00020000
00001000
00001000
00001000
,
00030100
00000000
00001000
00000100
00000000
00000001
00000100
00000000
,
00000020
00000100
00000100
00000100
,
00001030
00000000
00000000
00010000
00000000
00001000
00010000
00000000
,
02000000
00000000
13000000
01000000
00000000
00010000
00001000
00000000
,
00020000
00000000
00031000
00000100
00000000
00000001
00000100
00000000
,
00001000
00010000
00001000
00000000
00010000
00001000
00010000
00000000
,
00100000
10000000
00100000
00010000
00000000
00001000
00010000
00000000
,
00001000
00000100
00000001
00000100
00000000
00000010
00001000
00000010
,
00000100
00000000
00001000
00010000
00000000
00010000
00001000
00000000
,
00010000
00000000
01000000
10000000
01000000
00010000
00001000
00010000
,
00100000
00000000
10000000
00100000
00000000
00010000
00001000
00000000
,
00000200
00000000
00000301
00000100
00000000
00001000
00010000
00000000
,
00002000
00000000
00013000
01000000
00000000
10000000
01000000
00000000
,
00010000
00000000
00000000
00000000
00001000
00010000
00001000
00000100
,
00000000
00000000
00000000
00000000
00000001
00001000
00000000
00000001
,
00000000
00000010
00000100
00001000
00000000
00000110
00000000
00000000
,
00001001
00000101
00000110
00001010
,
00010100
00011000
00101000
10010000
,
10000000
01000000
00010000
00000000
00001000
00010000
00001000
00000000
,
00000100
00000001
00000100
00001000
00000000
00011000
00000000
00020000
,
00000000
00130000
10000000
00100000
00000000
00010000
00001000
00010000
,
00002000
00000000
00003010
00000001
00000000
00000100
00001000
00010000
,
00100000
00000000
00000000
10000000
00100000
00000000
00100000
01000000
,
00000000
00010000
00000000
10000000
00000000
01100000
00000000
00000000
,
10010000
11000000
01100000
00110000
,
01001000
00011000
00010010
00001001
,
00000001
00000100
00001000
00000000
00010000
00001000
00010000
00000000
,
01000000
10000000
01000000
00010000
00000000
00011000
00000000
00002000
,
00000000
00003010
00000001
00000010
00000000
00001000
00010000
00002000
,
00000000
00000000
00013000
00100000
00000000
10000000
01000000
00010000
,
00001000
00000000
00010000
00001000
00000000
00000010
00000000
00000001
,
00000000
00000100
00000000
00001000
00000000
00010000
00002000
00020000
,
00000000
00000000
00000000
00000000
,
00033000
00000000
00000000
00000000
,
00001000
00000000
00010000
00000000
00100000
10000000
01000000
00000000
,
00010000
00000000
00001000
00000000
00000010
00000001
00000100
00000000
,
00001000
00010000
00001000
00000000
00010000
01000000
10000000
00000000
,
00010000
10000000
00010000
00000000
10000000
00100000
00010000
00000000
,
00010000
00001000
00000000
00001000
00000010
00000000
00000010
00000001
,
00000000
00000001
00000100
00000000
00000100
00001000
00000000
00022000
,
00000000
00000000
00000000
00000000
,
00033000
00000000
00000000
00000000
,
00000000
00000000
00000000
00000000
;
