
//----- song ID: towa -----//
#TITLE:Towards The TOWER;
#ARTIST:SHAMDEL;
#BANNER:Towards The TOWER.png;
#BACKGROUND:Towards The TOWER-bg.png;
#CDTITLE:./CDTitles/jubeat prop.png;
#MUSIC:Towards The TOWER.ogg;
#SAMPLESTART:79.878;
#SAMPLELENGTH:15;
#DISPLAYBPM:132;
#BPMS:0=131.6,4=132;
#NOTES:
     dance-single:
     :
     Beginner:
     2:
     :
0000
0000
0000
0000
,
0000
0000
0000
0000
,
0000
0000
0000
0000
,
0000
0000
0000
0000
,
0000
0000
0000
0000
,
1000
0000
0001
0000
,
0100
0100
0100
0000
,
0001
0000
1000
0000
,
0100
0100
0100
0000
,
0010
0000
0000
0000
,
0001
0000
0001
0000
,
1000
0000
1000
0000
,
0100
0000
0000
0000
,
1000
0000
0010
0000
,
0001
0001
0001
0000
,
0001
0000
1000
0000
,
0010
0000
0000
0000
,
1000
0000
0100
0000
,
0001
0000
0100
0000
,
0001
0000
1000
0000
,
0100
0000
0000
0000
,
0001
0000
0001
0000
,
1000
0000
1001
0000
,
0000
0000
0000
0000
,
0010
0010
0010
0000
,
1000
1000
1000
0000
,
0001
0001
0001
0000
,
0000
0001
0000
1000
,
0000
0001
0000
1000
,
0000
0001
0000
1000
,
0000
0001
0000
1000
,
1000
1000
0000
0000
,
0100
0100
0000
0000
,
0010
0010
0010
0010
,
0220
0000
0000
0330
,
0000
0000
0000
0000
,
0020
0000
0000
0000
,
0000
0000
0000
0030
,
0200
0000
0000
0000
,
0000
0000
0000
0300
,
0020
0000
0000
0000
,
0000
0000
0000
0030
,
0200
0000
0000
0000
,
0000
0000
0300
0000
,
1000
1000
0000
0000
,
0001
0001
0000
0000
,
0010
0010
0000
0000
,
0100
0100
0100
0000
,
0010
0000
0000
0000
0000
0000
0000
0100
,
0000
0000
0000
0000
0000
0000
0000
0000
0000
0000
0000
0000
0000
0010
0000
0000
,
0000
0010
0000
0000
0000
0010
0000
0000
0000
0010
0000
0000
0000
0010
0000
0000
,
0000
0000
0000
0000
0000
0000
0000
0000
0000
0000
0000
0000
0000
1000
0000
0000
,
0000
0000
0000
0000
0000
1000
0000
0000
0000
0000
0000
0000
0000
0001
0000
0000
,
0000
0000
0000
0000
0000
0001
0000
0000
0000
0000
0000
0000
0000
0000
0000
0000
,
0000
0001
0000
0000
0000
0000
0000
0000
0000
1000
0000
0000
0000
0000
0000
0000
,
0000
0001
0000
0000
0000
0000
0000
0000
0000
0000
0000
0000
0000
0001
0000
0000
,
0000
0001
0000
0000
0000
0001
0000
0000
0000
0000
0000
0000
0000
1000
0000
0000
,
0000
0000
0000
0000
0000
1000
0000
0000
0000
0000
0000
0000
0000
1000
0000
0000
,
0000
1000
0000
0000
0000
1000
0000
0000
0000
0000
0000
0000
0000
0010
0000
0000
,
0000
0010
0000
0000
0000
0010
0000
0000
0000
0000
0000
0000
0000
1000
0000
0000
,
0000
0000
0000
0000
0000
1000
0000
0000
0000
0000
0000
0000
0000
1000
0000
0000
,
0000
0000
0000
0000
0000
1000
0000
0000
0000
0000
0000
0000
0000
0001
0000
0000
,
0000
0000
0000
0000
0000
0001
0000
0000
0000
0000
0000
0000
0000
0001
0000
0000
,
0000
0000
0000
0000
0000
0001
0000
0000
0000
0000
0000
0000
0000
0000
0000
0000
,
0000
0000
0000
0000
;
#NOTES:
     dance-single:
     :
     Easy:
     5:
     :
0000
0000
0000
0000
,
0000
0000
0000
0000
,
0000
0000
0000
0000
,
0000
0000
0000
0000
,
0000
0000
0000
0000
,
1000
1000
0001
0001
,
0100
0100
0100
0000
,
0001
0001
1000
1000
,
0100
0100
0100
0000
,
0010
0010
0100
0000
,
1000
0100
0001
0000
,
1000
1000
0001
0001
,
0100
0000
0010
0000
,
1000
0000
0010
0000
,
0001
0010
1000
0000
,
0001
0001
1000
1000
,
0010
0000
0010
0000
,
1000
0000
0100
0000
,
0001
0100
1000
0000
,
0001
0001
1000
1000
,
0100
0000
0100
0000
,
0001
0000
0001
0100
,
1000
0100
1001
0000
,
1000
0000
0001
0000
,
0010
0010
0100
0000
,
1000
0010
0100
0000
,
0001
0100
0010
0000
,
0010
0001
0010
0000
,
0010
1000
0010
0000
,
0010
0001
0010
1000
,
0010
0001
0010
0000
,
0100
0001
0100
0000
,
0100
1000
0100
0000
,
1000
1000
0001
0001
,
0220
0000
0000
0330
,
0000
0000
0000
0000
,
0020
0000
0001
0000
,
0100
0000
0001
0030
,
0200
0000
1000
0000
,
0010
0000
0001
0300
,
0020
0000
0001
0000
,
0100
0000
0001
0030
,
0200
0000
0001
0000
,
0010
0010
0010
0310
,
0001
0010
0100
1000
,
1000
0010
0100
0000
,
0001
1000
0001
1000
,
0100
0100
0100
0000
,
0020
0000
0000
0030
0000
0000
0000
0200
,
0000
0000
0000
0000
0300
0000
0000
0000
0000
0010
0000
0000
0000
0010
0000
0000
,
0000
0010
0000
0000
0000
0010
0000
0000
0000
0010
0000
0000
0000
0010
0000
0000
,
0000
0000
0000
0000
0000
0000
0000
0000
0000
0000
0000
0000
0000
1000
0000
0000
,
0000
0100
0000
0000
0000
1000
0000
0000
0000
0000
0000
0000
0000
0001
0000
0000
,
0000
0100
0000
0000
0000
0001
0000
0000
0000
0000
0000
0000
0000
0010
0000
0000
,
0000
0001
0000
0000
0000
0100
0000
0000
0000
1000
0000
0000
0000
0100
0000
0000
,
0000
0001
0000
0000
0000
0010
0000
0000
0000
0000
0000
0000
0000
0001
0000
0000
,
0000
0100
0000
0000
0000
1000
0000
0000
0000
0100
0000
0000
0000
0010
0000
0000
,
0000
0100
0000
0000
0000
0001
0000
0000
0000
0000
0000
0000
0000
1000
0000
0000
,
0000
0010
0000
0000
0000
0001
0000
0000
0000
0010
0000
0000
0000
0100
0000
0000
,
0000
0010
0000
0000
0000
0010
0000
0000
0000
0000
0000
0000
0000
1000
0000
0000
,
0000
0001
0000
0000
0000
1000
0000
0000
0000
1000
0000
0000
0000
1000
0000
0000
,
0000
0001
0000
0000
0000
1000
0000
0000
0000
1000
0000
0000
0000
0001
0000
0000
,
0000
1000
0000
0000
0000
0001
0000
0000
0000
0001
0000
0000
0000
0001
0000
0000
,
0000
1000
0000
0000
0000
0001
0000
0000
0000
0001
0000
0000
0000
1001
0000
0000
,
0000
0000
0000
0000
;
#NOTES:
     dance-single:
     :
     Medium:
     9:
     :
0000
0000
0000
0000
,
0000
0000
0000
0000
,
0000
0000
0000
0000
,
0000
0000
0000
0000
,
0000
0000
0000
0000
,
1000
0100
1000
0000
0001
0000
1100
0000
,
0100
0000
1000
0000
0100
0000
0001
0100
,
1000
1000
0101
1000
,
0100
0001
0100
0000
,
1000
1001
1000
0010
,
0001
0010
0110
0000
,
1000
0000
0100
0000
0010
0000
0100
1000
,
0100
0001
0100
1000
,
0010
0000
0001
0000
0010
0000
1000
0100
,
1000
0000
0010
0100
0010
0000
0000
0000
,
1100
1000
0011
0001
,
0100
0010
0100
0000
0001
0000
0000
0000
,
0100
0010
0100
0000
0001
0010
0001
0000
,
1000
0000
0100
1000
0100
0000
0000
0000
,
0010
0100
0010
0000
0010
0001
0010
0000
,
0100
0000
0001
0010
0001
0000
0001
0100
,
1000
0110
0001
0110
,
1001
0000
0000
1001
0000
0100
0000
0000
,
0001
0000
1000
0000
0010
0100
0001
0000
,
0001
0000
1000
0000
0000
0001
0000
1000
0000
0001
0000
0000
0000
0000
0000
0000
,
1000
0000
0000
0001
0000
0000
1000
0000
0000
0001
0000
0000
0000
0000
0000
0000
,
1000
0000
0000
0100
0000
0000
0010
0000
0000
0001
0000
0000
0000
0000
0000
0000
,
0010
0000
0001
0000
0010
0000
1000
0010
,
0100
0000
1000
0000
0010
0000
1000
0010
,
0001
0000
0010
0000
1000
0000
0010
0100
,
0001
0000
1000
0000
0010
0100
0010
0000
,
1000
0000
0100
0000
0001
0000
0100
0010
,
0100
0000
1000
0100
1000
0100
0001
0000
,
0010
0110
0010
0011
,
0220
0000
0000
0330
,
2002
0000
0000
3003
,
0020
0001
0100
0001
,
0100
0000
0000
0030
,
0200
1000
0010
0001
,
0010
0000
0000
0300
,
0020
0001
0100
1000
,
0100
0000
0000
0030
,
0200
0000
0000
0000
,
0010
0010
0010
0310
,
0001
0010
0100
0000
0100
0000
1000
0000
,
1000
0100
0010
0000
0100
0000
1000
0000
,
0001
1000
0100
0000
1000
0000
0100
0000
,
0011
0101
1100
1010
,
0001
0000
0000
1000
0000
0000
0100
0000
0000
0000
0000
0000
0000
0000
1000
0000
,
0000
0001
0000
0000
1000
0000
0000
0000
0000
0010
0000
0000
0000
0010
0000
0100
,
0000
0010
0000
0000
0000
0100
0000
0010
0000
0100
0000
0000
0000
0010
0000
0000
,
0000
0000
0000
0000
0000
0000
0000
0000
0000
0000
0000
0000
0000
1000
0000
0001
,
0000
0100
0000
0000
0000
0001
0000
0000
0000
0100
0000
0000
0000
0001
0000
1000
,
0000
0100
0000
0000
0000
1000
0000
0000
0000
0010
0000
0000
0000
0010
0000
1000
,
0000
0001
0000
0000
0000
0100
0000
0000
0000
1000
0000
0000
0000
0100
0000
0000
,
0000
0001
0000
0010
0000
0001
0000
0000
0000
0000
0000
0000
0000
0001
0000
0000
,
0000
0100
0000
0000
0000
1000
0000
0100
0000
1000
0000
0000
0000
0010
0000
0000
,
0000
0100
0000
0000
0000
0001
0000
0000
0000
1001
0000
0000
0000
1000
0000
0000
,
0000
0100
0000
0000
0000
0001
0000
0100
0000
0001
0000
0000
0000
0110
0000
0000
,
0000
1100
0000
0000
0000
1001
0000
0000
0000
0000
0000
0000
0000
1000
0000
0100
,
0000
1000
0000
0010
0000
1000
0000
0000
0000
0001
0000
0000
0000
1000
0000
0000
,
0000
0001
0000
0000
0000
1000
0000
0000
0000
1000
0000
0100
0000
0001
0000
0000
,
0000
0100
0000
0000
0000
1000
0000
0000
0000
0001
0000
0000
0000
1000
0000
0000
,
0001
0000
0000
1000
0000
0000
0001
0000
0000
1000
0000
0100
0000
1000
0000
0100
,
0000
0000
0000
0000
;
#NOTES:
     dance-single:
     :
     Hard:
     12:
     :
0000
0000
0000
0000
,
0000
0000
0000
0000
,
0000
0000
0000
0000
,
0000
0000
0000
0000
,
0000
0000
0000
0000
,
1000
0100
1000
0000
0000
0000
1000
0000
0001
0000
0000
0010
0000
0000
0000
0000
,
0001
0000
0000
1000
0000
0000
0100
0000
0010
0000
0000
0100
0000
0000
1000
0000
,
0001
0100
0001
0000
0000
0000
0001
0000
1000
0000
0000
0010
0000
0000
0000
0000
,
1000
0000
0000
0001
0000
0000
0100
0000
0010
0000
0000
0100
0000
0000
0000
0000
,
0001
0000
0000
1000
0000
0000
0100
0000
1000
0000
0000
0010
0000
0000
0100
0000
,
0010
0000
0000
0100
0000
0000
0001
0000
0100
0010
0000
1000
0000
0000
0100
0000
,
1000
0000
0000
0100
0000
0000
1000
0000
0001
0000
0000
0100
0000
0000
0001
0000
,
1000
0000
0000
0001
0000
0000
0010
0001
0010
0000
0000
0010
0000
0001
0010
0001
,
1000
0000
0010
0000
0000
0000
0010
0000
1000
0000
0000
0001
0000
0000
0100
0000
,
0001
0000
0000
0100
0000
0000
0110
0000
0000
0000
0000
0000
0000
0000
0001
0010
,
0001
0000
0000
1000
0000
0000
0100
0000
1000
0000
0000
0001
0000
0000
1000
0000
,
0100
0000
0010
0100
0000
0000
0000
0000
1000
0000
0010
0000
0100
0000
0001
0000
,
0100
0000
0000
0010
0100
0000
0000
0000
0001
0000
0000
1000
0010
0000
0000
0000
,
1000
0000
0000
0001
0100
0000
1000
0000
0100
0000
0000
0001
0000
0000
0000
0000
,
1000
0000
0000
0100
0000
0000
1000
0000
0010
0000
0000
1000
0000
0000
0001
0000
,
0100
0000
0010
0100
0000
0000
0010
0000
1000
0000
0010
0000
0001
0000
0010
0000
,
1000
0110
0001
0110
,
1001
0000
0000
0010
0000
0000
1001
0000
0000
0000
0100
0000
0000
0000
0000
0000
,
0001
0000
0000
1000
0000
0000
0100
0000
0010
0000
0001
1000
0000
0000
0000
0000
,
0001
0000
1000
0000
0000
0001
0000
0010
0000
0100
0000
0000
0000
0000
0000
0000
,
1100
0000
0000
0110
0000
0000
0011
0000
0000
1001
0000
0000
0000
0000
0000
0000
,
0011
0000
0000
0110
0000
0000
1100
0000
0000
1001
0000
0000
0000
0000
0000
0000
,
0010
0000
0000
0010
0001
0000
0000
0000
0010
0000
0000
0100
1000
0000
0100
0000
,
0010
0000
0000
0010
0001
0000
0000
0000
0010
0000
0000
0100
1000
0000
0010
0000
,
0010
0000
0000
0100
1000
0000
0000
0000
1000
0000
0000
0100
0010
0000
0000
0000
,
0010
0000
0000
1000
0001
0000
0000
0000
0100
0000
0010
0000
0100
0000
0010
0000
,
1000
0010
0100
0001
0100
1000
0100
0001
,
0100
0001
1000
0100
0001
0100
1000
0000
,
1000
0000
0000
1100
0000
0000
0000
0000
0001
0000
0000
0011
0000
0000
0000
0000
,
0220
0000
0000
0330
,
1000
0010
0100
0001
0100
0010
0100
0010
1000
0100
0000
0000
,
0020
0001
0100
1000
,
0100
0001
0001
0130
,
0200
1000
0010
0001
,
0010
1000
0010
0301
,
0020
0001
0100
1000
,
0100
0001
0100
1030
,
0200
0010
0001
0010
,
1000
0010
0010
0310
,
0001
0010
0100
0010
0100
1000
0100
0010
,
0001
0100
0010
1000
0010
0000
0001
0000
,
1000
0000
0010
0000
0100
0000
0010
0000
1000
0000
0010
0000
0100
0000
0001
0010
,
0001
0101
1100
1010
,
0011
0000
0000
1001
0000
0000
0101
0000
0000
0001
0010
0001
0000
0000
0101
0000
,
0000
0110
0000
0000
1010
0000
0000
0010
0100
0010
0000
0000
0000
1000
0000
0100
,
0000
0010
0000
1000
0000
0100
0000
0010
0000
0100
0000
0001
0000
0010
0000
0000
,
0000
0000
0000
0000
0000
0000
0000
0000
0000
0000
0000
0000
0000
1000
0000
0001
,
0000
0100
0000
0000
0001
0000
0000
0001
0000
0100
1000
0100
0000
0001
0000
1000
,
0000
0100
0000
0000
1000
0000
0000
0001
0000
0010
0100
0010
0000
0001
0000
1000
,
0000
0001
0000
0000
0100
0000
0000
0100
0000
0001
0100
1000
0000
0100
0000
0001
,
0000
0100
0010
0100
0000
0001
0000
0100
0000
1000
0000
0100
0010
0100
0000
1000
,
0000
0100
0000
0010
0000
1000
0000
0100
0000
1000
0000
0001
0000
0010
0000
0100
,
0000
0001
0000
0100
0000
1000
0000
0001
0100
0000
0010
0000
0000
1000
0000
0001
,
0000
0010
0000
0100
0000
0010
0000
0001
0000
1000
0000
0010
0000
1000
0010
0000
,
1000
0100
0000
1000
0100
0000
1000
0100
1000
0000
0001
0000
0000
1000
0100
0000
,
1000
0000
0000
0001
0000
0000
1000
0000
0000
0100
0000
0000
0100
0000
0000
0010
,
0000
0000
0001
0000
0000
1000
0100
1000
0000
0001
0000
0010
0000
0001
0000
0000
,
0001
0000
0000
1000
0000
0000
0001
0000
0000
0100
0000
0010
0000
0100
0000
0000
,
1001
0000
0000
0110
0000
0000
1010
0000
0000
1000
0010
1000
0000
0001
0000
0200
,
0000
0000
0000
0000
0000
0000
0000
0000
0000
0000
0000
0300
0000
0000
0000
0000
,
0000
0000
0000
0000
;
#NOTES:
     dance-double:
     :
     Easy:
     5:
     :
00000000
00000000
00000000
00000000
,
00000000
00000000
00000000
00000000
,
00000000
00000000
00000000
00000000
,
00000000
00000000
00000000
00000000
,
00000000
00000000
00000000
00000000
,
00010000
00010000
10000000
00000000
,
01000000
00010000
00001000
00000000
,
00000010
00000001
00001000
00000000
,
00000010
00000100
00001000
00000000
,
00100000
00100000
01000000
00000000
,
10000000
01000000
00010000
00000000
,
00001000
00001000
00010000
00010000
,
00000100
00000000
00000010
00000000
,
00000100
00000000
00000010
00000000
,
00000001
00000010
00001000
00000000
,
00010000
00010000
01000000
01000000
,
00100000
00001000
00000000
00000000
,
00000010
00000110
00000100
00001001
,
00000001
00000100
00001000
00000000
,
00010000
00010000
00001000
00001000
,
00010000
01000000
10000000
00000000
,
01000000
00000000
01000000
00000000
,
10000000
00100000
00010000
00011000
,
00001000
00010000
00000100
00000100
,
00000010
00000010
00000110
00000000
,
00000001
00000010
00000100
00000000
,
00010000
00001000
00010000
00000000
,
00100000
00010000
00100000
10000000
,
00100000
00010000
00001000
00000100
,
00000010
00000001
00000010
00001000
,
00000010
00000001
00000010
00000000
,
00000100
00000001
00000100
00000000
,
00001000
00010000
00001000
00000000
,
00001000
00011000
00010000
01100000
,
02200000
00000000
00000000
03300000
,
00000000
00000000
00000000
00000000
,
00020000
00000000
00000000
00000000
,
00000000
00000000
00000000
00000000
,
00030200
00000000
00000000
00000000
,
00000010
00000000
00000001
00000300
,
00002000
00000000
00000000
00000000
,
00000000
00000000
00000000
00003000
,
00200000
00000000
00000000
00000000
,
01000000
01000000
10000000
10000000
,
10300000
10000000
00100000
00010000
,
00001000
00000010
00000100
00000000
,
00000001
00000100
00001000
00001000
,
00000010
00000100
00001000
00010000
,
00200000
00000000
00000000
00300000
00000000
00000000
00000000
02000000
,
00000000
00000000
00000000
00000000
03000000
00000000
00000000
00000000
00000000
00100000
00000000
00000000
00000000
10000000
00000000
00000000
,
00000000
01000000
00000000
00000000
00000000
00010000
00000000
00000000
00000000
00001000
00000000
00000000
00000000
00000010
00000000
00000000
,
00000000
00000000
00000000
00000000
00000000
00000000
00000000
00000000
00000000
00000000
00000000
00000000
00000000
00000001
00000000
00000000
,
00000000
00000100
00000000
00000000
00000000
00000001
00000000
00000000
00000000
00000001
00000000
00000000
00000000
00000010
00000000
00000000
,
00000000
00001000
00000000
00000000
00000000
00010000
00000000
00000000
00000000
00000000
00000000
00000000
00000000
00100000
00000000
00000000
,
00000000
10000000
00000000
00000000
00000000
01000000
00000000
00000000
00000000
10000000
00000000
00000000
00000000
01100000
00000000
00000000
,
00000000
00000000
00000000
00000000
00000000
10010000
00000000
00000000
00000000
00000000
00000000
00000000
00000000
10000000
00000000
00000000
,
00000000
01000000
00000000
00000000
00000000
00010000
00000000
00000000
00000000
01000000
00000000
00000000
00000000
00010000
00000000
00000000
,
00000000
00001000
00000000
00000000
00000000
00000100
00000000
00000000
00000000
00000000
00000000
00000000
00000000
00001000
00000000
00000000
,
00000000
00000100
00000000
00000000
00000000
00000001
00000000
00000000
00000000
00000010
00000000
00000000
00000000
00000100
00000000
00000000
,
00000000
00000010
00000000
00000000
00000000
00000010
00000000
00000000
00000000
00000000
00000000
00000000
00000000
00000001
00000000
00000000
,
00000000
00000001
00000000
00000000
00000000
00001000
00000000
00000000
00000000
00001000
00000000
00000000
00000000
00000001
00000000
00000000
,
00000000
00000010
00000000
00000000
00000000
00001000
00000000
00000000
00000000
00001000
00000000
00000000
00000000
00010000
00000000
00000000
,
00000000
00100000
00000000
00000000
00000000
00010000
00000000
00000000
00000000
00010000
00000000
00000000
00000000
00010000
00000000
00000000
,
00000000
00100000
00000000
00000000
00000000
10000000
00000000
00000000
00000000
10000000
00000000
00000000
00000000
10010000
00000000
00000000
,
00000000
00000000
00000000
00000000
;
#NOTES:
     dance-double:
     :
     Medium:
     9:
     :
00000000
00000000
00000000
00000000
,
00000000
00000000
00000000
00000000
,
00000000
00000000
00000000
00000000
,
00000000
00000000
00000000
00000000
,
00000000
00000000
00000000
00000000
,
10000000
01000000
10000000
00000000
00010000
00000000
11000000
00000000
,
01000000
10000000
01000000
00010000
,
00001000
00000100
00001000
00000000
00000110
00000000
00001000
00000000
,
00000100
00000001
00000100
00000000
,
00001000
00011000
01000000
00100000
,
00010000
00100000
01100000
00000000
,
10000000
00000000
01000000
00000000
00100000
00000000
01000000
00010000
,
00001000
00000010
00000100
00001000
,
00000010
00000000
00000001
00000000
00000010
00000000
00001000
00000100
,
00010000
00001000
00010000
01000000
,
10000000
10000000
01000000
00010000
,
00001000
00010000
00000100
00000000
00000010
00000000
00000001
00000000
,
00000100
00000010
00000100
00000000
00001000
00010000
00001000
00000000
,
00100000
00000000
01000000
10000000
01000000
00000000
00000000
00000000
,
00100000
01000000
00100000
00000000
00001000
00010000
00001000
00000000
,
00000100
00000000
00000001
00000010
00000001
00000000
00000001
00000100
,
00001000
00000110
00000001
00000110
,
00000100
00000000
00001000
00000000
00000000
00011000
00000000
00000000
,
00010000
00000000
01000000
00000000
00100000
01000000
10000000
00000000
,
00010000
00000000
10000000
00000000
00000000
00010000
00000000
10000000
00000000
00010000
00000000
00000000
00000000
00000000
00000000
00000000
,
10000000
00000000
00000000
01000000
00000000
00000000
00010000
00000000
00000000
00001000
00000000
00000000
00000000
00000000
00000000
00000000
,
00010000
00000000
00000000
00001000
00000000
00000000
00000010
00000000
00000000
00000001
00000000
00000000
00000000
00000000
00000000
00000000
,
00000010
00000000
00000001
00000000
00000010
00000000
00001000
00000010
,
00000100
00000000
00001000
00000000
00000010
00000000
00001000
00000010
,
00000100
00000000
00001000
00000000
00010000
00000000
00100000
01000000
,
00010000
00000000
10000000
00000000
00100000
01000000
00100000
00000000
,
10000000
00000000
01000000
00000000
00010000
00000000
00001000
00000100
,
00000001
00000000
00001000
00000100
00001000
00000100
00000001
00000000
,
00000100
00000110
00000010
00000011
,
00002002
00000000
00000000
00003003
,
00000220
00000000
00000000
00000330
,
00000020
00001000
00000100
00001000
,
00000100
00000000
00000000
00000030
,
00020000
00001000
00100000
00001000
,
00100000
00000000
00000000
00030000
,
00200000
00010000
01000000
10000000
,
01000000
00000000
00000000
00300000
,
02000000
00000000
00000000
03000000
,
10000000
01000000
00100000
00010000
,
00001000
00000010
00000100
00000000
00000100
00000000
00001000
00000000
,
00001000
00000100
00000010
00000000
00001000
00000000
00010000
00000000
,
00100000
10000000
01000000
00000000
10000000
00000000
01000000
00000000
,
00110000
00011000
00001010
00000011
,
00000001
00000000
00000000
00001000
00000000
00000000
00000100
00000000
00000000
00000000
00000000
00000000
00000000
00000000
00000010
00000000
,
00000000
00001000
00000000
00000000
00010000
00000000
00000000
00000000
00000000
00100000
00000000
00000000
00000000
00100000
00000000
01000000
,
00000000
00100000
00000000
00000000
00000000
01000000
00000000
00100000
00000000
01000000
00000000
00000000
00000000
00100000
00000000
00000000
,
00000000
00000000
00000000
00000000
00000000
00000000
00000000
00000000
00000000
00000000
00000000
00000000
00000000
10000000
00000000
00010000
,
00000000
01000000
00000000
00000000
00000000
00010000
00000000
00000000
00000000
01000000
00000000
00000000
00000000
00010000
00000000
10000000
,
00000000
01000000
00000000
00000000
00000000
10000000
00000000
00000000
00000000
00100000
00000000
00000000
00000000
00010000
00000000
00001000
,
00000000
00000100
00000000
00000000
00000000
00000010
00000000
00000000
00000000
00000100
00000000
00000000
00000000
00000010
00000000
00000000
,
00000000
00000001
00000000
00000010
00000000
00001000
00000000
00000000
00000000
00000100
00000000
00000000
00000000
00010000
00000000
00000000
,
00000000
01000000
00000000
00000000
00000000
10000000
00000000
01000000
00000000
10000000
00000000
00000000
00000000
00100000
00000000
00000000
,
00000000
01000000
00000000
00000000
00000000
00100000
00000000
00000000
00000000
00010000
00000000
00000000
00000000
00001000
00000000
00000000
,
00000000
00000100
00000000
00000000
00000000
00000001
00000000
00000100
00000000
00000001
00000000
00000000
00000000
00000110
00000000
00000000
,
00000000
00001100
00000000
00000000
00000000
00010000
00000000
00000000
00000000
00001000
00000000
00000000
00000000
00010000
00000000
01000000
,
00000000
10000000
00000000
00100000
00000000
10000000
00000000
00000000
00000000
00010000
00000000
00000000
00000000
10000000
00000000
00000000
,
00000000
00010000
00000000
00000000
00000000
10000000
00000000
00000000
00000000
10000000
00000000
01000000
00000000
00010000
00000000
00000000
,
00000000
00001000
00000000
00000000
00000000
00000010
00000000
00000000
00000000
00000001
00000000
00000000
00000000
00001000
00000000
00000000
,
00000001
00000000
00000000
00001000
00000000
00000000
00000100
00000000
00000000
00010000
00000000
00000100
00000000
00010000
00000000
00000100
,
00000000
00000000
00000000
00000000
;
#NOTES:
     dance-double:
     :
     Hard:
     12:
     :
00000000
00000000
00000000
00000000
,
00000000
00000000
00000000
00000000
,
00000000
00000000
00000000
00000000
,
00000000
00000000
00000000
00000000
,
00000000
00000000
00000000
00000000
,
10000000
01000000
10000000
00000000
00000000
00000000
10000000
00000000
00010000
00000000
00000000
00100000
00000000
00000000
00000000
00000000
,
00010000
00000000
00000000
10000000
00000000
00000000
01000000
00000000
00010000
00000000
00000000
00001000
00000000
00000000
00000010
00000000
,
00000001
00000100
00000001
00000000
00000000
00000000
00000001
00000000
00001000
00000000
00000000
00000010
00000000
00000000
00000000
00000000
,
00001000
00000000
00000000
00000001
00000000
00000000
00000100
00000000
00001000
00000000
00000000
00010000
00000000
00000000
00000000
00000000
,
00100000
00000000
00000000
10000000
00000000
00000000
01000000
00000000
10000000
00000000
00000000
00100000
00000000
00000000
01000000
00000000
,
00100000
00000000
00000000
01000000
00000000
00000000
00010000
00000000
01000000
00100000
00000000
10000000
00000000
00000000
01000000
00000000
,
00010000
00000000
00000000
00000100
00000000
00000000
00001000
00000000
00000010
00000000
00000000
00000100
00000000
00000000
00000001
00000000
,
00001000
00000000
00000000
00000001
00000000
00000000
00000010
00000001
00000010
00000000
00000000
00000010
00000000
00000001
00000010
00000001
,
00001000
00000000
00000010
00000000
00000000
00000000
00000100
00000000
00001000
00000000
00000000
00010000
00000000
00000000
01000000
00000000
,
10000000
00000000
00000000
01000000
00000000
00000000
01100000
00000000
00000000
00000000
00000000
00000000
00000000
00000000
00010000
00100000
,
00010000
00000000
00000000
10000000
00000000
00000000
01000000
00000000
00010000
00000000
00000000
00001000
00000000
00000000
00001000
00000000
,
00000100
00000000
00000010
00000100
00000000
00000000
00000000
00000000
00001000
00000000
00000010
00000000
00000100
00000000
00000001
00000000
,
00000100
00000000
00000000
00000010
00000100
00000000
00000000
00000000
00001000
00000000
00000000
00010000
00100000
00000000
00000000
00000000
,
10000000
00000000
00000000
00010000
01000000
00000000
10000000
00000000
01000000
00000000
00000000
00010000
00000000
00000000
00000000
00000000
,
10000000
00000000
00000000
01000000
00000000
00000000
00010000
00000000
00001000
00000000
00000000
00000010
00000000
00000000
00000001
00000000
,
00000100
00000000
00000010
00000100
00000000
00000000
00000010
00000000
00001000
00000000
00000010
00000000
00000001
00000000
00000010
00000000
,
00001000
00001100
00001000
00011000
,
00110000
00000000
00000000
00100000
00000000
00000000
10100000
00000000
00000000
00000000
01000000
00000000
00000000
00000000
00000000
00000000
,
00010000
00000000
00000000
00001000
00000000
00000000
00000100
00000000
00000010
00000000
00000001
00000010
00000000
00000000
00000000
00000000
,
00000010
00000000
00001000
00000000
00000000
00000001
00000000
00000010
00000000
00000100
00000000
00000000
00000000
00000000
00000000
00000000
,
00001100
00000000
00000000
00010000
00000000
00000000
00100000
00000000
00000000
10100000
00000000
00000000
00000000
00000000
00000000
00000000
,
11000000
00000000
00000000
01000000
00000000
00000000
00010000
00000000
00000000
00011000
00000000
00000000
00000000
00000000
00000000
00000000
,
00000010
00000000
00000000
00000010
00000001
00000000
00000000
00000000
00000010
00000000
00000000
00000100
00001000
00000000
00000100
00000000
,
00010000
00000000
00000000
00100000
01000000
00000000
00000000
00000000
00100000
00000000
00000000
01000000
10000000
00000000
01000000
00000000
,
00100000
00000000
00000000
01000000
00001000
00000000
00000000
00000000
00010000
00000000
00000000
00001000
00000010
00000000
00000000
00000000
,
00000010
00000000
00000000
00000001
00000100
00000000
00000000
00000000
00000100
00000000
00000010
00000000
00000100
00000000
00000010
00000000
,
00000100
00001000
00010000
00100000
01000000
10000000
01000000
00010000
,
01000000
00010000
10000000
01000000
00010000
01000000
10000000
00000000
,
10000000
00000000
00000000
01100000
00000000
00000000
00000000
00000000
00010000
00000000
00000000
00011000
00000000
00000000
00000000
00000000
,
00002200
00000000
00000000
00003300
,
00001000
00000010
00000100
00000001
00000100
00001000
00010000
00001000
00010000
01000000
00000000
00000000
,
00200000
00010000
01000000
10000000
,
01000000
00010000
00010000
01300000
,
00002000
00010000
00000010
00010000
,
00100000
00010000
00000100
00013000
,
02000000
00010000
00100000
10000000
,
00100000
00010000
00100000
03001000
,
00020000
00000010
00001000
00000010
,
01000000
00001000
00001000
00001000
,
00031000
00000010
00000100
00000010
00000100
00000001
00000100
00000010
,
00000001
00000100
00000010
00000001
00000010
00000000
00000100
00000000
,
00001000
00000000
00100000
00000000
01000000
00000000
00100000
00000000
10000000
00000000
00100000
00000000
01000000
00000000
00010000
00001000
,
00010000
00001100
00000110
00000101
,
00000001
00000000
00000000
00000100
00000000
00000000
00011000
00000000
00000000
00010000
00001000
00010000
00001000
00000000
01010000
00000000
,
00000000
11000000
00000000
00000000
01000000
00000000
00100000
01000000
00100000
01000000
00000000
00000000
00000000
10000000
00000000
01000000
,
00000000
00100000
00000000
01000000
00000000
00010000
00000000
00001000
00000000
00000100
00000000
00000001
00000000
00000000
00000000
00000000
,
00000000
00000000
00000000
00000000
00000000
00000000
00000000
00000000
00000000
00000000
00000000
00000000
00000000
00000010
00000000
00001000
,
00000000
00010000
00000000
00000000
01000000
00000000
00000000
10000000
00000000
01000000
10000000
01000000
00000000
10000000
00000000
00010000
,
00000000
01000000
00000000
00000000
10000000
00000000
00000000
01000000
00000000
00100000
01000000
00100000
00000000
01000000
00000000
00001000
,
00000000
00010000
00000000
00000000
00000100
00000000
00000000
00001000
00000000
00000001
00000100
00001000
00000000
00000100
00000000
00000001
,
00000000
00000100
00000010
00000100
00000000
00000001
00000000
00000100
00000000
00001000
00000000
00010000
00001000
00010000
00000000
00100000
,
00000000
01000000
00000000
00100000
00000000
10000000
00000000
01000000
00000000
10000000
00000000
00010000
00000000
00100000
00000000
01000000
,
00000000
00010000
00000000
00001000
00000000
00000100
00000000
00000001
00000100
00000000
00000010
00000000
00000000
00001000
00000000
00000010
,
00000000
00000001
00000000
00000010
00000000
00000100
00000000
00001000
00000000
00010000
00000000
00100000
00000000
10000000
00100000
00000000
,
10000000
01000000
00000000
10000000
01000000
00000000
10000000
01000000
10000000
00000000
00010000
00000000
00000000
10000000
01000000
00000000
,
00010000
00000000
00000000
00001000
00000000
00000000
00000010
00000000
00000000
00000100
00000000
00000000
00000100
00000000
00000000
00000010
,
00000000
00000000
00000001
00000000
00000000
00001000
00000100
00001000
00000000
00000001
00000000
00000010
00000000
00000001
00000000
00000000
,
00000100
00000000
00000000
00001000
00000000
00000000
00010000
00000000
00000000
01000000
00000000
00010000
00000000
01000000
00000000
00000000
,
10010000
00000000
00000000
01100000
00000000
00000000
00011000
00000000
00000000
00001000
00010000
00001000
00000000
00000100
00000000
00000020
,
00000000
00000000
00000000
00000000
00000000
00000000
00000000
00000000
00000000
00000000
00000000
00000030
00000000
00000000
00000000
00000000
,
00000000
00000000
00000000
00000000
;
