
//----- song ID: tool -----//
#TITLE:Time Of Our Lives;
#ARTIST:Pitbull;
#BANNER:Time Of Our Lives.png;
#BACKGROUND:Time Of Our Lives-bg.png;
#CDTITLE:./CDTitles/DDR A.png;
#MUSIC:Time Of Our Lives.ogg;
#SAMPLESTART:78.57;
#SAMPLELENGTH:15;
#BPMS:0=124;
#NOTES:
     dance-single:
     :
     Beginner:
     2:
     :
0000
0000
0000
0000
,
0000
0000
0000
0000
,
0000
0000
0000
0000
,
0000
0000
0000
0000
,
0001
0000
0100
0000
,
1000
0000
0000
0000
,
0001
0000
0000
0000
,
0020
0000
0030
0000
,
0200
0000
0300
0000
,
0001
0000
0000
0000
,
1000
0000
0000
0000
,
0010
0000
0000
0000
,
0000
0000
0000
0000
,
1000
0000
0000
0000
,
0001
0000
0000
0000
,
0010
0000
0000
0000
,
0000
0000
0000
0000
,
0001
0000
1000
0000
,
0001
0000
0001
0000
,
1000
0000
0001
0000
,
0000
0000
0000
0000
,
0001
0000
1000
0000
,
0001
0000
1000
0000
,
0010
0000
0000
0000
,
0100
0100
0100
0000
,
0001
0000
1000
0000
,
0001
0000
1000
0000
,
0100
0000
0000
0000
,
0010
0010
0010
0000
,
0000
0000
0000
0010
,
0000
0000
0000
0100
,
0000
0000
0000
0010
,
0000
0000
0000
0000
,
1000
0000
0000
0000
,
0001
0000
0000
0000
,
2000
0000
3000
0000
,
0002
0000
0003
0000
,
1000
1000
0000
0000
,
0001
0001
0000
0000
,
0020
0000
0030
0000
,
0200
0000
0300
0000
,
0001
0000
0000
0000
,
0001
0001
0001
0000
,
1000
0000
1000
0000
,
1000
0000
0000
0000
,
1000
0000
0000
0000
,
0001
0001
0001
0000
,
0010
0000
0000
0000
,
0100
0100
0100
0100
,
0000
0000
0000
0000
;
#NOTES:
     dance-single:
     :
     Easy:
     5:
     :
0000
0000
0000
0000
,
0000
0000
0000
0000
,
0000
0000
0000
0000
,
0000
0000
0000
0000
,
0002
0000
0103
0000
,
1000
1000
0000
0000
,
0001
0001
0000
0000
,
0020
0000
0130
0000
,
0200
0000
0310
0000
,
0001
0001
1000
0000
,
1000
1000
0001
0000
,
0000
0010
0000
0100
,
0000
1000
0000
0001
,
1000
1000
0001
0000
,
0001
0001
1000
0000
,
0000
0010
0000
0100
,
0000
0100
0100
0100
,
0001
0001
1000
1000
,
0001
0100
0001
0000
,
1000
1000
0001
0001
,
0002
0000
0103
0000
,
0001
0000
1000
0000
,
0001
0001
1000
0000
,
0010
0000
0010
0000
,
0100
0100
0100
0000
,
0001
0001
1000
1000
,
0001
0001
1000
1000
,
0002
0103
2000
3100
,
0010
0010
0010
0010
,
0000
0000
1000
0001
,
0000
0000
0001
1000
,
0000
0000
0010
0100
,
0000
0000
0100
0100
,
1000
0100
0010
0001
,
0001
0100
0010
0000
,
2000
0000
3100
0000
,
0002
0000
0103
0000
,
1000
1000
0000
0000
,
0001
0001
0000
0000
,
0020
0000
0130
0000
,
0200
0000
0310
0000
,
0001
0001
1000
1000
,
0001
1000
0001
0000
,
1000
0010
1000
0010
,
1000
1000
0001
0001
,
1000
1000
0001
0001
,
1000
0001
1000
0000
,
0001
0010
0001
0010
,
0001
0001
2000
3100
,
0000
0000
0000
0000
;
#NOTES:
     dance-single:
     :
     Medium:
     9:
     :
0000
0000
0000
0000
,
0000
0000
0000
0000
,
0000
0000
0000
0000
,
0000
0000
0000
0000
,
1000
0100
1000
0100
0000
0000
0001
0000
,
1000
0001
1000
0000
0000
1000
0001
0010
,
0001
0100
0001
0000
0000
0001
0010
0001
,
1000
0000
0101
0000
0000
1000
0000
0100
,
1000
0000
0100
0010
0000
0000
0110
0000
,
0020
1000
0100
0001
,
0100
1000
0100
0030
,
2000
0010
0000
0100
,
0000
0010
0100
3010
,
0020
0001
0100
1000
,
0100
0001
0100
0030
,
0002
0010
0000
0100
,
0000
0010
0100
0013
,
0001
0000
0101
0000
0001
0100
0001
0000
,
1000
0100
0001
0100
,
1000
0100
1000
0000
0001
0100
0001
0000
,
0002
0000
0103
1001
,
0011
0100
1100
1000
,
0001
1001
0110
0000
,
0110
1001
0110
1000
,
0001
0000
0000
1000
0000
0000
0001
0000
1000
0000
0010
0000
1000
0000
0000
0000
,
0001
0100
0001
0000
0100
0000
1000
0000
,
0100
0010
1000
0000
0001
1000
0001
0000
,
0002
0103
2000
3100
,
1000
0100
1000
0000
0010
0100
0010
0000
,
0000
0011
0011
0000
0100
0010
0100
0000
,
0000
0000
0000
0000
0001
1000
0000
1001
,
0000
0000
0000
0000
0010
0100
0010
1000
,
0100
0000
1000
0000
0001
1000
0001
0000
,
1000
0001
0100
0000
0010
0001
0010
0000
,
0100
0000
1000
0100
0000
0000
0000
0000
,
0001
0100
0001
0000
0001
0000
0100
0000
,
1000
0100
1000
0100
0000
0000
0001
0000
,
1000
0001
1000
0000
0000
1000
0001
0010
,
0001
0100
0001
0000
0000
0001
0010
0001
,
1000
0000
0101
0000
0000
1000
0000
0100
,
1000
0000
0100
0010
0000
0000
1001
0000
,
0001
0100
0001
0000
0100
0000
1000
0000
,
0100
0010
0100
0001
0000
0001
0100
0000
,
0001
0010
0001
0000
0010
0000
1000
0000
,
0010
0000
0001
0000
0010
0001
1000
0000
,
1000
0100
1000
0000
0100
0000
0001
0000
,
0010
0100
0010
1000
0000
1000
0100
0000
,
1000
0010
1000
0000
0010
0000
0001
0000
,
0010
0000
0000
0000
1000
0000
0000
0000
0010
0000
1000
0000
0001
1000
0001
0000
,
0000
0000
0000
0000
;
#NOTES:
     dance-single:
     :
     Hard:
     11:
     :
0000
0000
0000
0000
,
0000
0000
0000
0000
,
0000
0000
0000
0000
,
0000
0000
0000
0000
,
0100
0000
0000
0001
0000
0000
0210
0000
0000
0000
0310
0000
1000
0000
0010
0000
,
0100
0000
1000
0001
0000
0000
0000
0000
0000
0000
0100
0000
0010
1000
0000
0001
,
0000
0100
0000
0002
0000
0000
0010
0000
0000
0000
0013
0000
0100
0000
1000
0000
,
0100
0000
0000
0002
0000
0000
0103
0000
0000
0000
1000
0000
0010
0000
0100
0000
,
0001
0000
0000
0000
0100
0000
1100
0000
0000
0000
0100
0000
0001
0100
0001
0000
,
1000
0010
0100
0001
0100
0001
0000
0100
,
0100
0001
0100
1000
0000
1000
0100
0000
,
0100
0010
0100
0001
0100
0010
0100
0000
,
0101
1100
0101
1100
,
0001
0010
0100
1000
0100
1000
0000
0100
,
0100
1000
0100
0001
0000
0001
0100
0000
,
0100
0010
0100
1000
0100
0010
1001
0000
,
0000
0001
0100
0010
0000
1000
0100
1000
,
1000
0100
0010
0001
0100
0000
0010
0100
,
0001
1000
0100
1000
0100
0000
0100
1000
,
1000
0010
0100
1000
0100
0010
0100
0010
,
0200
0000
0010
0301
,
0010
0100
0001
0000
0100
0000
1100
0000
,
0001
0010
0001
0010
0011
0000
0010
1000
,
0010
0000
0010
0100
0010
0000
0100
0000
,
0011
0000
0000
0101
0000
0000
0110
0000
1000
0000
0010
0000
1000
0000
0000
0000
,
0001
0010
0001
0000
1000
0010
1000
0010
,
0001
0010
0110
0000
1000
0001
0100
0000
,
0100
0010
0110
0000
1000
0001
1000
0000
,
0101
0000
0110
0000
0010
1000
0100
0010
,
0100
1000
0001
0000
1000
1100
0101
0000
,
0000
0001
0100
0010
0100
0000
0001
0100
,
0110
0000
1002
0000
0103
0010
1000
0100
,
0010
0000
0000
0001
1000
0000
0001
0000
0100
0000
0001
0000
1000
0000
0001
0000
,
0010
0001
1000
0100
1000
0010
0100
0001
,
0100
0000
0000
2000
0000
0000
0100
0000
0000
0000
3100
0000
0010
0000
1000
0000
,
0100
0000
0000
2000
0001
0000
0000
0000
0000
0000
3001
0000
0010
0000
0001
0000
,
0100
0000
0000
1000
0000
0000
0210
0000
0000
0000
0310
0000
0001
0000
0010
0000
,
0100
0000
0001
1000
0000
0000
0000
0000
0000
0000
0100
0000
0010
0001
0000
1000
,
0000
0100
0000
2000
0000
0000
0010
0000
0000
0000
3010
0000
0100
0000
0001
0000
,
0100
0000
0000
2000
0000
0000
3100
0000
0000
0000
0001
0000
0010
0000
0100
0000
,
1000
0000
0100
1000
0000
0000
0001
0000
0000
0000
0001
0000
1000
0001
1000
0000
,
0001
0010
0100
1000
0100
1000
0100
0010
,
0100
1000
0100
0001
0100
1000
0010
0000
,
0100
0010
0100
0001
0100
0010
0100
1000
,
0100
0000
0001
0000
0010
0000
0100
0000
0010
0100
0000
0000
0001
0000
0100
0000
,
1000
0010
0100
0001
0100
0001
0100
0010
,
0100
0001
0100
1000
0100
0001
0010
0000
,
0100
0010
0100
1000
0100
0010
0000
0101
,
0000
0000
1100
0000
0000
0000
1001
0000
0000
0000
0001
0000
1000
0010
0100
0000
,
0000
0000
0000
0000
;
#NOTES:
     dance-double:
     :
     Easy:
     5:
     :
00000000
00000000
00000000
00000000
,
00000000
00000000
00000000
00000000
,
00000000
00000000
00000000
00000000
,
00000000
00000000
00000000
00000000
,
00002000
00000000
00023000
00000000
,
01000000
01030000
00000000
00000000
,
10000000
10000000
00000000
00000000
,
02000000
00000000
03010000
00000000
,
00002000
00000000
00003010
00000000
,
00000001
00000001
00001000
00000000
,
00000001
00000100
00001000
00000000
,
00000000
00010000
00000000
01000000
,
00000000
10000000
00000000
00010000
,
10000000
10000000
00010000
00000000
,
10000000
01000000
00010000
00000000
,
00000000
00001000
00000000
00000100
,
00000000
00000101
00000000
00001100
,
00010000
00010000
00001000
00001000
,
00010000
01000000
00100000
00000000
,
00001000
00001000
00010000
00010000
,
00002000
00000000
00003100
00000000
,
00000001
00000000
00001000
00000000
,
00010000
00000000
10000000
00000000
,
10000000
00000000
00010000
00000000
,
00011000
00000110
00000011
00000000
,
00000001
00000001
00001000
00001000
,
00010000
00010000
10000000
10000000
,
00020000
01000000
20030000
31000000
,
00010000
00001000
00010000
00011000
,
00000000
00000000
00010000
00000100
,
00000000
00000000
00000010
00000001
,
00000000
00000000
00000100
00001000
,
00000000
00100000
00001000
00000100
,
00000000
00000001
00000000
00000010
,
00000000
00001000
00000000
00010000
,
00000000
00001000
00000000
01000000
,
00000000
00001000
00000000
00010000
,
00001000
00000100
00000001
00000001
,
00000001
00000001
00000000
00000000
,
00000200
00000000
00001300
00000000
,
00020000
00000000
00130000
00000000
,
10000000
10000000
00010000
00010000
,
10000000
01000000
00010000
00001000
,
00000100
00000010
00000000
00000100
,
00000000
00000001
00000000
00001000
,
00000001
00000001
00001000
00001000
,
00000001
00000100
00001000
00010000
,
00100000
01000000
00010000
10000000
,
00010000
10000000
01100000
00110000
,
00000000
00000000
00000000
00000000
;
#NOTES:
     dance-double:
     :
     Medium:
     9:
     :
00000000
00000000
00000000
00000000
,
00000000
00000000
00000000
00000000
,
00000000
00000000
00000000
00000000
,
00000000
00000000
00000000
00000000
,
00001000
00010000
00001000
00010000
00000000
00000000
01000000
00000000
,
10000000
00010000
10000000
00000000
00000000
10000000
00010000
00100000
,
00010000
01000000
00010000
00000000
00000000
00010000
00100000
00001000
,
00010000
00000000
00001100
00000000
00000000
00001000
00000000
00000100
,
00001000
00000000
00000100
00000010
00000000
00000000
00000110
00000000
,
00002000
00000001
00000100
00010000
,
00000100
00000001
00003010
00000010
,
00020000
00002000
00030000
00023000
,
00000000
01030000
00200000
00310000
,
00020000
10000000
01000000
00001000
,
01000000
10000000
00230000
00000000
,
00310000
00001000
00000000
00000100
,
00000000
00000001
00001000
00000010
,
00000001
00000000
00000101
00000000
00000001
00000100
00000001
00000000
,
00000001
00000100
00001000
00010000
,
00100000
01000000
00100000
00000000
10000000
00010000
10000000
00000000
,
00020000
00000000
01030000
00001000
,
00011000
00000110
00001100
00001000
,
00000001
00001001
00000110
00000000
,
00000011
00000110
00001100
00011000
,
00010000
00000000
00000000
00001000
00000000
00000000
01000000
00000000
00100000
00000000
01000000
00000000
00001000
00000000
00000000
00000000
,
00010000
01000000
00010000
00000000
01000000
00000000
10000000
00000000
,
01000000
00010000
00001000
00000000
00000010
00000100
00000010
00000000
,
00000002
00000100
00002003
00000100
,
00003001
00000100
00001000
00000000
00001000
00010000
00100000
00000000
,
00000000
10100000
10100000
00000000
01000000
00010000
01000000
00000000
,
00000000
00000000
00000000
00000000
00001000
00010000
00000000
00000110
,
00000000
00000000
00000000
00000000
00000010
00000100
00000010
00000001
,
00000000
00000000
00000001
00000000
00000010
00001000
00010000
00001000
,
00100000
00010000
01000000
00000000
00100000
00010000
00100000
00000000
,
01000000
00000000
10000000
01000000
00000000
00000000
00000000
00000000
,
00001000
00010000
00001000
00000000
00000100
00000000
00000001
00000000
,
00001000
00000100
00001000
00000100
00000000
00000000
00010000
00000000
,
00001000
00010000
00001000
00000000
00000000
01000000
00010000
00100000
,
00010000
01000000
00010000
00000000
00000000
01000000
00100000
00010000
,
00001000
00000000
00000010
00000000
00000000
00000001
00000000
00000100
,
00001000
00000000
00000100
00000010
00000000
00000000
00011000
00000000
,
00010000
01000000
00010000
00000000
01000000
00000000
10000000
00000000
,
01000000
00100000
01000000
00010000
00000000
00001000
00000100
00000000
,
00000001
00000010
00000001
00000000
00000100
00000000
00001000
00000000
,
00010000
00000000
01000000
00000000
00100000
00010000
01000000
00000000
,
10000000
01000000
10000000
00000000
01000000
00000000
00010000
00000000
,
00100000
01000000
00010000
00001000
00000000
00000100
00000001
00000000
,
00000001
00000100
00001000
00000000
00010000
00000000
01000000
00000000
,
00100000
00000000
00000000
00000000
00001000
00000000
00000000
00000000
00010000
00000000
00001000
00000000
00010000
00001000
00010000
00000000
,
00000000
00000000
00000000
00000000
;
#NOTES:
     dance-double:
     :
     Hard:
     11:
     :
00000000
00000000
00000000
00000000
,
00000000
00000000
00000000
00000000
,
00000000
00000000
00000000
00000000
,
00000000
00000000
00000000
00000000
,
00000000
00000000
00000000
00000010
00000000
00000010
00001000
00000010
,
00000100
00001000
00010000
00000000
00000000
01000000
00100000
00010000
,
10000000
01000000
20000000
00000000
00000000
30100000
01000000
00010000
,
00001000
00000000
00000000
00000010
00000000
00000000
00000100
00000000
00000000
00000000
00001000
00000000
00000010
00000000
00000100
00000000
,
00000001
00000000
00000100
00000000
00000001
00000000
00001100
00000000
00000000
00000000
00001000
00000000
00010000
00001000
00010000
00000000
,
01000000
00100000
01000000
00010000
01000000
10000000
00000000
01000000
,
00010000
00001000
00000010
00000100
00000000
00000100
00000001
00000000
,
00000100
00000010
00000100
00001000
00000010
00010000
00000000
00000000
,
00001000
00011000
00110000
00012000
,
00003100
00000010
00000100
00001000
00000100
00000001
00000000
00000100
,
00001000
00010000
00100000
01000000
00000000
01000000
10000000
00000000
,
01000000
00100000
01000000
10000000
01000000
00100000
10010000
00000000
,
10000000
01000000
00100000
00000000
00001000
00010000
00011000
00000000
,
00001000
00000100
00001000
00010000
00000100
00000000
00000010
00000001
,
00000010
00001000
00000010
00000001
00000011
00000000
00000001
00000100
,
00001000
00010000
01000000
10000000
01000000
00100000
01000000
10000000
,
00200000
00000000
00010000
00301000
,
00000010
00000100
00000001
00000000
00001100
00000000
00000101
00000000
,
00000001
00000010
00000001
00000010
00000100
00000010
00000100
00010000
,
00001000
00010000
00100000
10000000
00100000
00010000
00100000
00000000
,
10100000
00000000
00000000
01100000
00000000
00000000
01010000
00000000
00001000
00000000
00010000
00000000
00000100
00000000
00000000
00000000
,
00000010
00000001
00000010
00000000
00000100
00001000
00000100
00000010
,
00000001
00000010
00000100
00000000
00010000
00001000
00100000
00000000
,
00010000
01000000
02100000
00000000
13000000
01000000
00100000
00000000
,
00010000
00000000
00001000
00000000
00010000
00000100
00000010
00000001
,
00001000
00000001
00000010
00000000
00000001
00000010
00000100
00001000
,
00000000
00000100
00000010
00001000
00020000
00000000
00130000
01000000
,
00000000
00000000
00000000
00000000
01000000
00100000
10000000
01000000
,
00000000
00000000
10000000
00100000
01000000
00010000
00100000
00001000
,
00010000
00000100
00001000
00000100
00001000
00000010
00000100
00000001
,
00000100
00000000
00001000
00000100
00000000
00001000
00010000
00100000
,
01000000
00000000
20010000
00000000
00000000
30010000
00100000
00010000
,
01000000
00000000
10000000
02100000
00000000
03100000
00010000
00001000
,
00000100
00000001
00001000
00000000
00000000
00000100
00000010
00000001
,
00001000
00000100
00002000
00000000
00000000
00003001
00000100
00001000
,
00010000
00000000
00000000
00100000
00000000
00000000
00000000
00000000
00000000
00000000
00010000
00000000
00100000
00000000
01000000
00000000
,
10000000
00000000
00000000
00000000
01000000
00000000
01010000
00000000
00000000
00000000
00010000
00000000
10000000
01000000
10000000
00000000
,
01000000
00010000
00001000
00010000
00000100
00001000
00000100
00000010
,
00000100
00001000
00000100
00000001
00000100
00001000
00000010
00000000
,
00010000
00001000
01000000
00010000
01000000
00100000
01000000
10000000
,
01000000
00010000
00100000
01000000
00010000
00001000
00010000
00000000
,
00010000
00001000
00010000
00001000
01000000
00010000
01000000
00100000
,
01000000
00010000
01000000
10000000
01000000
00010000
00100000
00000000
,
00001000
00010000
00000100
00001000
00000100
00000010
00000100
00000101
,
00000000
00000000
00001100
00000000
00000000
00000000
00011000
00000000
00000000
00000000
00010000
00000000
00001000
00010000
00000100
00000000
,
00000000
00000000
00000000
00000000
;
