
//----- song ID: tata -----//
#TITLE:闘え!ダダンダーンV;
#ARTIST:ときめきアイドル project;
#TITLETRANSLIT:Tatakae! Dadandarn V;
#ARTISTTRANSLIT:Tokimeki Idol project;
#BANNER:Tatakae! Dadandarn V.png;
#BACKGROUND:Tatakae! Dadandarn V-bg.png;
#CDTITLE:./CDTitles/DDR A.png;
#MUSIC:Tatakae! Dadandarn V.ogg;
#SAMPLESTART:51.827;
#SAMPLELENGTH:15;
#DISPLAYBPM:176;
#BPMS:0=173.8,4=176;
#NOTES:
     dance-single:
     :
     Beginner:
     3:
     :
0000
0000
0000
0000
,
0000
0000
0000
0000
,
0000
0000
0000
0000
,
0000
0000
0000
0000
,
0000
0000
0000
0000
,
0001
0000
0010
0000
,
1000
0000
0010
0000
,
0001
0000
0010
0000
,
1000
0000
0000
0000
,
0001
0000
0000
0000
,
1000
0000
1000
0000
,
0001
0000
0000
0000
,
0100
0000
0100
0000
,
0010
0000
0010
0000
,
1000
0000
1000
0000
,
0100
0000
0100
0000
,
0010
0000
0000
0000
,
0001
0000
0000
0000
,
0100
0000
0100
0000
,
1000
0000
0000
0000
,
0100
0000
0100
0000
,
0010
0000
0010
0000
,
0001
0000
0001
0000
,
0100
0000
0100
0000
,
0010
0000
0000
0000
,
0000
0000
0000
0000
,
1000
0000
0000
0000
,
0001
0000
0000
0000
,
1000
0000
0000
0000
,
1000
0000
0000
0000
,
0001
0000
0000
0000
,
1000
0000
0000
0000
,
0001
0000
0000
0000
,
0001
0000
0000
0000
,
0010
0000
0010
0000
,
0010
0000
0010
0000
,
1000
0000
0010
0000
,
0001
0000
0000
0000
,
1000
0000
0001
0000
,
1000
0000
0000
0000
,
1001
0000
0000
0000
,
0000
0000
0000
0000
,
0001
0000
0100
0000
,
0001
0000
0000
0000
,
1000
0000
0010
0000
,
0001
0000
0010
0000
,
1000
0000
0010
0000
,
0001
0000
0000
0000
,
1000
0000
0000
0000
,
0001
0000
0001
0000
,
1000
0000
0000
0000
,
0100
0000
0100
0000
,
0010
0000
0000
0000
,
0001
0000
0000
0000
,
0010
0000
0010
0000
,
0100
0000
0000
0000
,
1000
0000
0100
0000
,
0010
0000
0001
0000
,
1000
0000
0001
0000
,
0100
0000
0000
0000
,
0010
0000
0001
0000
,
0010
0000
1000
0000
,
0100
0000
0010
0000
,
0100
0000
0000
0000
,
0001
0000
0000
0000
,
0010
0000
0000
0000
,
1000
0000
0000
0000
,
0010
0000
0000
0000
,
0001
0000
0000
0000
,
0100
0000
0000
0000
,
1000
0000
0000
0000
,
0100
0000
0000
0000
,
0010
0000
0010
0000
,
0010
0000
0010
0000
,
0001
0000
0010
0000
,
1000
0000
0000
0000
,
0001
0000
1000
0000
,
0001
0000
0000
0000
,
1001
0000
0000
0000
,
0000
0000
0000
0000
,
0010
0000
1000
0000
,
0001
0000
0000
0000
,
0000
0000
0000
0000
,
1001
0000
0000
0000
,
0000
0000
0000
0010
0000
0000
0000
0000
,
0000
0000
0000
0000
;
#NOTES:
     dance-single:
     :
     Easy:
     6:
     :
0000
0000
0000
0000
,
0000
0000
0000
0000
,
0000
0000
0000
0000
,
0000
0000
0000
0000
,
0000
0000
0000
0000
,
0001
0010
1000
0010
,
1000
1000
0100
0100
,
1000
0010
0001
0010
,
1000
0001
0000
0000
,
0001
1000
0100
0010
,
0001
0001
0100
0000
,
0001
0010
1000
0100
,
0002
0000
0000
0003
,
0001
0100
0001
0000
,
1000
0100
1000
0000
,
0001
0010
1000
0010
,
0002
0000
0000
0003
,
0010
0001
1000
0100
,
0010
0001
1000
0000
,
1000
0010
0001
0100
,
2000
0000
0000
3000
,
0010
0001
0100
0000
,
0010
1000
0100
0000
,
0001
0100
1000
0100
,
0002
0000
0000
0000
,
0003
0000
0000
0000
,
1000
0000
0000
0001
,
0000
0000
1000
0100
,
1000
0000
0000
0001
,
0000
0000
0010
0100
,
0010
0010
0010
0010
,
0020
0000
0130
0000
,
0001
1000
0010
1000
,
0000
0001
1000
0001
,
1000
1000
0010
0010
,
0100
0100
0001
0001
,
1000
0001
0010
0010
,
0200
0000
0000
0300
,
1000
0100
0001
0010
,
1000
0001
1000
0000
,
2002
0000
0000
0000
,
0000
0000
0000
3003
,
0010
0001
1000
0000
,
0010
1000
0001
0000
,
1000
0010
0001
0010
,
0001
0001
0100
0100
,
0001
0010
1000
0010
,
0001
1000
0000
0000
,
0001
0001
0000
0000
,
0020
0000
0000
0030
,
1000
1000
0000
0000
,
0020
0000
0000
0030
,
2000
0000
0000
3000
,
0200
0000
0000
0300
,
0010
0010
0010
0010
,
0001
1000
0001
0000
,
0010
1000
0001
0100
,
0010
1000
0001
0000
,
0001
0010
1000
0100
,
0002
0000
0000
0003
,
0010
1000
0100
0000
,
0010
0001
0100
0000
,
1000
0100
0001
0100
,
2000
0000
0000
3000
,
0001
0000
0000
1000
,
0000
0000
0001
0100
,
0001
0000
0000
1000
,
0000
0000
0010
0100
,
0010
0010
0010
0010
,
0020
0000
0130
0000
,
1000
0001
0010
0001
,
0000
1000
0001
1000
,
0001
0001
0010
0010
,
0100
0100
1000
1000
,
0001
1000
0010
0010
,
0200
0000
0000
0300
,
0001
0100
1000
0010
,
0001
1000
0001
0000
,
2002
0000
0000
0000
,
0000
0000
0000
3003
,
0010
0000
1000
0000
,
0200
0000
0000
0000
,
0000
0000
0000
0300
,
0001
0010
0100
1000
,
0000
0000
0000
0002
0000
0000
0000
0000
,
0000
0000
0000
0000
,
0000
0000
0000
0000
,
0000
0000
0000
0000
,
0003
0000
0000
0000
,
0000
0000
0000
0000
;
#NOTES:
     dance-single:
     :
     Medium:
     9:
     :
0000
0000
0000
0000
,
0000
0000
0000
0000
,
0000
0000
0000
0000
,
0000
0000
0000
0000
,
0000
0000
0000
0000
,
1000
0000
0100
0000
0010
0001
1000
0010
,
0000
1000
0001
0000
0100
0001
1000
0000
,
0010
0000
1000
0000
0100
0010
0001
0010
,
0000
0001
1000
0200
0000
0000
0300
0000
,
1000
0000
1000
0000
0001
0100
0010
0000
,
1000
0000
1000
0000
0100
0010
0001
0000
,
1000
0010
0001
0100
,
2000
0000
0200
3300
,
1000
0000
0100
0010
0100
0000
0010
0000
,
0001
0000
0100
0010
0100
0000
0010
0000
,
2000
3010
0002
0013
,
2000
0000
0001
3001
,
0010
0000
0001
0000
1000
0001
0100
0000
,
0010
0000
1000
0000
0001
1000
0100
0000
,
0001
0010
1000
0100
,
0002
0000
0200
0303
,
0010
0000
1000
0001
1000
0000
0100
0000
,
0010
0000
0001
1000
0001
0000
0100
0000
,
2000
3100
0002
0103
,
2000
0000
0000
3200
0000
0000
0320
0000
,
0000
0032
0000
0000
1003
0000
1000
0000
,
0001
0002
0000
0000
0003
0000
1000
2000
,
0000
3000
0001
0100
,
0001
0002
0000
0000
0003
0000
1000
2000
,
0000
3000
0100
0010
,
1001
0000
0100
0010
0100
0010
0100
0010
,
0200
0000
0020
0330
,
1000
0000
0001
0000
0010
0000
0100
0010
,
0000
0010
0000
0010
0000
0100
1000
0000
,
0001
0010
0001
0000
0010
0100
0010
0000
,
0100
1000
0100
0000
1000
0001
1000
0000
,
0001
0000
1000
0000
0010
0100
0010
2000
,
0000
0000
0000
3000
,
0001
0000
0100
0000
1000
0100
0010
0001
,
1000
0000
0110
0000
1000
0010
0000
1000
,
0002
0000
0000
0000
,
0000
0000
0000
0003
,
0010
0000
1000
0000
0001
1000
0001
0100
,
0000
0010
1000
0200
0000
0000
0300
0000
,
0001
0000
0100
0000
0010
1000
0001
0010
,
0000
0001
1000
0000
0100
1000
0001
0000
,
0010
0000
0001
0000
0100
0010
1000
0010
,
0000
1000
0001
0200
0000
0000
0300
0000
,
0001
0001
0000
0001
0000
0000
0010
0010
,
0000
0000
0000
0000
0010
0010
0000
0000
,
1000
1000
0000
1000
0000
0000
0010
0010
,
0000
0000
0000
0000
,
2000
0000
0000
3000
,
0200
0000
0000
0300
,
0001
0001
0010
0010
,
0001
0000
1000
0010
0000
1000
0001
0000
,
0010
0000
1000
0000
0001
1000
0100
0000
,
0010
0000
0001
0000
1000
0001
0100
0000
,
1000
0010
0001
0100
,
2000
0000
0200
3300
,
0010
0000
0001
1000
0001
0000
0100
0000
,
0010
0000
1000
0001
1000
0000
0100
0000
,
0002
0103
2000
3100
,
0001
0010
1000
0100
,
1000
2000
0000
0000
3000
0000
0001
0002
,
0000
0003
1000
0010
,
1000
2000
0000
0000
3000
0000
0001
0002
,
0000
0003
0010
0100
,
1001
0000
0100
0010
0100
0010
0100
0010
,
0200
0000
0020
0330
,
0001
0000
1000
0000
0010
0000
0100
0010
,
0000
0010
0000
0010
0000
0100
0001
0000
,
1000
0010
1000
0000
0010
0100
0010
0000
,
0100
0001
0100
0000
0001
1000
0001
0000
,
1000
0000
0001
0000
0010
0100
0010
0002
,
0000
0000
0000
0003
,
1000
0000
0100
0000
0001
0100
0010
1000
,
0001
0000
0110
0000
0001
0010
0000
0001
,
2000
0000
0000
0000
,
0002
0000
0000
3003
,
0010
0000
0001
1000
0000
0010
1000
0000
,
0001
1000
0000
0000
0000
0000
0001
0000
,
1000
0010
0001
0100
,
1000
0100
1000
0100
1000
0100
0010
0001
,
0000
0000
0000
2002
0000
0000
0000
0000
,
0000
0000
0000
0000
,
0000
0000
0000
0000
,
0000
0000
0000
0000
,
3003
0000
0000
0000
,
0000
0000
0000
0000
;
#NOTES:
     dance-single:
     :
     Hard:
     13:
     :
0000
0000
0000
0000
,
0000
0000
0000
0000
,
0000
0000
0000
0000
,
0000
0000
0000
0000
,
0000
0000
0000
0000
,
0001
1000
0001
0100
0010
1000
0010
0100
,
0000
0000
0001
0100
0001
0000
1000
0000
0100
1000
0100
0000
1000
0000
0001
0000
,
0010
0001
1000
0001
0100
0010
1000
0100
,
0000
0010
0001
0200
0000
0000
0000
0000
,
0301
0100
0010
0100
0001
1000
0010
0000
,
1000
0100
0010
0100
1000
0001
0010
0000
,
0001
1000
0010
0000
1000
0001
0100
0000
,
0001
0010
1000
0100
,
0001
0100
0001
0100
0010
1000
0100
0000
,
1000
0100
1000
0100
0010
0001
0100
0000
,
1000
0100
0001
0000
1000
0100
0001
0000
,
0000
0100
1000
0100
0010
0001
0100
0010
,
1000
0010
1000
0010
0100
0001
1000
0000
,
0001
0010
0001
0010
0100
1000
0001
0000
,
1000
0010
0001
0000
1000
0100
0001
0000
,
1000
0010
0001
0100
,
1000
1000
0100
0010
0100
1000
0010
0000
,
0001
0001
0100
0010
0100
0001
0010
0000
,
0001
1000
0001
0000
0010
0100
0010
0000
,
0001
0000
0001
0100
0000
0100
1000
0000
,
1000
0010
0000
0010
0001
0100
0001
0000
,
1100
2200
0000
0000
3300
0000
0101
0202
,
0000
0303
0000
1000
0100
0010
0001
0000
,
1001
2002
0000
0000
3003
0000
0110
0220
,
0000
0330
0000
0001
0100
0010
1000
0000
,
0011
0000
0001
0001
0010
0010
0100
0100
,
1000
0000
0000
1000
0000
0000
0001
0000
0000
0000
0000
0000
0010
0000
0000
0000
0010
0000
0000
0000
0010
0000
0000
0000
,
0001
0000
1000
0000
0010
0100
0010
1000
,
0000
0001
1000
0100
0000
0001
0100
0000
,
1000
0100
1000
0100
0010
0100
0010
0100
,
0001
0100
0001
0100
0010
0100
0010
0100
,
1000
0100
0010
0000
0001
1000
0001
0200
,
0000
0000
0000
0300
,
0001
0000
1000
0100
0010
0001
0100
0010
,
1000
0000
0110
0000
0001
0001
0000
0001
,
2000
0000
0000
0000
,
0000
0000
0000
3000
,
0010
1000
0001
0010
0100
0010
0001
0100
,
0000
0010
1000
0200
0000
0000
0300
0000
,
1000
0001
1000
0100
0010
0001
0010
0100
,
0000
0000
1000
0100
1000
0000
0001
0000
0100
0001
0100
0000
0001
0000
1000
0000
,
0010
1000
0001
1000
0100
0010
0001
0100
,
0000
0010
1000
0200
0000
0000
0000
0000
,
1300
1000
0000
1000
0000
0100
1000
1000
,
0000
0000
0000
0000
0100
0100
0000
0000
,
0001
0001
0000
0001
0000
0100
0001
0001
,
0000
0000
0000
1000
0001
1000
0001
0000
,
2000
0000
0000
3000
,
0020
0000
0000
0030
,
0001
0001
1000
1000
,
0001
0000
0100
0001
0100
0000
0001
0000
1000
0100
1000
0000
0100
0000
0010
0000
,
0001
0010
0001
0010
0100
1000
0001
0000
,
1000
0010
1000
0010
0100
0001
1000
0000
,
0001
0010
1000
0000
0001
0100
1000
0000
,
0001
0010
1000
0100
,
0001
0001
0100
0010
0100
0001
0010
0000
,
1000
1000
0100
0010
0100
1000
0010
0000
,
1000
0001
1000
0000
0010
0100
0010
0000
,
1000
0010
0001
0100
,
0101
0202
0000
0000
0303
0000
1100
2200
,
0000
3300
0000
0001
0100
0010
1000
0000
,
1001
2002
0000
0000
3003
0000
0110
0220
,
0000
0330
0000
1000
0100
0010
0001
0000
,
1010
0000
1000
1000
0010
0010
0100
0100
,
0001
0000
0000
0001
0000
0000
1000
0000
0000
0000
0000
0000
0010
0000
0000
0000
0010
0000
0000
0000
0010
0000
0000
0000
,
1000
0000
0001
0000
0010
0100
0010
0001
,
0000
1000
0001
0100
0000
1000
0100
0000
,
0001
0100
0001
0100
0010
0100
0010
0100
,
1000
0100
1000
0100
0010
0100
0010
0100
,
0001
0100
0010
0000
1000
0001
1000
0200
,
0000
0000
0000
0300
,
1000
0000
0001
0100
0010
1000
0100
0010
,
0001
0000
0110
0000
1000
1000
0000
1000
,
0002
0000
0000
0000
,
2000
0000
0000
3003
,
0001
0100
0100
1000
0100
0100
0001
0100
,
0100
1000
0000
0000
0000
0000
0100
0000
,
0001
1000
0010
1000
0001
1000
0010
1000
,
0001
0100
0010
1000
0100
0010
0001
1000
,
0000
0000
0000
0220
0000
0000
0000
0000
,
0000
0000
0000
0000
,
0000
0000
0000
0000
,
0000
0000
0000
0000
,
0330
0000
0000
0000
,
0000
0000
0000
0000
;
#NOTES:
     dance-double:
     :
     Easy:
     6:
     :
00000000
00000000
00000000
00000000
,
00000000
00000000
00000000
00000000
,
00000000
00000000
00000000
00000000
,
00000000
00000000
00000000
00000000
,
00000000
00000000
00000000
00000000
,
00000001
00000010
00000100
00001000
,
00000001
00000001
00001000
00001000
,
00000001
00000100
00001000
00010000
,
00001000
00010000
00000000
00000000
,
00001000
00010000
00100000
10000000
,
00010000
10000000
01000000
00000000
,
10000000
01000000
00100000
01000000
,
00200000
00000000
00000000
00300000
,
00001000
00010000
00001000
00000000
,
00000010
00001000
00000010
00000000
,
00001000
00000100
00000010
00000001
,
00002000
00000000
00000000
00003000
,
00000100
00000010
00000001
00000100
,
00001000
00010000
00001000
00000000
,
00010000
01000000
10000000
00010000
,
20000000
00000000
00000000
30000000
,
00100000
10000000
01000000
00000000
,
00100000
00010000
01000000
00000000
,
00100000
00010000
00001000
00010000
,
00002000
00000000
00000000
00000000
,
00003000
00000000
00000000
00000000
,
00000010
00000000
00000000
00001000
,
00000000
00000000
00000001
00000010
,
00000100
00000000
00000000
00001000
,
00000000
00000000
00000010
00001000
,
00000001
00000001
00000100
00000100
,
00001000
00000000
00010000
00000000
,
00001000
00010000
00100000
10000000
,
00000000
00010000
01000000
00100000
,
10000000
10000000
01000000
01000000
,
00010000
00010000
00100000
00100000
,
10000000
01000000
00010000
00001000
,
00020000
00000000
00000000
00030000
,
00000100
00001000
00000001
00000010
,
00000100
00002002
00000000
00003003
,
00000220
00000000
00000000
00000000
,
00000000
00000000
00000000
00000330
,
00001000
00000100
00010000
00001000
,
00100000
00010000
10000000
00000000
,
10000000
00100000
01000000
00010000
,
10000000
10000000
00010000
00010000
,
10000000
01000000
00010000
00001000
,
00010000
00001000
00000000
00000000
,
00010000
00010000
00000000
00000000
,
00000020
00000000
00000000
00000030
,
00001000
00001000
00000000
00000000
,
00000020
00000000
00000000
00000030
,
00000200
00000000
00000000
00000300
,
00002000
00000000
00000000
00003000
,
00010000
00010000
00100000
00100000
,
01000000
00100000
01000000
00000000
,
01000000
00100000
10000000
01000000
,
00010000
00001000
00010000
00000000
,
00001000
00000100
00000001
00001000
,
00000002
00000000
00000000
00000003
,
00000010
00000001
00000100
00000000
,
00000010
00001000
00000100
00000000
,
00000010
00001000
00010000
00001000
,
00020000
00000000
00000000
00030000
,
00100000
00000000
00000000
00010000
,
00000000
00000000
10000000
00100000
,
01000000
00000000
00000000
00010000
,
00000000
00000000
00100000
00010000
,
10000000
10000000
01000000
01000000
,
00010000
00000000
00001000
00000000
,
00010000
00001000
00000010
00000001
,
00000000
00001000
00000100
00000010
,
00000001
00000001
00000100
00000100
,
00001000
00001000
00000010
00000010
,
00000001
00000100
00001000
00010000
,
00002000
00000000
00000000
00003000
,
01000000
00010000
10000000
00100000
,
01000000
20020000
00000000
30030000
,
02200000
00000000
00000000
00000000
,
00000000
00000000
00000000
03300000
,
00010000
00000000
10000000
00000000
,
02000000
00000000
00000000
00000000
,
00000000
00000000
00000000
03000000
,
00010000
00001000
00010000
00001000
,
00000000
00000000
00000000
00000020
00000000
00000000
00000000
00000000
,
00000000
00000000
00000000
00000000
,
00000000
00000000
00000000
00000000
,
00000000
00000000
00000000
00000000
,
00000030
00000000
00000000
00000000
,
00000000
00000000
00000000
00000000
;
#NOTES:
     dance-double:
     :
     Medium:
     10:
     :
00000000
00000000
00000000
00000000
,
00000000
00000000
00000000
00000000
,
00000000
00000000
00000000
00000000
,
00000000
00000000
00000000
00000000
,
00000000
00000000
00000000
00000000
,
10000000
00000000
01000000
00000000
00100000
00001000
00010000
00001000
,
00000000
00010000
00000100
00000000
00001000
00000001
00000100
00000000
,
00000010
00000000
00001000
00000000
00000100
00000010
00000100
00000010
,
00000000
00000001
00001000
00000200
00000000
00000000
00000300
00000000
,
00010000
00000000
00001000
00000000
01000000
00010000
00100000
00000000
,
01000000
00000000
10000000
00000000
00010000
01000000
00100000
00000000
,
10000000
00100000
00010000
01000000
,
20000000
00000000
02000000
33000000
,
00100000
00000000
00001000
00010000
00001000
00000000
00010000
00000000
,
00000010
00000000
00001000
00000001
00001000
00000000
00000010
00000000
,
00000001
00000010
00001000
00000010
,
00000002
00000000
00001000
00001003
,
00000100
00000000
00001000
00000000
00010000
00001000
00100000
00000000
,
00010000
00000000
01000000
00000000
00100000
10000000
01000000
00000000
,
10000000
00100000
00010000
01000000
,
20000000
00000000
02000000
33000000
,
00100000
00000000
00001000
00010000
00001000
00000000
00010000
00000000
,
00000010
00000000
00001000
00000010
00001000
00000000
00000001
00000000
,
00001000
00000100
00000001
00000100
,
00001000
00000000
00000000
00010000
00000000
00000000
00100000
00000000
,
00000000
10000000
00000000
00000000
01000000
00000000
01000000
00000000
,
00100000
00200000
00000000
00000000
00300000
00000000
01000000
02000000
,
00000000
03000000
00010000
00001000
,
00010000
00020000
00000000
00000000
00030000
00000000
00001000
00002000
,
00000000
00003000
00000010
00000100
,
00000110
00000000
00000001
00001000
00000001
00001000
00000001
00001000
,
00000020
00000000
00000200
00000330
,
00000001
00000000
00000100
00000000
00000010
00000000
00000100
00000010
,
00000000
00010000
00000000
00001000
00000000
00100000
00010000
00000000
,
10000000
00010000
10000000
00000000
00100000
01000000
00100000
00000000
,
10000000
01000000
10000000
00000000
00010000
01000000
00010000
00000000
,
10000000
00000000
01000000
00000000
00010000
00001000
00010000
00002000
,
00000000
00000000
00000000
00003000
,
00010000
00000000
00001000
00000000
00000010
00000100
00000010
00000100
,
00001000
00000000
00000101
00000000
00000010
00001000
00000000
00000001
,
00000020
00000000
00000000
00000000
,
00000000
00000000
00000000
00000030
,
00000100
00000000
00010000
00000000
00001000
00010000
00001000
00010000
,
00000000
00000010
00001000
00000200
00000000
00000000
00000300
00000000
,
00000001
00000000
00000100
00000000
00000010
00010000
00001000
00010000
,
00000000
00001000
01000000
00000000
00010000
10000000
01000000
00000000
,
00100000
00000000
00010000
00000000
01000000
00100000
01000000
00100000
,
00000000
10000000
00010000
02000000
00000000
00000000
03000000
00000000
,
00100000
00100000
00000000
00100000
00000000
00000000
10000000
10000000
,
00000000
00000000
00000000
00000000
01000000
01000000
00000000
00000000
,
00010000
00010000
00000000
00010000
00000000
00000000
00001000
00001000
,
00000000
00000000
00000000
00000000
,
00000020
00000000
00000000
00000030
,
00000002
00000000
00000000
00000003
,
00000100
00000100
00000010
00000010
,
00001000
00000000
00000010
00000100
00000000
00000010
00001000
00000000
,
00010000
00000000
00001000
00000000
00010000
00001000
00100000
00000000
,
00010000
00000000
01000000
00000000
00100000
10000000
01000000
00000000
,
10000000
00100000
00010000
01000000
,
20000000
00000000
02000000
33000000
,
00100000
00000000
00001000
00010000
00001000
00000000
00010000
00000000
,
00000010
00000000
00001000
00000010
00001000
00000000
00000001
00000000
,
00001000
00000100
00000001
00000100
,
00001000
00010000
00100000
10000000
,
00100000
00200000
00000000
00000000
00300000
00000000
01000000
02000000
,
00000000
03000000
00010000
10000000
,
01000000
02000000
00000000
00000000
03000000
00000000
00010000
00020000
,
00000000
00030000
00001000
00000010
,
00000110
00000000
00000001
00001000
00000001
00001000
00000001
00001000
,
00000020
00000000
00000200
00000330
,
00000001
00000000
00000100
00000000
00000010
00000000
00000100
00000010
,
00000000
00010000
00000000
00001000
00000000
00100000
00010000
00000000
,
10000000
00010000
10000000
00000000
00100000
01000000
00100000
00000000
,
10000000
01000000
10000000
00000000
00010000
01000000
00010000
00000000
,
10000000
00000000
01000000
00000000
00010000
00001000
00010000
00002000
,
00000000
00000000
00000000
00003000
,
00010000
00000000
00001000
00000000
00000010
00000100
00000010
00000100
,
00001000
00000000
00000101
00000000
00000010
00001000
00000000
00000001
,
00000020
00000000
00000000
00000000
,
00000200
00000000
00000000
00000330
,
00001000
00000000
00000001
00000100
00000000
00000001
00001000
00000000
,
00000100
00020000
00000000
00000000
00000000
00000000
00031000
00000000
,
00010000
00100000
10000000
01000000
,
00100000
01000000
00100000
01000000
00100000
01000000
10000000
00010000
,
00000000
00000000
00000000
02200000
00000000
00000000
00000000
00000000
,
00000000
00000000
00000000
00000000
,
00000000
00000000
00000000
00000000
,
00000000
00000000
00000000
00000000
,
03300000
00000000
00000000
00000000
,
00000000
00000000
00000000
00000000
;
#NOTES:
     dance-double:
     :
     Hard:
     13:
     :
00000000
00000000
00000000
00000000
,
00000000
00000000
00000000
00000000
,
00000000
00000000
00000000
00000000
,
00000000
00000000
00000000
00000000
,
00000000
00000000
00000000
00000000
,
00001000
00000001
00001000
00000100
00000010
00000001
00000100
00000010
,
00000000
00000000
00010000
00001000
00010000
00000000
00001000
00000000
00100000
00010000
00100000
00000000
00010000
00000000
10000000
00000000
,
00100000
10000000
00010000
10000000
01000000
00100000
00010000
01000000
,
00000000
00001000
00010000
00000200
00000000
00000000
00000000
00000000
,
00001300
00000100
00000010
00000100
00001000
00000001
00000010
00000000
,
00000001
00000100
00000010
00000100
00000001
00001000
00000010
00000000
,
00000100
00001000
00010000
00000000
01000000
10000000
00010000
00000000
,
01000000
10000000
00100000
00010000
,
00001000
00010000
00000010
00001000
00000100
00010000
00001000
00000000
,
00010000
00001000
00100000
00010000
01000000
00001000
00010000
00000000
,
00001000
00000100
00000001
00000000
00001000
00000100
00000001
00000000
,
00000000
00000100
00000010
00000100
00000010
00000001
00000100
00000010
,
00001000
00000010
00001000
00000010
00001000
00010000
00001000
00000000
,
00010000
01000000
00010000
01000000
00100000
10000000
00010000
00000000
,
00100000
00010000
01000000
00000000
00100000
10000000
01000000
00000000
,
00100000
10000000
01000000
00010000
,
00001000
00010000
00000100
00001000
00000010
00010000
00001000
00000000
,
00010000
00001000
01000000
00010000
00100000
00001000
00010000
00000000
,
00001000
00000010
00000001
00000000
00001000
00000010
00000001
00000000
,
00001000
00000000
00001000
00000100
00000000
00000100
00000001
00000000
,
00000001
00000010
00000000
00000010
00001000
00010000
00001000
00000000
,
00011000
00022000
00000000
00000000
00033000
00000000
00110000
00220000
,
00000000
00330000
00000000
00010000
10000000
00100000
01000000
00000000
,
01010000
02020000
00000000
00000000
03030000
00000000
00011000
00022000
,
00000000
00033000
00000000
00000010
00001000
00000001
00000100
00000000
,
00000110
00000000
00001000
00001000
00000100
00000100
00000010
00000010
,
00000001
00000000
00000000
00000001
00000000
00000000
00000100
00000000
00000000
00000000
00000000
00000000
00001000
00000000
00000000
00000000
00010000
00000000
00000000
00000000
00001000
00000000
00000000
00000000
,
00010000
00000000
00100000
00000000
10000000
00010000
01000000
00100000
,
00000000
10000000
01000000
00100000
00000000
00010000
00100000
00000000
,
10000000
01000000
10000000
01000000
00010000
01000000
00010000
01000000
,
00010000
00001000
00010000
00001000
00000100
00001000
00000100
00001000
,
00000100
00000010
00000100
00000000
00000010
00001000
00000001
00000020
,
00000000
00000000
00000000
00000030
,
00000001
00000000
00000001
00000100
00001000
00010000
00100000
10000000
,
00010000
00000000
01100000
00000000
00010000
00010000
00000000
00010000
,
20000000
00000000
00000000
00000000
,
00000000
00000000
00000000
30000000
,
00010000
00100000
00001000
00010000
00000100
00001000
00000100
00000010
,
00000000
00000001
00001000
00000020
00000000
00000000
00000030
00000000
,
00001000
00000001
00001000
00000100
00000010
00000001
00000100
00000010
,
00000000
00000000
00010000
00001000
00010000
00000000
00001000
00000000
00100000
00010000
00100000
00000000
00010000
00000000
10000000
00000000
,
00100000
10000000
00010000
10000000
01000000
00100000
00010000
01000000
,
00000000
00001000
00010000
00000200
00000000
00000000
00000000
00000000
,
00000310
00000010
00000000
00000010
00000000
00000100
00000010
00000010
,
00000000
00000000
00000000
00000000
00001000
00010000
00000000
00000000
,
00100000
00100000
00000000
00100000
00000000
01000000
00100000
00100000
,
00000000
00000000
00000000
00010000
00001000
00010000
00001000
00000000
,
00000020
00000000
00000000
00000030
,
00000002
00000000
00000000
00000003
,
00000100
00000100
00001000
00001000
,
00010000
00000000
00001000
00010000
00001000
00000000
01000000
00000000
00010000
01000000
00010000
00000000
01000000
00000000
00100000
00000000
,
10000000
00100000
10000000
00100000
10000000
01000000
00100000
00000000
,
00001000
00010000
00001000
00010000
00000010
00001000
00000100
00000000
,
00000010
00000001
00001000
00000000
00000010
00001000
00000001
00000000
,
00000010
00000001
00000100
00001000
,
00010000
00001000
01000000
00010000
00100000
00001000
00010000
00000000
,
00001000
00010000
00000100
00001000
00000010
00010000
00001000
00000000
,
00010000
00100000
10000000
00000000
00010000
00100000
10000000
00000000
,
00100000
01000000
00010000
00001000
,
00011000
00022000
00000000
00000000
00033000
00000000
00001010
00002020
,
00000000
00003030
00000000
00001000
00000001
00000010
00000100
00000000
,
00001100
00002200
00000000
00000000
00003300
00000000
00011000
00022000
,
00000000
00033000
00000000
00100000
00010000
10000000
01000000
00000000
,
01100000
00000000
00010000
00010000
01000000
01000000
00100000
00100000
,
10000000
00000000
00000000
10000000
00000000
00000000
01000000
00000000
00000000
00000000
00000000
00000000
00010000
00000000
00000000
00000000
00001000
00000000
00000000
00000000
00010000
00000000
00000000
00000000
,
00001000
00000000
00000010
00000000
00000001
00001000
00000100
00000010
,
00000000
00000001
00000100
00000010
00000000
00001000
00000010
00000000
,
00000001
00000100
00000001
00000100
00001000
00000100
00001000
00000100
,
00001000
00010000
00001000
00010000
01000000
00010000
01000000
00010000
,
01000000
00100000
01000000
00000000
00100000
00010000
10000000
00200000
,
00000000
00000000
00000000
00300000
,
10000000
00000000
10000000
01000000
00010000
00001000
00000010
00000001
,
00001000
00000000
00000110
00000000
00001000
00001000
00000000
00001000
,
00000002
00000000
00000000
00000000
,
00002000
00000000
00000000
00003003
,
00000100
00010000
00010000
00001000
00010000
00010000
00000010
00010000
,
00010000
00002000
00000000
00000000
00000000
00000000
00013000
00000000
,
00001000
00100000
01000000
00100000
00001000
00100000
01000000
00100000
,
00010000
01000000
00100000
10000000
01000000
00010000
00001000
00010000
,
00000000
00000000
00000000
00002020
00000000
00000000
00000000
00000000
,
00000000
00000000
00000000
00000000
,
00000000
00000000
00000000
00000000
,
00000000
00000000
00000000
00000000
,
00003030
00000000
00000000
00000000
,
00000000
00000000
00000000
00000000
;
