
//----- song ID: tech -----//
#TITLE:TECH-NOID;
#ARTIST:Sota F.;
#BANNER:TECH-NOID.png;
#BACKGROUND:TECH-NOID-bg.png;
#CDTITLE:./CDTitles/DDR A.png;
#MUSIC:TECH-NOID.ogg;
#SAMPLESTART:82.165;
#SAMPLELENGTH:15;
#BPMS:0=146;
#NOTES:
     dance-single:
     :
     Beginner:
     2:
     :
0000
0000
0000
0000
,
0000
0000
0000
0000
,
0000
0000
0000
0000
,
0000
0000
0000
0000
,
0000
0000
0000
0000
,
0001
0000
1000
0000
,
0001
0000
0001
0000
,
1000
0000
0001
0000
,
1000
0000
1000
0000
,
0010
0000
0000
0000
,
0100
0000
0100
0000
,
0010
0000
0000
0000
,
1000
0000
1000
0000
,
0001
0000
0000
0000
,
1000
0000
1000
0000
,
0100
0000
0000
0000
,
0010
0000
0010
0000
,
0001
0000
0000
0000
,
1000
0000
0001
0000
,
1000
0000
0000
0000
,
0001
0000
0010
0000
,
0001
0000
0000
0000
,
1000
0000
0100
0000
,
1000
0000
0000
0000
,
0010
0000
0100
0000
,
0001
0000
0000
0000
,
1000
0000
0001
0000
,
1000
0000
0000
0000
,
0010
0000
0100
0000
,
0001
0000
0000
0000
,
0001
0000
1000
0000
,
0001
0000
0000
0000
,
0010
0000
0100
0000
,
1000
0000
0000
0000
,
1000
0000
0001
0000
,
0001
0000
0010
0000
,
0001
0000
1000
0000
,
1000
0000
0010
0000
,
1000
0000
1000
0000
,
0010
0000
1000
0000
,
0001
0000
0001
0000
,
0010
0000
0001
0000
,
0000
0000
0000
0000
,
0000
0000
0000
0000
,
0000
0000
0000
0000
,
0000
0000
0000
0000
,
1000
0000
0000
0000
,
0001
0000
0000
0000
,
1000
0000
0000
0000
,
1001
0000
0000
0000
,
0010
0000
0100
0000
,
0010
0000
0100
0000
,
0001
0000
1000
0000
,
0001
0000
1000
0000
,
0010
0000
0100
0000
,
0010
0000
0100
0000
,
0001
0000
0010
0000
,
1000
0000
0010
0000
,
0001
0000
0000
0000
,
1000
0000
0001
0000
,
1000
0000
1000
0000
,
0001
0000
1000
0000
,
0001
0000
0001
0000
,
0010
0000
0000
0000
,
0000
0000
0000
0000
;
#NOTES:
     dance-single:
     :
     Easy:
     5:
     :
0000
0000
0000
0000
,
0000
0000
0000
0000
,
0000
0000
0000
0000
,
0000
0000
0000
0000
,
0000
0000
0000
0000
,
0010
0010
1000
0000
,
1000
1000
0001
0000
,
0001
0001
0010
0000
,
0100
0100
1000
0001
,
1000
0000
0000
0000
,
0001
0010
0001
0000
,
1000
0010
1000
0000
,
0001
0010
0001
0000
,
1000
0010
1000
0000
,
0010
0001
0010
0000
,
0010
1000
0010
0000
,
0100
0001
0100
0000
,
0100
1000
0100
0000
,
1001
0000
0001
0010
,
0100
0010
0100
0000
,
1001
0000
1000
0010
,
0100
0010
0100
0000
,
0110
0000
0010
1000
,
0000
0001
0000
0000
1001
0000
0000
0000
,
0010
0100
0010
1000
,
0002
0000
0000
0013
,
0001
1000
0001
0001
,
0010
0001
1000
0000
,
0010
1000
0001
0001
,
0010
0100
1000
0000
,
0100
1000
0001
0001
,
0100
0001
1000
0000
,
1000
0100
1000
1000
,
0001
0100
0001
0000
,
2000
0000
3001
0100
,
0001
0100
0001
0010
,
0002
0000
1003
0100
,
1000
0100
1000
0010
,
0200
0000
0310
1000
,
0100
1000
0100
0100
,
0020
0000
0031
0100
,
0001
0100
0001
0010
,
0002
0000
0000
0003
,
2000
0000
0000
3000
,
0020
0000
0000
0030
,
2000
0000
0000
3000
,
2002
0000
0000
3003
,
0220
0000
0000
0330
,
2002
0000
0000
0000
0000
3003
0000
0000
,
0220
0000
0000
0330
,
0001
0100
0001
0100
,
0001
0100
0010
0000
,
0100
0010
0100
0010
,
0100
0001
1000
0000
,
0001
1000
0001
1000
,
0100
0010
0100
0000
,
1000
0010
1000
0010
,
0100
0000
0110
0000
,
0000
0000
0000
0000
,
0010
0010
0001
0000
,
0001
0001
1000
0000
,
1000
1000
0010
0000
,
0100
0100
0001
1000
,
0001
0000
0000
0000
,
0000
0000
0000
0000
;
#NOTES:
     dance-single:
     :
     Medium:
     9:
     :
0000
0000
0000
0000
,
0000
0000
0000
0000
,
0000
0000
0000
0000
,
0000
0000
0000
0000
,
0000
0000
0000
0000
,
1000
0000
0000
0001
0000
0000
0100
0000
0001
0000
0000
0001
0000
0000
0000
0000
,
0010
0000
0000
0100
0000
0000
1000
0000
0000
0100
0000
0000
0100
0000
1000
0000
,
0001
0000
0000
1000
0000
0000
0100
0000
1000
0000
0000
1000
0000
0000
0000
0000
,
0001
0000
0000
0000
0010
0000
0000
0000
0100
0000
0000
0000
1001
0000
0000
0100
,
0000
0000
0000
0000
,
0001
0000
1000
0000
0010
0100
0010
0000
,
1000
0000
0001
0000
1000
0010
1000
0000
,
0100
0000
0001
0000
0100
0001
0100
0000
,
0010
0000
0001
0000
0010
0001
0010
0000
,
0001
0000
1000
0000
0100
1000
0100
0000
,
1000
0000
0001
0000
0100
0001
0100
0000
,
0010
0000
0100
0000
0010
0100
0010
0000
,
1000
0000
0100
0000
0010
0100
1000
0000
,
0010
0000
1001
0000
0010
0001
0010
0000
,
0100
0000
1000
0000
0100
1000
0010
0000
,
0100
0000
0001
0000
0010
0100
0010
0000
,
0001
0000
0000
0000
0100
0000
0000
0000
1000
0000
0000
0100
0000
0000
0000
0000
,
0010
0000
0100
0000
0010
1000
0010
0000
,
0100
0010
0000
1000
0010
0000
0100
0000
,
0001
0010
0001
0100
0000
0000
0001
0000
,
0010
0100
1000
0100
,
1000
0100
0010
0000
0100
1000
0001
0000
,
0010
0001
1000
0001
0010
0000
0001
0000
,
0010
0001
0100
0000
0001
0100
0010
0000
,
0100
0001
0100
1000
0100
0000
0010
0000
,
0100
0001
0010
0000
0001
0010
0100
0000
,
1000
0010
1000
0001
1000
0000
0010
0000
,
0100
0000
0001
0000
1000
0000
0000
0001
0000
0000
1000
0000
0100
0000
0000
0000
,
0010
0000
0100
0000
0010
0000
0100
0000
1000
0000
0000
0001
0000
0000
0000
0000
,
2000
0000
3001
0100
1000
0100
0001
0000
,
0010
0001
0010
0100
0010
0000
0001
0000
,
0200
0000
0301
0010
1000
0010
0001
0000
,
0100
0010
1000
0010
0100
0000
0010
0000
,
2000
0000
3100
0000
1000
0100
0010
0001
,
0010
0000
0001
0000
0010
0010
0010
0000
,
1001
0000
0100
0000
0001
0100
0001
0100
,
0010
0000
1000
0100
0001
0100
1000
0000
,
0020
0000
0000
0000
,
0230
0000
0000
0000
,
0302
0000
0000
0000
,
2003
0000
0000
3000
,
2002
0000
0000
0000
0000
0000
0000
0000
3003
0000
0100
0000
0000
0010
0000
0000
,
0220
0000
0000
0000
0000
0000
0000
0000
0330
0000
0010
0000
0000
1000
0000
0000
,
1010
0000
0000
0000
0000
0000
0000
0000
0100
0000
0000
0010
0000
0000
0100
0000
,
0220
0000
0000
0000
0330
0000
0001
0000
0000
2002
0000
0000
0000
0000
3003
0000
,
1000
0000
0100
0000
1000
0001
0100
0010
,
0100
0000
0001
0000
0010
0100
0010
0001
,
0010
0000
0001
0100
1000
0000
1000
0100
,
0001
0000
0010
0000
0001
0100
0010
0100
,
1000
0000
0100
0000
0001
0100
0001
1000
,
0010
0000
1000
0000
0100
1000
0100
0010
,
0001
0000
0000
0000
1000
0000
0001
0000
0100
0000
0000
0010
0000
0000
1000
0000
,
0000
0000
0000
0100
0000
0000
1000
0002
,
0000
0000
0000
0003
,
0001
0000
0000
1000
0000
0000
0100
0000
1000
0000
0000
1000
0000
0000
0000
0000
,
0010
0000
0000
0100
0000
0000
0001
0000
0000
0100
0000
0000
0100
0000
0001
0000
,
1000
0000
0000
0001
0000
0000
0100
0000
0001
0000
0000
0001
0000
0000
0000
0000
,
1000
0000
0000
0000
0010
0000
0000
0000
0100
0000
0000
0000
1001
0000
0000
0100
,
0000
0000
0000
0000
;
#NOTES:
     dance-single:
     :
     Hard:
     12:
     :
0000
0000
0000
0000
,
0000
0000
0000
0000
,
0000
0000
0000
0000
,
0000
0000
0000
0000
,
0000
0000
0000
0000
,
1000
0000
0000
0001
0000
0100
0001
0000
1000
0000
0000
1100
0000
0000
0000
0000
,
0011
0000
0000
0110
0000
0000
1100
0000
0000
0100
0000
0000
0100
0000
1000
0000
,
0001
0000
0000
1000
0000
0100
1000
0000
0001
0000
0000
0011
0000
0000
0000
0000
,
1001
0000
0000
0000
0110
0000
0000
0000
0101
0000
0000
0000
1001
0000
0000
0100
,
0000
0000
0000
0000
,
1100
0000
0001
0100
0010
1000
0010
1000
,
0100
0001
0100
0010
0001
0100
0010
0000
,
1000
0010
0100
0010
0100
0001
0010
0100
,
0010
0001
0010
1000
0010
0100
1000
0000
,
0011
0000
0100
0001
1000
0100
0010
0100
,
1000
0010
1000
0010
0100
0001
0010
0000
,
0110
0000
1000
0001
0010
0001
0100
0001
,
1000
0010
0100
0001
0010
0100
1000
0000
,
1001
0000
0001
0010
0001
1000
0010
0001
,
0010
0100
0001
0010
1000
0010
0100
1000
,
0010
1000
0010
1000
0001
0100
0010
0100
,
0001
0000
0010
0000
0100
0000
1000
0000
0100
0000
0000
0101
0000
0000
0000
0000
,
1001
0000
0010
0001
1000
0010
0100
0001
,
0010
0011
0000
0001
0100
1000
0100
0010
,
1000
0000
0010
0000
1000
0001
1000
0001
0000
0000
0100
0000
0010
0000
0100
0000
,
0001
0000
1000
0000
0100
0010
0000
0001
0010
0000
0100
0010
0001
0000
0000
0000
,
1000
0100
0010
0100
1000
0100
0010
0100
,
1000
0010
0001
1000
0100
0001
1000
0010
,
0001
0010
0100
0010
0001
0010
0100
0001
,
0100
0010
1000
0100
0010
0001
0100
0010
,
0001
0010
0100
0001
0010
0100
0001
1000
,
0001
0100
1000
0001
0010
1000
0001
0100
,
1000
0000
0001
0000
0010
0000
0000
0110
0000
0000
0100
0000
1000
0000
0100
0000
,
0010
0000
0001
0000
0100
0000
0001
0000
0100
0000
0000
0011
0000
0000
0000
0000
,
1001
0000
0000
0000
0110
0000
0001
0100
0001
0000
1000
0000
0010
0000
1000
0000
,
0001
0010
1000
0100
1000
0010
0001
0000
,
0110
0000
0000
0000
1001
0000
1000
0100
1000
0000
0001
0000
0010
0000
0001
0000
,
1000
0010
0001
0100
0001
0010
1000
0000
,
0110
0000
1001
0000
0100
0001
1000
0001
,
1000
0000
0100
1000
0100
0000
0010
0100
0010
0000
0001
0000
0001
0000
0000
0000
,
1000
0000
0101
0000
0010
0100
0010
0001
,
0010
0000
1000
0010
1000
0000
0001
0000
0010
0001
0010
0001
0010
0000
0000
0000
,
0002
0013
2000
3010
,
0002
0103
2000
3100
,
0020
1030
0200
0301
,
0020
0000
1030
0000
0200
0000
0000
0300
,
0220
0000
0000
0000
0000
0000
0000
0000
0330
0000
0110
0000
0000
1001
0000
0000
,
0202
0000
0000
0000
0000
0000
0000
0000
0303
0000
0101
0000
0000
0110
0000
0000
,
2002
0000
0000
0000
0000
0000
3003
0000
1001
0000
0000
1010
0000
0000
0110
0000
,
0202
0000
0000
0000
0303
0000
0011
0000
0000
0022
0000
0000
0000
0000
0033
0000
,
1000
0000
0001
0000
1000
0000
0001
0000
0100
0000
0010
1000
0010
0000
0100
0000
,
0001
0000
0100
0000
0001
0000
0100
0000
0010
0000
1000
0100
1000
0000
0001
0000
,
0100
1000
0100
0001
0010
0100
0010
0001
,
0100
1000
0001
0010
1000
0001
0100
0010
,
0100
0000
0001
0000
0100
0000
0001
0000
1000
0000
0010
0100
0010
0000
0100
0000
,
0001
0000
0010
0000
0001
0000
0010
0000
0100
0000
0010
0001
0010
0000
0001
0000
,
1000
0000
0100
0000
0001
0000
0100
0000
1100
0000
0000
0110
0000
0000
0011
0000
,
0000
0000
0000
0000
0000
0000
1001
0000
0000
0101
0000
0000
0020
0000
0200
0000
,
0000
0000
0000
0000
0000
0000
0000
0330
,
0001
0000
0000
1000
0000
0100
1000
0000
0001
0000
0000
0101
0000
0000
0000
0000
,
1010
0000
0000
0110
0000
0000
0101
0000
0000
0100
0000
0000
0100
0000
0001
0000
,
1000
0000
0000
0001
0000
0100
0001
0000
1000
0000
0000
1010
0000
0000
0000
0000
,
1001
0000
0000
0000
0110
0000
0000
0000
1100
0000
0000
0000
1001
0000
0000
0100
,
0000
0000
0000
0000
;
#NOTES:
     dance-double:
     :
     Easy:
     6:
     :
00000000
00000000
00000000
00000000
,
00000000
00000000
00000000
00000000
,
00000000
00000000
00000000
00000000
,
00000000
00000000
00000000
00000000
,
00000000
00000000
00000000
00000000
,
00010000
00001000
00000010
00000000
,
00000010
00001000
00010000
00000000
,
00001000
00010000
00000010
00000000
,
00000100
00000010
00010000
00000100
,
00010000
00000000
00000000
00000000
,
00001000
00010000
00000010
00000000
,
00000100
00000001
00000100
00000000
,
00000010
00010000
00001000
00000000
,
00010000
00001000
00100000
00000000
,
01000000
10000000
01000000
00000000
,
00100000
00001000
00010000
00000000
,
00001000
00010000
00000100
00000000
,
00000010
00000100
00001000
00000000
,
00001001
00000000
00000010
00000100
,
00001000
00010000
00100000
00000000
,
10010000
00000000
00100000
01000000
,
00010000
00001000
00000010
00000000
,
00000110
00000000
00000100
00001000
,
00000000
00010000
00000000
00000000
00011000
00000000
00000000
00000000
,
00100000
00001000
00010000
00001000
,
02000000
00000000
00000000
03100000
,
10000000
00010000
10000000
10000000
,
00010000
00100000
00001000
00000000
,
00100000
00001000
00010000
00010000
,
00000100
00000010
00000001
00000000
,
00000001
00001000
00000001
00000001
,
00001000
00000010
00010000
00000000
,
00000010
00010000
00001000
00001000
,
01000000
00100000
10000000
00000000
,
00020000
00000000
00130000
00010000
,
00001000
00000100
00000010
00000000
,
00000002
00000000
00000013
00000100
,
00001000
00010000
00100000
00000000
,
00020000
00000000
01030000
00010000
,
00001000
00000010
00000100
00000000
,
00000020
00000000
00000130
00000010
,
00001000
00010000
01000000
00000000
,
00200000
00000000
00000000
00300000
,
00020000
00000000
00000000
00030000
,
00002000
00000000
00000000
00003000
,
00000200
00000000
00000000
00000300
,
00002002
00000000
00000000
00003003
,
00000220
00000000
00000000
00000330
,
00002002
00000000
00000000
00000000
00000000
00003003
00000000
00000000
,
00000220
00000000
00000000
00000330
,
00000001
00000100
00001000
00000100
,
00000001
00000100
00001000
00000000
,
00010000
00100000
10000000
00100000
,
00010000
00100000
10000000
00000000
,
01000000
00010000
00001000
00010000
,
01000000
00010000
00001000
00000000
,
00000010
00001000
00010000
00001000
,
00000010
00000000
00000110
00000000
,
00000000
00000000
00000000
00000000
,
00001000
00010000
00100000
00000000
,
00100000
00010000
00001000
00000000
,
00010000
00001000
00100000
00000000
,
01000000
00100000
00001000
01000000
,
00001000
00000000
00000000
00000000
,
00000000
00000000
00000000
00000000
;
#NOTES:
     dance-double:
     :
     Medium:
     9:
     :
00000000
00000000
00000000
00000000
,
00000000
00000000
00000000
00000000
,
00000000
00000000
00000000
00000000
,
00000000
00000000
00000000
00000000
,
00000000
00000000
00000000
00000000
,
00010000
00000000
00000000
00001000
00000000
00000000
00010000
00000000
00001000
00000000
00000000
00000010
00000000
00000000
00000000
00000000
,
00001000
00000000
00000000
00010000
00000000
00000000
00001000
00000000
00000000
01000000
00000000
00000000
00010000
00000000
01000000
00000000
,
00010000
00000000
00000000
10000000
00000000
00000000
01000000
00000000
10000000
00000000
00000000
00010000
00000000
00000000
00000000
00000000
,
00001000
00000000
00000000
00000000
00000100
00000000
00000000
00000000
00000010
00000000
00000000
00000000
00001001
00000000
00000000
00000100
,
00000000
00000000
00000000
00000000
,
00000001
00000000
00001000
00000000
00000010
00010000
00000010
00000000
,
00010000
00000000
00100000
00000000
00010000
00001000
00010000
00000000
,
00001000
00000000
01000000
00000000
00100000
01000000
00100000
00000000
,
10000000
00000000
00010000
00000000
00100000
00010000
00100000
00000000
,
00010000
00000000
01000000
00000000
00001000
00100000
00001000
00000000
,
00010000
00000000
00001000
00000000
00000010
00000100
00000010
00000000
,
00000001
00000000
00000100
00000000
00000010
00001000
00000010
00000000
,
00010000
00000000
00000100
00000000
00000010
00000100
00001000
00000000
,
00000010
00000000
00001001
00000000
00000010
00001000
00000010
00000000
,
00010000
00000000
00100000
00000000
00010000
00001000
00100000
00000000
,
01000000
00000000
10000000
00000000
01000000
00100000
00010000
00000000
,
00001000
00000000
00000000
00000000
00000100
00000000
00000000
00000000
00001000
00000000
00000000
00000001
00000000
00000000
00000000
00000000
,
00001000
00000000
00000010
00000000
00000100
00000001
00000100
00000000
,
00000010
00001000
00000000
00010000
00001000
00000000
00000010
00000000
,
00010000
00001000
00010000
00100000
00000000
00000000
00010000
00000000
,
00001000
00100000
01000000
10000000
,
01000000
00100000
00010000
00000000
00100000
00010000
01000000
00000000
,
00010000
00100000
00001000
00010000
00000010
00000000
00001000
00000000
,
00000100
00001000
00000001
00000000
00001000
00000001
00000010
00000000
,
00000100
00010000
00001000
00010000
00000100
00000000
00010000
00000000
,
00100000
10000000
01000000
00000000
10000000
01000000
00010000
00000000
,
01000000
00100000
00010000
00001000
00010000
00000000
10000000
00000000
,
01000000
00000000
10000000
00000000
00010000
00000000
00000000
10000000
00000000
00000000
01000000
00000000
00010000
00000000
00000000
00000000
,
00001000
00000000
00010000
00000000
00001000
00000000
00010000
00000000
00001000
00000000
00000000
00000010
00000000
00000000
00000000
00000000
,
00000020
00000000
00000130
00000000
00001000
00000100
00000001
00000000
,
00000100
00001000
00000100
00000010
00000100
00000000
00001000
00000000
,
00020000
00000000
00031000
00000000
00010000
00100000
10000000
00000000
,
00100000
00010000
00100000
01000000
00100000
00000000
00010000
00000000
,
20000000
00000000
31000000
00000000
10000000
01000000
00100000
00010000
,
00100000
00000000
00001000
00000000
00010000
00010000
00010000
00000000
,
00001010
00000000
00000100
00000000
00001000
00000100
00001000
00000000
,
00000001
00000000
00001000
00000100
00000001
00000100
00001000
00000000
,
00000020
00000000
00000000
00000000
,
00002030
00000000
00000000
00000000
,
00023000
00000000
00000000
00000000
,
02030000
00000000
00000000
03000000
,
20020000
00000000
00000000
00000000
00000000
00000000
00000000
00000000
30030000
00000000
01000000
00000000
00000000
00100000
00000000
00000000
,
02200000
00000000
00000000
00000000
00000000
00000000
00000000
00000000
03300000
00000000
00100000
00000000
00000000
00010000
00000000
00000000
,
00220000
00000000
00000000
00000000
00000000
00000000
00330000
00000000
00100000
00000000
00000000
00001000
00000000
00000000
00010000
00000000
,
00022000
00000000
00000000
00000000
00033000
00000000
00001000
00000000
00000000
00002200
00000000
00000000
00000000
00000000
00003300
00000000
,
00001000
00000000
00000100
00000000
00001000
00000001
00000100
00001000
,
00000100
00000000
00000010
00000000
00010000
00001000
00000010
00001000
,
00010000
00000000
00100000
00010000
00001000
00000000
00001000
00010000
,
01000000
00000000
10000000
00000000
00010000
01000000
00100000
01000000
,
10000000
00000000
01000000
00000000
00010000
01000000
10000000
01000000
,
00010000
00000000
00100000
00000000
00001000
00010000
00100000
00010000
,
00001000
00000000
00000000
00000000
00000010
00000000
00001000
00000000
00010000
00000000
00000000
00000100
00000000
00000000
00000010
00000000
,
00000000
00000000
00000000
00001000
00000000
00000000
00010000
00001000
,
00000000
00000000
00000000
00000000
,
00001000
00000000
00000000
00010000
00000000
00000000
00001000
00000000
00010000
00000000
00000000
00100000
00000000
00000000
00000000
00000000
,
00010000
00000000
00000000
00001000
00000000
00000000
00010000
00000000
00000000
00000100
00000000
00000000
00001000
00000000
00000100
00000000
,
00001000
00000000
00000000
00000001
00000000
00000000
00000100
00000000
00000001
00000000
00000000
00001000
00000000
00000000
00000000
00000000
,
00010000
00000000
00000000
00000000
01000000
00000000
00000000
00000000
00100000
00000000
00000000
00000000
10010000
00000000
00000000
01000000
,
00000000
00000000
00000000
00000000
;
#NOTES:
     dance-double:
     :
     Hard:
     13:
     :
00000000
00000000
00000000
00000000
,
00000000
00000000
00000000
00000000
,
00000000
00000000
00000000
00000000
,
00000000
00000000
00000000
00000000
,
00000000
00000000
00000000
00000000
,
00010000
00000000
00000000
00000010
00000000
00000100
00001000
00000000
00010000
00000000
00000000
00011000
00000000
00000000
00000000
00000000
,
00110000
00000000
00000000
01100000
00000000
00000000
11000000
00000000
00000000
10000000
00000000
00000000
01000000
00000000
10000000
00000000
,
00010000
00000000
00000000
10000000
00000000
01000000
00010000
00000000
00001000
00000000
00000000
00101000
00000000
00000000
00000000
00000000
,
00011000
00000000
00000000
00000000
00000110
00000000
00000000
00000000
00000011
00000000
00000000
00000000
00001001
00000000
00000000
00000100
,
00000000
00000000
00000000
00000000
,
00001100
00000000
00000001
00000100
00000010
00001000
00000010
00001000
,
00000100
00000001
00000100
00000010
00001000
00010000
01000000
00000000
,
10000000
00100000
01000000
00100000
01000000
00010000
00100000
01000000
,
00100000
00010000
00001000
00000100
00000010
00000001
00000010
00000000
,
00000011
00000000
00000100
00000001
00001000
00000100
00000010
00000100
,
00001000
00000010
00010000
00001000
01000000
00010000
00100000
00000000
,
01100000
00000000
10000000
00010000
00100000
00010000
01000000
00010000
,
10000000
00100000
01000000
00010000
00100000
00001000
00010000
00000000
,
00011000
00000000
00000010
00001000
00000100
00001000
00000010
00000001
,
00000010
00000100
00000001
00000010
00001000
00010000
01000000
10000000
,
00100000
10000000
00100000
10000000
00010000
01000000
00100000
01000000
,
00100000
00000000
00010000
00000000
00001000
00000000
00000100
00000000
00000001
00000000
00000000
00000101
00000000
00000000
00000000
00000000
,
00001001
00000000
00000010
00000001
00001000
00000010
00000100
00000001
,
00000010
00000011
00000000
00000001
00000100
00001000
00010000
00001000
,
00100000
00000000
00010000
00000000
10000000
00010000
10000000
00010000
00000000
00000000
01000000
00000000
00100000
00000000
01000000
00000000
,
00010000
00000000
10000000
00000000
01000000
00100000
00000000
00010000
00100000
00000000
01000000
00100000
00010000
00000000
00000000
00000000
,
10000000
01000000
00010000
00001000
00000010
00000001
00000010
00001000
,
00000001
00000100
00001000
00000001
00000010
00001000
00000001
00000100
,
00001000
00010000
00100000
10000000
00100000
00010000
00001000
00010000
,
00100000
01000000
00010000
00001000
00000010
00000001
00000100
00000000
,
00001000
00000100
00000001
00000100
00001000
00010000
00100000
10000000
,
00010000
01000000
10000000
00010000
00100000
10000000
00010000
01000000
,
10000000
01000000
00010000
00001000
00000010
00000001
00000010
00001000
,
00010000
00000000
00001000
00000000
00000100
00000000
00000001
00000000
00000100
00000000
00000000
00000101
00000000
00000000
00000000
00000000
,
00001001
00000000
00000000
00000000
00000110
00000000
00000100
00000001
00000100
00000000
00000010
00000000
00001000
00000000
00000010
00000000
,
00000100
00000001
00000010
00000100
00010000
00001000
00000010
00000000
,
00000110
00000000
00000000
00000000
00001001
00000000
00000001
00000100
00000001
00000000
00001000
00000000
00000100
00000000
00000010
00000000
,
00000001
00001000
00000010
00000100
00010000
00001000
00000010
00000000
,
00001001
00000000
00000100
00000000
00010000
00001000
00010000
00100000
,
01000000
00000000
00100000
01000000
00100000
00000000
10000000
00100000
10000000
00000000
01000000
00000000
01000000
00000000
00000000
00000000
,
00010000
00000000
11000000
00000000
00100000
10000000
00100000
00010000
,
00001000
00000000
00010000
00001000
00010000
00000000
00000100
00000000
00000010
00000001
00000010
00000001
00000010
00000000
00000000
00000000
,
00000002
00000013
00002000
00003010
,
00000200
00010300
00200000
00310000
,
00002000
00103000
02000000
03010000
,
00200000
00000000
10300000
00000000
00020000
00000000
20000000
30030000
,
20020000
00000000
00000000
00000000
00000000
00000000
00000000
00000000
30030000
00000000
10010000
00000000
00000000
00110000
00000000
00000000
,
00202000
00000000
00000000
00000000
00000000
00000000
00000000
00000000
00303000
00000000
00101000
00000000
00000000
00011000
00000000
00000000
,
00020200
00000000
00000000
00000000
00000000
00000000
00030300
00000000
00010100
00000000
00000000
00001100
00000000
00000000
00000110
00000000
,
00002002
00000000
00000000
00000000
00003003
00000000
00000011
00000000
00000000
00000022
00000000
00000000
00000000
00000000
00000033
00000000
,
00001000
00000000
00000010
00000000
00000001
00000000
00000010
00000000
00000100
00000000
00000010
00001000
00000010
00000000
00000100
00000000
,
00001000
00000000
00010000
00000000
00100000
00000000
10000000
00000000
00100000
00000000
01000000
00100000
01000000
00000000
00010000
00000000
,
10000000
01000000
00010000
00001000
00000010
00000001
00000010
00001000
,
00000001
00000100
00001000
00010000
00100000
10000000
00010000
01000000
,
10000000
00000000
00100000
00000000
10000000
00000000
00100000
00000000
01000000
00000000
00010000
01000000
00010000
00000000
00100000
00000000
,
00010000
00000000
00001000
00000000
00000100
00000000
00000001
00000000
00000100
00000000
00000010
00000100
00000010
00000000
00000001
00000000
,
00000100
00000000
00001000
00000000
00010000
00000000
00001000
00000000
00001100
00000000
00000000
00000110
00000000
00000000
00000101
00000000
,
00000000
00000000
00000000
00000000
00000000
00000000
00001001
00000000
00000000
00001100
00000000
00000000
00020000
00000000
00002000
00000000
,
00000000
00000000
00000000
00000000
00000000
00000000
00000000
00033000
,
00001000
00000000
00000000
00100000
00000000
01000000
00010000
00000000
00001000
00000000
00000000
00011000
00000000
00000000
00000000
00000000
,
00001010
00000000
00000000
00000110
00000000
00000000
00000101
00000000
00000000
00000001
00000000
00000000
00000100
00000000
00000001
00000000
,
00001000
00000000
00000000
00000001
00000000
00000100
00001000
00000000
00010000
00000000
00000000
00010010
00000000
00000000
00000000
00000000
,
00011000
00000000
00000000
00000000
01100000
00000000
00000000
00000000
10100000
00000000
00000000
00000000
10010000
00000000
00000000
01000000
,
00000000
00000000
00000000
00000000
;
