
//----- song ID: stch -----//
#TITLE:Strawberry Chu♡Chu♡;
#ARTIST:ときめきアイドル project クッキーパラダイス;
#ARTISTTRANSLIT:Tokimeki Idol project Cookie Paradise;
#BANNER:Strawberry Chu Chu.png;
#BACKGROUND:Strawberry Chu Chu-bg.png;
#CDTITLE:./CDTitles/DDR A.png;
#MUSIC:Strawberry Chu Chu.ogg;
#SAMPLESTART:50.992;
#SAMPLELENGTH:15;
#DISPLAYBPM:137;
#BPMS:0=137.5,4=137;
#NOTES:
     dance-single:
     :
     Beginner:
     2:
     :
0000
0000
0000
0000
,
0000
0000
0000
0000
,
0000
0000
0000
0000
,
0000
1000
1000
0000
,
0000
0010
0010
0000
,
0000
1000
1000
0000
,
0000
0100
0100
0000
,
0000
0001
0001
0000
,
0000
0010
0010
0000
,
0000
0001
0001
0000
,
0010
0000
0100
0000
,
2000
3000
1000
0000
,
0000
1000
1000
0000
,
0002
0003
0001
0000
,
0000
0001
0001
0000
,
2000
3000
1000
0000
,
0000
0010
0010
0000
,
0002
0003
0001
0000
,
0000
0010
0010
0000
,
0001
0000
1000
0000
,
1001
0000
0000
0000
,
1000
0000
1000
0000
,
0010
0010
0010
0000
,
0001
0000
0001
0000
,
0010
0010
0010
0010
,
0001
0000
0001
0000
,
0100
0100
0100
0000
,
1001
0000
1001
0000
,
2002
0000
3003
0000
,
0000
1000
1000
0010
,
2000
0000
3000
0000
,
0000
0001
0001
0010
,
0002
0000
0003
0000
,
0000
1000
0010
1000
,
0020
0000
0030
0000
,
1000
0000
0001
0000
,
0010
0010
1001
0000
,
0000
1000
1000
0000
,
0000
0010
0010
0000
,
0000
1000
1000
0000
,
0000
0100
0100
0000
,
0000
0001
0001
0000
,
0000
0010
0010
0000
,
0000
0001
0001
0000
,
0010
0000
0100
0000
,
0020
0000
0030
0000
,
2000
0000
3000
0000
,
0200
0000
0300
0000
,
0001
0001
0001
0001
,
0020
0000
0030
0000
,
0002
0000
0003
0000
,
1001
0000
1001
0000
,
2002
0000
3003
0000
,
0000
1000
1000
0010
,
2000
0000
3000
0000
,
0000
0001
0001
0010
,
0002
0000
0003
0000
,
0000
1000
0010
1000
,
0020
0000
0030
0000
,
1000
0000
0001
0000
,
0010
0010
1001
0000
,
1000
0000
0001
0000
,
1001
1001
1001
0000
,
0000
0000
0000
0000
;
#NOTES:
     dance-single:
     :
     Easy:
     7:
     :
0000
0000
0000
0000
,
0000
0000
0000
0000
,
0000
0000
0000
0000
,
2000
3100
0002
0013
,
2000
3100
0002
0013
,
2000
3100
0200
0310
,
0020
0031
0002
1003
,
0002
0013
2000
3100
,
0002
0013
2000
3100
,
1001
1001
0110
0110
,
0001
0100
1000
0010
,
0002
2003
3010
0110
,
0000
1010
1001
0000
,
2000
3200
0310
0011
,
0000
0110
1100
0000
,
2000
3020
0130
0101
,
0000
0110
1010
0000
,
0002
0023
0130
1100
,
0000
0011
1001
0000
,
1000
0100
0001
0010
,
1001
0000
0000
0000
,
0000
1000
1000
1000
,
0100
0010
0002
0003
,
0000
0001
0001
1000
,
0110
0110
1001
1001
,
0000
0001
0001
0001
,
0100
0010
1000
0002
,
1003
2000
3001
0002
,
0013
0100
1001
0000
,
0000
1000
0001
1000
,
0100
0010
0002
0003
,
0000
0001
1000
0001
,
1000
0010
0200
0300
,
0000
0001
1000
0001
,
0010
0100
0110
0000
,
1000
0100
0001
0010
,
0100
0010
1001
0000
,
2000
3100
0002
0013
,
2000
3100
0002
0013
,
2000
3100
0200
0310
,
0020
0031
0002
1003
,
0002
0013
2000
3100
,
0002
0013
2000
3100
,
1001
1001
0110
0110
,
0001
0100
1000
0010
,
0002
0000
1003
0000
,
2000
0000
3100
0000
,
0010
0010
0001
1000
,
1001
0110
1001
0110
,
0002
0000
0103
0100
,
0020
0000
1030
0002
,
1003
2000
3001
0002
,
0013
0100
1001
0000
,
0000
1000
0001
1000
,
0100
0010
0002
0003
,
0000
0001
1000
0001
,
1000
0010
0200
0300
,
0000
0001
1000
0001
,
0010
0100
0110
0000
,
1000
0100
0001
0010
,
0100
0010
1001
0000
,
0110
0000
1001
0000
,
0010
0100
1001
0000
,
0000
0000
0000
0000
;
#NOTES:
     dance-single:
     :
     Medium:
     11:
     :
0000
0000
0000
0000
,
0000
0000
0000
0000
,
0000
0000
0000
0000
,
0000
1000
0001
0000
0001
0100
1000
0100
,
0000
0001
1000
0000
1000
0100
0001
0100
,
0000
1000
0001
0000
0001
0010
0100
0010
,
0000
0001
1000
0000
1000
0010
0100
0010
,
0000
1000
0001
0000
0001
0010
1000
0010
,
0000
0001
1000
0000
1000
0010
0001
0010
,
0000
1000
0001
0000
0001
1000
0001
0000
,
1001
0110
1001
0110
,
1000
0100
1000
0000
0001
0010
0020
0000
,
0000
0100
0130
0000
1000
0001
0100
0000
,
0100
0010
1000
0000
0002
0000
1003
0000
,
0000
0001
1000
0000
0100
0010
0110
0000
,
0001
0010
0100
1000
0001
0100
0020
0000
,
0000
0100
0130
0000
0001
0100
0010
0000
,
1000
0001
1000
0000
0110
0000
2001
0000
,
0000
0001
3001
0000
0010
0100
1000
0000
,
0001
0010
0100
0000
1000
0001
0100
0000
,
1001
0000
0000
0000
,
0000
0001
1000
0100
0010
0001
0100
0000
,
0001
1000
0100
0001
0200
0000
0300
0000
,
0000
1000
0001
0010
0100
1000
0001
0000
,
0011
1001
1010
1001
,
0000
1000
0001
0100
0010
1000
0001
0000
,
0010
0100
1000
0001
1000
0000
0001
1000
,
0010
0000
0100
0001
1000
0000
0001
1000
,
0001
0010
0100
0010
2002
0000
3003
0000
,
0000
0001
0010
0100
1000
0010
0100
0000
,
0001
0100
1000
0100
0002
0000
0003
0000
,
0000
1000
0100
0010
0001
0100
0010
0000
,
1000
0100
0001
0100
2000
0000
3000
0000
,
0000
0001
0010
0100
1000
0010
0100
0001
,
1000
0100
0001
0100
2000
0000
3000
0000
,
0000
0001
0010
0100
0010
0100
1000
0000
,
0001
0100
0010
1000
1001
0000
0000
0000
,
0000
1000
0001
0000
0001
0100
1000
0100
,
0000
0001
1000
0000
1000
0100
0001
0100
,
0000
1000
0001
0000
0001
0010
0100
0010
,
0000
0001
1000
0000
1000
0010
0100
0010
,
0000
1000
0001
0000
0001
0010
1000
0010
,
0000
0001
1000
0000
1000
0010
0001
0010
,
0000
1000
0001
0000
0001
1000
0001
0000
,
1001
0110
1001
0110
,
2000
0000
0100
0000
0100
0000
3100
0010
,
0002
0010
0010
0013
,
2000
3100
0002
0103
,
1001
1010
1001
0011
,
2000
0000
0001
0000
0001
0000
3001
0100
,
0020
0000
1000
0000
1030
0000
0001
0100
,
0001
0000
1000
0010
1000
0000
0001
1000
,
0110
1001
0110
0000
,
0000
0001
0010
0100
1000
0010
0100
0000
,
0001
0100
1000
0100
0002
0000
0003
0000
,
0000
1000
0100
0010
0001
0100
0010
0000
,
1000
0100
0001
0100
2000
0000
3000
0000
,
0000
0001
0010
0100
1000
0010
0100
0001
,
1000
0100
0001
0100
2000
0000
3000
0000
,
0000
0001
0010
0100
0010
0100
1000
0000
,
0001
0100
0010
1000
1001
0000
0000
0000
,
1001
0000
0110
0000
,
1001
0110
1001
0000
,
0000
0000
0000
0000
;
#NOTES:
     dance-single:
     :
     Hard:
     13:
     :
0000
0000
0000
0000
,
0000
0000
0000
0000
,
0000
0000
0000
0000
,
0000
0000
0001
0000
0100
0000
0000
0010
0000
1000
0000
0010
0100
0000
0001
0000
,
0000
0000
0010
0000
0100
0000
0000
1000
0000
0001
0000
1000
0010
0000
0100
0000
,
0000
0000
0001
0000
1000
0000
0000
0100
0000
0010
0000
0001
1000
0000
0100
0000
,
0000
0000
0010
0000
0001
0000
0000
0010
0000
0100
0000
1000
0001
0000
1000
0000
,
0000
0000
0001
0000
0100
0000
0000
0010
0000
1000
0000
0010
0100
0000
0001
0000
,
0000
0000
0010
0000
0100
0000
0000
1000
0000
0010
0000
1000
0001
0000
0100
0000
,
0000
0000
0001
0000
1000
0000
0000
0100
0000
0010
0000
0001
0010
0100
1000
0100
,
0010
0010
0001
0001
1000
1000
0010
0010
,
0100
0000
0001
0000
1000
0000
0001
0000
0010
0100
0000
2000
0000
0000
0000
0000
,
3000
0000
0100
0000
0010
0000
0000
0001
0000
1000
0000
0001
1000
0000
0010
0000
,
0100
0000
0001
0000
0010
0000
0100
0000
1000
0001
0000
0200
0000
0000
0000
0000
,
0300
0000
0010
0000
1000
0000
0000
0001
0000
0010
0000
0100
1000
0000
0100
0000
,
0010
0000
0001
0000
1000
0000
0001
0100
0000
0010
0000
1000
0000
0002
0000
0000
,
0003
0000
0010
0000
0100
0000
0000
1000
0000
0001
0000
1000
0010
0000
0100
0000
,
0001
0000
0010
0000
1000
0000
0010
0000
0001
0100
0000
0010
0000
2000
0000
0000
,
3000
0000
0010
0000
0001
0000
0000
0010
0000
1000
0000
0001
1000
0000
0001
0000
,
0010
0000
0100
0000
1000
0001
0000
0100
0000
0000
0010
0000
1000
0001
0000
0010
,
0000
0100
0001
0100
1000
0010
1000
0010
,
0000
1000
0100
0001
1000
0010
0001
0010
,
0100
0000
1000
0000
0001
0100
0000
0010
0000
0000
0220
0000
0000
0000
0000
0000
,
0330
0001
0100
1000
0001
0010
1000
0010
,
0110
1001
0110
1001
,
0000
0000
0001
0000
0010
0000
1000
0000
0001
0000
0100
1000
0000
0000
0100
0000
,
0010
0000
0001
0000
1000
0001
0000
0100
0000
0000
0000
0000
0010
1000
0000
0010
,
0000
0000
0000
0000
0100
0001
0000
0100
0000
0000
0000
0000
0010
0000
1000
0000
,
0100
0000
0010
0000
0001
0010
0000
0220
0000
0000
0000
0000
0330
0000
0000
0000
,
0000
0000
0001
0000
0010
0000
0100
0000
1000
0000
0001
0010
0000
0100
1000
0000
,
0010
0000
0100
0000
0001
0000
1000
0002
0000
0000
0010
0000
0013
0000
0000
0000
,
0000
0000
1000
0000
0010
0000
0100
0000
0001
0000
1000
0010
0000
0100
0001
0000
,
0010
0000
0100
0000
1000
0000
0001
2000
0000
0000
0010
0000
3010
0000
0000
0000
,
0000
0000
0001
0000
0100
0000
1000
0000
0001
0000
0010
1000
0000
0001
0100
0000
,
0110
0110
1001
0110
2002
0000
3003
0000
,
0000
0001
0010
0100
1000
0010
0100
0001
,
1000
0100
0010
0001
1000
0001
0110
0000
,
0000
0000
1000
0000
0010
0000
0000
0100
0000
0001
0000
0100
0010
0000
1000
0000
,
0000
0000
0100
0000
0010
0000
0000
0001
0000
1000
0000
0001
0100
0000
0010
0000
,
0000
0000
1000
0000
0001
0000
0000
0010
0000
0100
0000
1000
0001
0000
0010
0000
,
0000
0000
0100
0000
1000
0000
0000
0100
0000
0010
0000
0001
1000
0000
0001
0000
,
0000
0000
1000
0000
0010
0000
0000
0100
0000
0001
0000
0100
0010
0000
1000
0000
,
0000
0000
0100
0000
0010
0000
0000
0001
0000
0100
0000
0001
1000
0000
0010
0000
,
0000
0000
1000
0000
0001
0000
0000
0010
0000
0100
0000
1000
0100
0010
0001
0010
,
0100
0100
1000
1000
0001
0001
0100
0100
,
0001
0000
0000
0010
0000
0000
0100
0000
1000
0000
0000
0000
0000
0000
0010
0000
,
0100
0000
0000
0001
0000
0000
0100
0000
0010
0000
0000
0000
0000
0000
0000
0000
,
1000
0000
0000
0100
0000
0000
0010
0000
0001
0000
0100
0000
0010
0000
1000
0000
,
1001
0110
1001
0110
,
0001
0000
0000
0010
0000
0000
0100
0000
1000
0000
0010
0000
0100
0000
0001
0000
,
1000
0000
0000
0100
0000
0000
0010
0000
0011
0000
0000
0000
1000
0100
0000
1100
,
0000
0000
0000
0000
0010
0001
0000
0011
0000
0000
0000
0000
0010
0000
0100
0000
,
1100
0000
0000
0110
0000
0000
0011
0000
2002
0000
0000
0000
3003
0000
0000
0000
,
0000
0000
1000
0000
0100
0000
0010
0000
0001
0000
1000
0100
0000
0010
0001
0000
,
0100
0000
0010
0000
1000
0000
0001
2000
0000
0000
0100
0000
3100
0000
0000
0000
,
0000
0000
0001
0000
0100
0000
0010
0000
1000
0000
0001
0100
0000
0010
1000
0000
,
0100
0000
0010
0000
0001
0000
1000
0002
0000
0000
0100
0000
0103
0000
0000
0000
,
0000
0000
1000
0000
0010
0000
0001
0000
1000
0000
0100
0001
0000
1000
0010
0000
,
0110
0110
1001
0110
2002
0000
3003
0000
,
0000
1000
0100
0010
0001
0100
0010
1000
,
0001
0010
0100
1000
0001
1000
0110
0000
,
1001
0000
0110
0000
,
1000
0100
0010
0001
1001
0000
0000
0000
,
0000
0000
0000
0000
;
#NOTES:
     dance-double:
     :
     Easy:
     7:
     :
00000000
00000000
00000000
00000000
,
00000000
00000000
00000000
00000000
,
00000000
00000000
00000000
00000000
,
20000000
31000000
00020000
00130000
,
20000000
31000000
00020000
00130000
,
20000000
31000000
02000000
03010000
,
00020000
00031000
00002000
00003010
,
00000002
00000013
00002000
00003100
,
00000002
00000013
00002000
00003100
,
00001001
00001001
00000110
00000110
,
00000001
00000100
00001000
00010000
,
00200000
10300000
00010000
01010000
,
00000000
11000000
01010000
00000000
,
20000000
31000000
00010000
00011000
,
00000000
00001010
00011000
00000000
,
00002000
00003010
00000001
00000011
,
00000000
00001010
00000011
00000000
,
00000002
00000103
00001000
00011000
,
00000000
00110000
00011000
00000000
,
00001000
00010000
00001000
00010000
,
01000000
00000000
00000000
00000000
,
00000000
10000000
10000000
10000000
,
01000000
00010000
00002000
00003000
,
00000000
00010000
00010000
00001000
,
00000110
00000110
00001001
00001001
,
00000000
00000001
00000001
00000001
,
00000100
00001000
00010000
00020000
,
00031000
00002000
00013000
00020000
,
00130000
00100000
10010000
00000000
,
00000000
10000000
00010000
10000000
,
01000000
00010000
00002000
00003000
,
00000000
00010000
00001000
00010000
,
00001000
00000010
00000002
00000003
,
00000000
00001000
00000001
00001000
,
00000010
00000100
00000110
00000000
,
00000001
00000100
00001000
00010000
,
00100000
10000000
10010000
00000000
,
20000000
31000000
00020000
00130000
,
20000000
31000000
00020000
00130000
,
20000000
31000000
02000000
03010000
,
00020000
00031000
00002000
00003010
,
00000002
00000013
00002000
00003100
,
00000002
00000013
00002000
00003100
,
00001001
00001001
00000110
00000110
,
00000001
00000100
00001000
00010000
,
00200000
00000000
10300000
00000000
,
20000000
00000000
31000000
00000000
,
00010000
00010000
00001000
00000010
,
00001001
00000110
00001001
00000110
,
00000002
00000000
00000103
00000100
,
00002000
00003000
00001000
00020000
,
00031000
00002000
00013000
00020000
,
00130000
00100000
10010000
00000000
,
00000000
10000000
00010000
10000000
,
01000000
00010000
00002000
00003000
,
00000000
00010000
00001000
00010000
,
00001000
00000010
00000002
00000003
,
00000000
00001000
00000001
00001000
,
00000010
00000100
00000110
00000000
,
00000001
00000100
00001000
00010000
,
00100000
10000000
10010000
00000000
,
10010000
00000000
01100000
00000000
,
10010000
01100000
10010000
00000000
,
00000000
00000000
00000000
00000000
;
#NOTES:
     dance-double:
     :
     Medium:
     11:
     :
00000000
00000000
00000000
00000000
,
00000000
00000000
00000000
00000000
,
00000000
00000000
00000000
00000000
,
00000000
10000000
01000000
00000000
00010000
01000000
10000000
01000000
,
00000000
00010000
01000000
00000000
00010000
00001000
00010000
01000000
,
00000000
00010000
00001000
00000000
00000100
00001000
00010000
00001000
,
00000000
00000100
00000001
00000000
00000100
00001000
00000100
00000001
,
00000000
00000010
00001000
00000000
00000010
00000001
00000010
00001000
,
00000000
00000010
00001000
00000000
00010000
00001000
00000010
00001000
,
00000000
00010000
00001000
00000000
00010000
00100000
00010000
00000000
,
01100000
10100000
10010000
00110000
,
10000000
01000000
10000000
00000000
00010000
00100000
00200000
00000000
,
00000000
01000000
01300000
00000000
10000000
00010000
00100000
00000000
,
00100000
00001000
00010000
00000000
00002000
00000000
00013000
00000000
,
00000000
00010000
00001000
00000000
00000010
00000001
00000011
00000000
,
00000001
00000010
00000100
00001000
00000001
00000100
00000020
00000000
,
00000000
00000100
00000130
00000000
00000001
00000100
00001000
00000000
,
00010000
00001000
00010000
00000000
01100000
00000000
20010000
00000000
,
00000000
00010000
30010000
00000000
01000000
00100000
10000000
00000000
,
00010000
00100000
01000000
00000000
10000000
00010000
01000000
00000000
,
10010000
00000000
00000000
00000000
,
00000000
10000000
01000000
00100000
01000000
00010000
00001000
00000000
,
00010000
00001000
00000100
00000001
00000200
00000000
00000300
00000000
,
00000000
00000001
00000010
00001000
00010000
00001000
00010000
00000000
,
00010010
00011000
00101000
00011000
,
00000000
00001000
00010000
01000000
10000000
00010000
01000000
00000000
,
00100000
10000000
01000000
00010000
00001000
00000000
00010000
00001000
,
00000010
00000000
00000001
00000100
00000010
00000000
00001000
00000001
,
00001000
00000010
00000100
00000010
00002002
00000000
00003003
00000000
,
00000000
00000001
00000010
00000100
00001000
00000010
00000100
00000000
,
00000001
00000100
00001000
00010000
00002000
00000000
00003000
00000000
,
00000000
00010000
00100000
10000000
00010000
00100000
01000000
00000000
,
10000000
01000000
00010000
00001000
00020000
00000000
00030000
00000000
,
00000000
00001000
00000010
00000001
00000010
00001000
00000010
00000001
,
00000100
00000010
00000100
00000001
00002000
00000000
00003000
00000000
,
00000000
00000001
00000010
00001000
00000010
00001000
00010000
00000000
,
00001000
00010000
00100000
10000000
10010000
00000000
00000000
00000000
,
00000000
10000000
01000000
00000000
00010000
01000000
10000000
01000000
,
00000000
00010000
01000000
00000000
00010000
00001000
00010000
01000000
,
00000000
00010000
00001000
00000000
00000100
00001000
00010000
00001000
,
00000000
00000100
00000001
00000000
00000100
00001000
00000100
00000001
,
00000000
00000010
00001000
00000000
00000010
00000001
00000010
00001000
,
00000000
00000010
00001000
00000000
00010000
00001000
00000010
00001000
,
00000000
00010000
00001000
00000000
00010000
00100000
00010000
00000000
,
01100000
10100000
10010000
00110000
,
20000000
00000000
01000000
00000000
01000000
00000000
31000000
00100000
,
00020000
00100000
00100000
00130000
,
00200000
00301000
00002000
00013000
,
00011000
00101000
00011000
00010010
,
00002000
00000000
00000001
00000000
00000001
00000000
00003001
00000100
,
00000020
00000000
00001000
00000000
00001030
00000000
00000001
00000100
,
00000001
00000000
00001000
00000010
00001000
00000000
00000001
00001000
,
00000110
00001001
00000110
00000000
,
00000000
00000001
00000010
00000100
00001000
00000010
00000100
00000000
,
00000001
00000100
00001000
00010000
00002000
00000000
00003000
00000000
,
00000000
00010000
00100000
10000000
00010000
00100000
01000000
00000000
,
10000000
01000000
00010000
00001000
00020000
00000000
00030000
00000000
,
00000000
00001000
00000010
00000001
00000010
00001000
00000010
00000001
,
00000100
00000010
00000100
00000001
00002000
00000000
00003000
00000000
,
00000000
00000001
00000010
00001000
00000010
00001000
00010000
00000000
,
00001000
00010000
00100000
10000000
10010000
00000000
00000000
00000000
,
10010000
00000000
00011000
00000000
,
00001001
00011000
10010000
00000000
,
00000000
00000000
00000000
00000000
;
#NOTES:
     dance-double:
     :
     Hard:
     13:
     :
00000000
00000000
00000000
00000000
,
00000000
00000000
00000000
00000000
,
00000000
00000000
00000000
00000000
,
00000000
00000000
10000000
00000000
01000000
00000000
00000000
00100000
00000000
00010000
00000000
00100000
01000000
00000000
10000000
00000000
,
00000000
00000000
00100000
00000000
01000000
00000000
00000000
00010000
00000000
10000000
00000000
00010000
01000000
00000000
00100000
00000000
,
00000000
00000000
00010000
00000000
00001000
00000000
00000000
00100000
00000000
00001000
00000000
00010000
00001000
00000000
00000100
00000000
,
00000000
00000000
00000001
00000000
00000100
00000000
00000000
00000010
00000000
00001000
00000000
00000001
00000100
00000000
00000010
00000000
,
00000000
00000000
00001000
00000000
00000001
00000000
00000000
00000010
00000000
00000100
00000000
00000010
00001000
00000000
00010000
00000000
,
00000000
00000000
00000100
00000000
00010000
00000000
00000000
00001000
00000000
00100000
00000000
00001000
00010000
00000000
01000000
00000000
,
00000000
00000000
10000000
00000000
00010000
00000000
00000000
01000000
00000000
00010000
00000000
01000000
00100000
10000000
00010000
01000000
,
00100000
00100000
10000000
10000000
00010000
00010000
00100000
00100000
,
01000000
00000000
10000000
00000000
00010000
00000000
01000000
00000000
00100000
10000000
00000000
00020000
00000000
00000000
00000000
00000000
,
00030000
00000000
10000000
00000000
01000000
00000000
00000000
00010000
00000000
00001000
00000000
00010000
00001000
00000000
00000010
00000000
,
00000001
00000000
00000100
00000000
00000010
00000000
00001000
00000000
00000001
00000010
00000000
00000200
00000000
00000000
00000000
00000000
,
00000300
00000000
00000010
00000000
00000001
00000000
00000000
00000010
00000000
00001000
00000000
00010000
00001000
00000000
00010000
00000000
,
00100000
00000000
10000000
00000000
00010000
00000000
01000000
00100000
00000000
10000000
00000000
00010000
00000000
20000000
00000000
00000000
,
30000000
00000000
01000000
00000000
00010000
00000000
00000000
00001000
00000000
00010000
00000000
00001000
00000010
00000000
00000001
00000000
,
00000100
00000000
00000010
00000000
00001000
00000000
00000001
00000000
00000010
00000100
00000000
00001000
00000000
00000200
00000000
00000000
,
00000300
00000000
00000010
00000000
00000001
00000000
00000000
00000100
00000000
00001000
00000000
00010000
00001000
00000000
00010000
00000000
,
00100000
00000000
10000000
00000000
00010000
00100000
00000000
01000000
00000000
00000000
10000000
00000000
00010000
01000000
00000000
00100000
,
00000000
10000000
00010000
10000000
00100000
01000000
00100000
01000000
,
00000000
00010000
10000000
01000000
00010000
00001000
00000100
00000001
,
00001000
00000000
00000001
00000000
00000010
00001000
00000000
00010000
00000000
00000000
02200000
00000000
00000000
00000000
00000000
00000000
,
03300000
00010000
10000000
00100000
00010000
00001000
00000010
00000001
,
00001001
00011000
10010000
00011000
,
00000000
00000000
00000001
00000000
00000010
00000000
00001000
00000000
00010000
00000000
00100000
10000000
00000000
00000000
00010000
00000000
,
10000000
00000000
01000000
00000000
00010000
00001000
00000000
00000100
00000000
00000000
00000000
00000000
00000001
00000100
00000000
00001000
,
00000000
00000000
00000000
00000000
00010000
00001000
00000000
00010000
00000000
00000000
00000000
00000000
00100000
00000000
10000000
00000000
,
01000000
00000000
00010000
00000000
00001000
00000010
00000000
00000022
00000000
00000000
00000000
00000000
00000033
00000000
00000000
00000000
,
00000000
00000000
00000001
00000000
00000010
00000000
00001000
00000000
00010000
00000000
01000000
10000000
00000000
00010000
01000000
00000000
,
00100000
00000000
00010000
00000000
00001000
00000000
00000100
00000002
00000000
00000000
00000000
00000000
00000003
00000000
00000000
00000000
,
00000000
00000000
00000001
00000000
00000100
00000000
00001000
00000000
00010000
00000000
00100000
10000000
00000000
00010000
00100000
00000000
,
01000000
00000000
00010000
00000000
00001000
00000000
00000010
00000002
00000000
00000000
00000000
00000000
00000003
00000000
00000000
00000000
,
00000000
00000000
00000001
00000000
00000100
00000000
00001000
00000000
00010000
00000000
00100000
10000000
00000000
00010000
01000000
00000000
,
01100000
01100000
10010000
01100000
20020000
00000000
30030000
00000000
,
00000000
00010000
01000000
10000000
00010000
00100000
00010000
00001000
,
00000010
00000001
00001000
00000100
00000001
00000000
00000110
00000000
,
00000000
00000000
00000001
00000000
00000100
00000000
00000000
00000010
00000000
00001000
00000000
00000010
00000100
00000000
00000001
00000000
,
00000000
00000000
00000010
00000000
00000100
00000000
00000000
00001000
00000000
00000001
00000000
00001000
00000100
00000000
00000010
00000000
,
00000000
00000000
00001000
00000000
00010000
00000000
00000000
00000010
00000000
00010000
00000000
00001000
00010000
00000000
01000000
00000000
,
00000000
00000000
10000000
00000000
01000000
00000000
00000000
00100000
00000000
00010000
00000000
10000000
01000000
00000000
00100000
00000000
,
00000000
00000000
00010000
00000000
10000000
00000000
00000000
00100000
00000000
01000000
00000000
00100000
00010000
00000000
00001000
00000000
,
00000000
00000000
01000000
00000000
00001000
00000000
00000000
00010000
00000000
00000010
00000000
00010000
00001000
00000000
00000100
00000000
,
00000000
00000000
00000001
00000000
00001000
00000000
00000000
00000100
00000000
00001000
00000000
00000100
00000010
00000001
00001000
00000100
,
00000010
00000010
00000001
00000001
00001000
00001000
00000010
00000010
,
00000001
00000000
00000000
00000010
00000000
00000000
00001000
00000000
00010000
00000000
00000000
00000000
00000000
00000000
10000000
00000000
,
01000000
00000000
00000000
00010000
00000000
00000000
00001000
00000000
00000100
00000000
00000000
00000000
00000000
00000000
00000000
00000000
,
00000001
00000000
00000000
00000010
00000000
00000000
00001000
00000000
00010000
00000000
01000000
00000000
10000000
00000000
01000000
00000000
,
10010000
00011000
00001001
00011000
,
00100000
00000000
00000000
10000000
00000000
00000000
01000000
00000000
00010000
00000000
00001000
00000000
00000010
00000000
00000001
00000000
,
00000100
00000000
00000000
00001000
00000000
00000000
00010000
00000000
00100000
00000000
00000000
00000000
10000000
01000000
00000000
00010000
,
00000000
00000000
00000000
00000000
00001000
00010000
00000000
00001000
00000000
00000000
00000000
00000000
00000010
00000000
00000001
00000000
,
00000101
00000000
00000000
00001100
00000000
00000000
00011000
00000000
00220000
00000000
00000000
00000000
00330000
00000000
00000000
00000000
,
00000000
00000000
10000000
00000000
00100000
00000000
00010000
00000000
00001000
00000000
00000100
00000001
00000000
00001000
00000100
00000000
,
00000010
00000000
00001000
00000000
00010000
00000000
01000000
20000000
00000000
00000000
00000000
00000000
30000000
00000000
00000000
00000000
,
00000000
00000000
10000000
00000000
01000000
00000000
00010000
00000000
00001000
00000000
00000010
00000001
00000000
00001000
00000010
00000000
,
00000100
00000000
00001000
00000000
00010000
00000000
00100000
20000000
00000000
00000000
00000000
00000000
30000000
00000000
00000000
00000000
,
00000000
00000000
10000000
00000000
01000000
00000000
00010000
00000000
00001000
00000000
00000010
00000001
00000000
00001000
00000100
00000000
,
00000110
00000110
00001001
00000110
00002002
00000000
00003003
00000000
,
00000000
00001000
00000100
00000001
00001000
00000010
00001000
00010000
,
00100000
10000000
00010000
01000000
10000000
00000000
00000000
00000000
,
10010000
00000000
01100000
00000000
,
10000000
00010000
00001000
00000001
00001001
00000000
00000000
00000000
,
00000000
00000000
00000000
00000000
;
