
//----- song ID: nday -----//
#TITLE:Start a New Day;
#ARTIST:Sota F.;
#BANNER:Start a New Day.png;
#BACKGROUND:Start a New Day-bg.png;
#CDTITLE:./CDTitles/DDR A.png;
#MUSIC:Start a New Day.ogg;
#SAMPLESTART:60;
#SAMPLELENGTH:15;
#BPMS:0=168;
#NOTES:
     dance-single:
     :
     Beginner:
     3:
     :
0000
0000
0000
0000
,
0000
0000
0000
0000
,
0000
0000
0000
0000
,
0000
0000
0000
0000
,
0000
0000
0000
0000
,
2000
0000
0000
0000
,
0000
0000
3000
0000
,
0020
0000
0000
0000
,
0000
0000
0030
0000
,
0000
0000
0000
0010
,
0000
0001
0000
0001
,
0000
0100
0000
0100
,
0000
1000
0000
1000
,
0000
0000
0000
0010
,
0000
1000
0000
1000
,
0000
0100
0000
0100
,
0000
0001
0000
0001
,
0000
0000
0000
0001
,
0000
1000
0000
0010
,
0000
1000
0000
0000
,
0000
0001
0000
0010
,
0000
0001
0000
0000
,
0000
0100
0000
0001
,
0000
0100
0000
0000
,
0000
0010
0000
1000
,
0000
0010
0000
0000
,
2000
0000
0000
3000
,
0002
0000
0000
0003
,
0200
0000
0000
0300
,
0002
0000
0000
0003
,
2000
0000
0000
3000
,
0020
0000
0000
0030
,
2000
0000
0000
3000
,
0001
0000
0000
1001
,
0000
1000
0000
1000
,
0000
0010
0000
0010
,
0000
0100
0000
0100
,
0000
0010
0000
0010
,
0000
1000
0000
1000
,
0000
0001
0000
0001
,
0000
0010
0000
0010
,
0000
0000
0000
1001
,
0000
0010
0010
0000
,
0000
1000
1000
0000
,
0000
1000
1000
0000
,
0000
0001
0001
0000
,
0000
0010
0010
0000
,
0000
1000
1000
0000
,
0000
0010
0010
0000
,
0000
0001
0001
0000
,
0010
0000
0001
0000
,
0000
0001
0001
0000
,
0000
1000
1000
0000
,
0000
0010
0010
0000
,
0002
0000
0000
0000
,
0000
0000
0003
0000
,
0020
0000
0000
0000
,
0000
0000
0030
0000
,
0000
0000
0000
0010
,
0000
1000
0000
1000
,
0000
0100
0000
0100
,
0000
0001
0000
0001
,
0000
0000
0000
0010
,
0000
0001
0000
0001
,
0000
0100
0000
0100
,
0000
1000
0000
1000
,
0000
0000
0000
1001
,
0000
0001
0001
0000
,
0000
1000
1000
0000
,
0000
0010
0010
0010
,
0000
1001
0000
0000
,
0000
0001
0000
1000
,
0000
1000
0000
0000
,
0000
0010
0000
0100
,
0000
0001
0000
0010
,
0000
0000
0000
0000
;
#NOTES:
     dance-single:
     :
     Easy:
     6:
     :
0000
0000
0000
0000
,
0000
0000
0000
0000
,
0000
0000
0000
0000
,
0000
0000
0000
0000
,
0000
0000
0000
0000
,
0002
0000
0000
0000
0000
0000
0000
2000
,
0000
0000
3003
1001
,
0020
0000
0000
0000
0000
0000
0000
2000
,
0000
0000
3030
1001
,
0000
0000
0000
1001
,
1000
0100
0000
0010
,
0001
0010
0000
0001
,
0100
0001
0000
0010
,
0100
1000
0010
1001
,
1000
0010
0000
0100
,
0001
0100
0000
0001
,
0010
0001
0000
0100
,
0001
1000
0000
0110
,
1000
0001
1000
0001
,
0100
0010
0100
0100
,
0001
1000
0001
1000
,
0010
0100
0010
0010
,
0100
0100
0010
0010
,
1000
0001
0000
0110
,
0001
0010
0100
1000
,
0010
0110
0000
1001
,
0001
0100
1000
0100
,
0001
0010
0100
1000
,
0100
0001
0100
1000
,
0100
0010
0001
0100
,
1000
0100
0001
0100
,
1000
0010
0001
0010
,
1000
0010
0001
1000
,
0001
0001
1000
1001
,
0010
0001
1000
0010
,
1000
0100
0001
0010
,
0100
0001
0010
0100
,
0010
0001
1000
0010
,
0100
1000
0010
0100
,
0001
0100
1000
0010
,
1000
0001
0010
0100
,
1000
0100
0001
0110
,
1000
0001
1001
0000
,
0001
0100
0110
0000
,
1000
0010
0110
0000
,
0001
1000
1001
0000
,
0100
0010
0110
0000
,
1000
0001
1001
0000
,
0010
0100
0110
0000
,
0001
1000
1001
0000
,
0011
0000
1001
0000
,
0001
1000
0110
0000
,
0100
0010
1001
0000
,
1000
0001
0110
0000
,
2000
0000
0000
0000
0000
0000
0000
0002
,
0000
0000
3003
1001
,
0020
0000
0000
0000
0000
0000
0000
0002
,
0000
0000
0033
1001
,
0000
0000
0000
1001
,
0001
0100
0000
0010
,
1000
0010
0000
1000
,
0100
1000
0000
0010
,
0100
0001
0010
1001
,
0001
0010
0000
0100
,
1000
0100
0100
1000
,
0010
1000
0000
0100
,
1000
0001
0000
0110
,
1000
0010
1000
0000
,
0001
0010
0001
0000
,
0100
0010
0100
0001
,
1000
0020
0000
0030
,
1000
0010
1000
0100
,
0010
0100
2000
0000
,
3000
1001
0010
0100
,
0001
2000
0000
3001
,
0000
0000
0000
0000
;
#NOTES:
     dance-single:
     :
     Medium:
     11:
     :
0000
0000
0000
0000
,
0000
0000
0000
0000
,
0000
0000
0000
0000
,
0000
0000
0000
0000
,
0000
0000
0000
0000
,
2000
0000
0000
3001
0000
0000
0002
0000
0000
0013
0000
0000
0000
0000
0002
0000
,
0000
0103
0000
0000
0200
0000
0000
0310
0000
0000
0000
0000
1001
0000
0000
0000
,
0200
0000
0000
0301
0000
0000
0002
0000
0000
0013
0000
0000
0000
0000
2000
0000
,
0000
3010
0000
0000
0020
0000
0000
0130
0000
0000
0000
0000
1001
0000
0000
0000
,
0000
0000
0000
0011
,
1001
0000
1000
0001
0100
0000
0010
1000
,
0100
0000
0010
0001
0010
0000
0001
0100
,
0010
0000
1000
0001
0100
0000
0001
1000
,
0001
0000
0010
0100
1000
0000
0010
0100
,
1000
0000
0100
0001
1000
0000
0001
0010
,
0100
0000
1000
0001
0010
0000
0001
1000
,
0001
0000
0100
0001
0010
0000
0100
1000
,
0010
0100
0001
0000
0000
1000
1100
0000
,
1000
0001
0100
0010
0000
0001
1000
0100
,
0000
1000
0010
0000
0000
2002
3003
0000
,
0001
1000
0100
0010
0000
1000
0001
0100
,
0000
0001
0010
0000
0000
2002
3003
0000
,
1000
0001
0010
0100
0000
0001
0010
0001
,
0000
1000
0100
0000
0000
0202
0303
0000
,
0001
0100
0010
0100
0000
1000
0001
0100
,
0000
0010
1000
0000
0000
0022
0033
0000
,
2000
0000
0000
0000
0000
3001
0100
2000
,
0000
0000
0000
3200
0000
0000
0301
0000
,
0011
0000
1000
0010
0000
0100
0001
0010
,
0000
0010
0001
0200
0000
0000
0010
0000
,
0302
0000
0000
0000
0000
0013
0100
2000
,
0000
0000
3100
0002
0000
0000
0203
0000
,
0320
0000
0000
0000
0000
0031
1000
0010
,
0100
0100
0000
1001
0000
1000
0100
0000
,
0002
0000
0000
0000
0000
0103
1000
0020
,
0000
0000
0000
0032
0000
0000
0013
0000
,
1000
0010
1000
0000
0010
0100
0010
1000
,
0000
0001
0010
0100
0000
0100
0010
0000
,
0001
1000
0010
0100
0001
0010
0100
0000
,
0010
0001
1000
0010
0001
0010
0100
0000
,
0001
0100
0010
0100
0001
0010
0100
0000
,
0010
0010
0000
1100
0000
0001
0011
0000
,
0002
0000
0000
0000
0103
0000
0010
1000
,
0200
0000
0000
0000
1300
0000
0100
1000
,
0020
0000
0000
0000
0130
0000
0001
0010
,
0200
0000
0000
1300
0001
0000
0100
0010
,
1000
0000
0011
0000
0110
0000
1000
0001
,
0010
0000
1100
0000
1001
0000
0100
0001
,
0010
0000
0101
0000
0011
0000
1000
0100
,
0001
0000
0100
0000
0010
0001
0100
0000
,
0020
0000
0000
0030
1000
0000
0001
1000
,
0010
0000
0011
0000
0101
0000
0010
1000
,
0100
0000
1010
0000
1100
0000
0100
0001
,
0010
0000
0101
0000
1000
0100
0001
0010
,
0002
0000
0000
1003
0000
0000
2000
0000
0000
3010
0000
0000
0000
0000
2000
0000
,
0000
3100
0000
0000
0200
0000
0000
0310
0000
0000
0000
0000
1001
0000
0000
0000
,
0200
0000
0000
1300
0000
0000
2000
0000
0000
3010
0000
0000
0000
0000
0002
0000
,
0000
0013
0000
0000
0020
0000
0000
0130
0000
0000
0000
0000
1001
0000
0000
0000
,
0000
0000
0000
1010
,
1001
0000
0001
1000
0100
0000
0010
0001
,
0100
0000
0010
1000
0010
0000
1000
0100
,
0010
0000
0001
1000
0100
0000
1000
0001
,
1000
0000
0010
0100
0001
0000
0010
0100
,
0001
0000
0100
1000
0001
0000
1000
0010
,
0100
0000
0001
1000
0010
1000
0001
0010
,
0100
0000
1100
0000
0010
0100
0001
0010
,
0100
1000
1000
0000
0000
0001
0101
0000
,
1010
0000
1100
0000
0010
0001
0100
1000
,
0000
0010
0100
0000
0010
1000
0100
0001
,
0000
0000
1001
0000
0010
0100
1000
0010
,
0000
0100
0002
0000
0000
0000
0000
0003
,
1000
0010
0001
0010
1000
0100
0010
0001
,
0000
0100
0001
0000
0010
0001
0100
0001
,
0010
0000
0110
0000
0000
1001
0000
0110
,
0000
0100
0001
0000
0000
0010
0010
0000
,
0000
0000
0000
0000
;
#NOTES:
     dance-single:
     :
     Hard:
     15:
     :
0000
0000
0000
0000
,
0000
0000
0000
0000
,
0000
0000
0000
0000
,
0000
0000
0000
0000
,
0000
0000
0000
0000
,
1100
0000
0000
0101
0000
0000
1100
0000
0000
0101
0000
0000
1000
0000
1010
0000
,
0000
0011
0000
0000
1010
0000
0000
0011
0000
0000
0100
0000
1100
0000
0000
0000
,
0011
0000
0000
0101
0000
0000
0011
0000
0000
0101
0000
0000
0010
0000
1010
0000
,
0000
1100
0000
0000
1010
0000
0000
1100
0000
0000
0010
0000
0011
0000
0000
0000
,
0000
0000
0000
0000
0001
1000
0011
0000
,
1001
0000
0000
0000
0010
0000
0100
0000
0001
0010
0001
0000
1000
0000
0010
0000
,
0100
0000
0001
0010
0001
0000
0000
0000
0001
0000
0100
0000
1000
0000
0100
0000
,
0101
0000
0000
0000
0011
0000
0100
0010
0100
0000
1000
0000
0100
0000
0001
0000
,
0100
0000
1000
0010
1000
0000
0001
0010
0001
0000
0100
0000
0010
0000
1000
0100
,
0010
0000
0001
0000
0010
0000
0100
0000
1000
0001
1000
0000
0010
0000
0100
0010
,
0100
0000
0001
0010
0001
0000
0000
0000
0001
0000
0100
0000
1000
0000
0100
0000
,
0010
0100
0010
0000
1000
0000
0100
0010
0100
0000
1000
0000
0001
0000
0101
0000
,
0000
0000
1001
0000
1001
0000
0000
0000
0100
0000
0010
1000
0010
0000
0000
0000
,
1000
0010
0001
0100
0010
0100
0001
0010
,
1000
0001
0010
0100
1000
0002
0003
0000
,
0001
0010
1000
0100
0010
0100
1000
0010
,
0001
1000
0010
0100
0001
2000
3000
0000
,
0001
1000
0001
0100
0010
0100
1000
0001
,
1000
0010
0100
0010
0001
0200
0300
0000
,
0001
0010
0100
1000
0010
0100
0001
0010
,
0000
0001
0100
0000
0010
0220
0330
0000
,
1000
0000
0100
0000
0010
0000
0100
1000
0100
0000
0010
0000
0001
0000
0010
0000
,
0100
0000
1000
0000
0010
0000
0100
0001
0100
0000
0010
0000
1000
0000
0100
0000
,
0010
0000
0100
0000
1000
0000
0100
0010
0100
0000
0001
0000
0100
0000
1000
0000
,
0010
0000
0001
0000
0010
0000
0100
0010
0100
0000
1000
0000
0100
0000
0001
0000
,
0010
0000
0100
0000
1000
0000
0100
0001
0100
0000
1000
0000
0100
0000
0010
0000
,
0001
0000
1000
0000
0010
0000
0001
0010
0001
0000
0010
0000
0100
0000
0001
0000
,
0010
0000
0100
0000
1000
0000
0100
0010
0100
0000
0010
0000
0001
1000
0010
0100
,
0001
0000
0011
0000
0000
0000
1001
0000
0000
0000
0010
0000
0100
1000
0001
0100
,
0001
0000
0100
0000
0010
0000
1000
0001
0010
0000
0100
0000
1000
0000
0001
1000
,
0010
0000
0100
0000
0001
0000
0100
0001
1000
0000
0010
0000
1000
0000
0100
1000
,
0001
0000
0010
0000
0001
0000
1000
0010
0100
0000
0001
0000
1000
0000
0001
0010
,
0100
0000
1000
0000
0010
0000
0100
0010
1000
0000
0001
0000
0010
0000
0001
1000
,
0001
0000
0100
0000
0001
0000
0010
0001
0100
0000
0001
0000
1000
0000
0010
1000
,
0100
0000
1000
0000
0001
0000
0100
0001
0010
0000
0001
0000
1000
0000
0100
1000
,
0010
0000
0100
0000
0001
0000
0010
0001
0100
0000
0001
1000
0001
0100
0010
1000
,
0001
0000
0101
0000
0000
0000
1001
0000
0000
0000
1010
0000
0100
0001
0010
0100
,
1000
0100
0001
0100
2000
0000
0000
3000
,
0100
0001
0010
0100
2000
0000
0000
3000
,
0010
0100
1000
0001
0200
0000
0000
0300
,
1000
0010
0001
0010
1000
0000
1100
0000
,
1000
0100
0001
0010
1000
0000
0011
0000
,
0001
0010
1000
0100
0001
0000
1100
0000
,
1000
0010
0001
0100
1000
0000
0101
0000
,
0001
0100
1000
0010
0001
0000
1001
0000
,
0020
0000
0000
0000
0030
0000
1000
0001
1000
0000
0010
0000
0100
0000
0001
0000
,
1000
0000
0100
0000
0010
0000
0001
0010
0001
0000
0000
0000
0110
0000
0000
0000
,
0010
1000
0001
0100
0010
0000
0110
0000
,
0010
0001
1000
0100
0010
0000
0011
0000
,
0101
0000
0000
1100
0000
0000
0101
0000
0000
1100
0000
0000
0001
0000
0011
0000
,
0000
1010
0000
0000
0011
0000
0000
1010
0000
0000
0100
0000
0101
0000
0000
0000
,
1010
0000
0000
1100
0000
0000
1010
0000
0000
1100
0000
0000
0010
0000
0011
0000
,
0000
0101
0000
0000
0011
0000
0000
0101
0000
0000
0010
0000
1010
0000
0000
0000
,
0000
0000
0000
0000
1000
0001
1010
0000
,
1001
0000
0000
0000
0010
0000
0100
0000
1000
0010
1000
0000
0001
0000
0010
0000
,
0100
0000
1000
0010
1000
0000
0000
0000
1000
0000
0100
0000
0001
0000
0100
0000
,
1100
0000
0000
0000
1010
0000
0100
0010
0100
0000
0001
0000
0100
0000
1000
0000
,
0100
0000
0001
0010
0001
0000
1000
0010
1000
0000
0100
0000
0010
0000
0001
0100
,
0010
0000
1000
0000
0010
0000
0100
0000
0001
1000
0001
0000
0010
0000
0100
0010
,
0100
0000
1000
0010
1000
0000
0000
0000
1000
0010
0100
0001
0100
0000
0100
0001
,
0010
0100
0010
0000
0001
0000
0100
0010
0100
0000
0001
0000
1000
0000
1100
0000
,
0000
1001
1001
0000
0100
0010
0011
0000
,
0101
0000
0011
0000
1000
0010
0001
0100
,
0000
0000
0010
0100
0010
0000
0000
0000
0100
0000
0001
0000
0010
0000
1000
0000
,
0000
0000
0011
0000
1000
0010
0100
0101
,
0000
0001
2002
0000
0000
0000
0000
3003
,
1000
0000
0100
0000
0010
0000
0001
0010
0100
0000
1000
0100
1000
0000
0100
0010
,
0001
0000
1000
0001
1000
0000
0000
0000
0001
0100
0010
1000
0100
0010
0100
1000
,
0001
0000
1001
0000
1000
0001
0000
0110
,
0000
0000
1001
0000
1001
0000
0000
0000
0000
0000
0010
0001
0100
0000
0000
0000
,
0000
0000
0000
0000
;
#NOTES:
     dance-single:
     :
     Challenge:
     16:
     :
0000
0000
0000
0000
,
0000
0000
0000
0000
,
0000
0000
0000
0000
,
0000
0000
0000
0000
,
1001
0000
0000
0000
0001
0010
0100
1000
0100
0010
0001
0000
0110
0000
0000
0000
,
1100
0000
0000
0011
0000
0000
1100
0000
0000
0101
0000
0000
1000
0000
1010
0000
,
0000
0011
0000
0000
1010
0000
0000
1001
0000
0000
0100
0000
1100
0000
0000
0000
,
0011
0000
0000
1001
0000
0000
0011
0000
0000
0101
0000
0000
0010
0000
1010
0000
,
0000
1100
0000
0000
1010
0000
0000
1001
0000
0000
1000
0000
0011
0000
0000
0000
,
1000
0000
0000
0000
0001
0010
0100
0010
0001
0000
1000
0000
0101
0000
0000
0000
,
1100
0000
0001
0000
0011
0000
0100
0000
0001
0100
0001
0000
0100
0000
0010
0000
,
0100
0000
1000
0100
0001
0000
1000
0000
0010
0000
0001
0000
1000
0000
0100
0000
,
1001
0000
1000
0100
1000
0000
0100
0010
0100
0000
1000
0000
0200
0000
0001
0000
,
0300
0000
1000
0001
1000
0010
0100
0010
1000
0000
0110
0000
0010
0000
1000
0100
,
0010
0000
0001
0000
0010
0000
0100
0000
1100
0000
0101
0000
0010
0000
0100
0010
,
0100
0000
0001
0010
0001
0000
1000
0000
0001
0000
0100
0000
1000
0000
0110
0000
,
0010
0100
0010
0000
1000
0001
0100
0010
0100
0001
1000
0100
1000
0001
0010
0000
,
0000
0000
0011
0000
1100
0000
0000
0000
0100
0000
0010
0001
0010
0000
0001
0000
,
1000
0000
0010
0000
0001
0000
0010
0100
0010
0000
0100
0000
1000
0000
0100
0010
,
0100
0001
0110
0100
1000
0220
0330
1000
,
0001
0000
0010
0000
1000
0000
0010
0100
0010
0000
0100
0000
1000
0000
0010
0000
,
0001
0000
1100
0000
0010
0000
0100
0010
1000
0000
0001
0000
0100
0000
0001
0000
,
0100
0000
1000
0000
0100
0000
0001
0000
0010
0000
0100
0010
1000
0000
0001
0000
,
1000
0010
0110
0000
0000
0220
0330
0000
,
0001
0000
0010
0000
0100
1000
0100
0000
0010
0000
0100
0010
0001
0000
0011
0000
,
0000
1100
0000
0000
0000
0220
0330
0000
,
1000
0100
0001
0000
0100
0000
0010
0001
0000
0000
0010
0000
0001
0000
0100
1000
,
0100
0000
1000
0100
0001
0010
1000
0010
,
0001
1000
0000
0000
0010
0000
0001
0000
0010
0000
1000
0000
0100
0000
0010
0000
,
0000
0000
0100
0010
0001
0000
1000
0000
0000
0000
0100
0000
1000
0000
0100
0000
,
0001
0100
1000
0000
0100
0000
0010
0001
0000
0000
0010
0000
1000
0000
0010
0100
,
0010
0000
0001
0010
1000
0001
0100
1000
,
0001
0010
0000
0000
0100
0000
1000
0000
0100
0000
0001
0000
0100
0000
0010
0000
,
0001
0000
1000
0010
1000
0000
1001
0000
0000
0000
1000
0000
0100
1000
0001
0010
,
0001
0100
0001
0000
0100
0000
0010
1000
0000
0000
0010
0000
1000
0000
0100
0010
,
0100
0000
0001
0100
1000
0010
0001
0010
,
1000
0000
0001
0100
0010
0000
1000
0000
0010
0100
0001
0000
0100
0000
0010
0000
,
0000
0000
0100
0010
1000
0000
0001
0000
0000
0000
0100
0000
0001
0000
0100
0000
,
1000
0100
0010
0000
0100
0000
0010
1000
0000
0000
0010
0000
0001
0000
0110
0000
,
0000
1001
1000
0010
0001
1000
0100
0001
,
1000
0010
0000
0000
0100
0000
0001
0000
0100
0000
1000
0000
0100
0000
0010
0000
,
1000
0000
0001
0010
0001
0000
1001
0000
0000
0000
1000
0010
0100
0001
1000
0100
,
1000
0000
0100
0000
0001
0000
0100
0010
0100
0000
1000
0000
0001
0000
0110
0000
,
0000
0000
0011
0000
0000
0000
1000
0000
0100
0000
1000
0100
0010
0000
0000
0000
,
0100
0010
0001
0100
0010
1000
0001
1000
0001
0000
0010
0000
0001
0000
1001
0000
,
0000
0011
0000
0100
0010
0100
0001
0000
,
1100
0000
0000
0000
0011
0000
0000
0000
0100
0000
0001
0000
0000
0000
0001
0100
,
0001
1000
0010
0100
0010
1000
0100
1000
0001
0000
0100
0000
0010
0000
0100
0000
,
0101
0000
0000
0000
1010
0000
0000
0000
0100
0000
1000
0000
0000
0000
0001
0100
,
0001
1000
0100
1000
0010
0000
0100
0001
1000
0000
0100
0000
0000
0000
0000
0000
,
1001
0000
0000
0000
0001
0100
0001
1000
0010
0000
0000
0000
1000
0000
0110
0000
,
0000
0000
1010
0000
0000
0000
0001
0000
0100
0000
0001
0100
0010
0000
0000
0000
,
0100
0000
0000
0000
0010
0000
1000
0001
1000
0000
0010
0000
1000
0000
1001
0000
,
0000
1010
0000
0100
0010
0100
1000
0000
,
1100
0000
0000
1001
0000
0000
1100
0000
0000
0110
0000
0000
1000
0000
0110
0000
,
0000
0011
0000
0000
1010
0000
0000
0110
0000
0000
0100
0000
1100
0000
0000
0000
,
0011
0000
0000
1001
0000
0000
0011
0000
0000
0110
0000
0000
0010
0000
1010
0000
,
0000
1100
0000
0000
1010
0000
0000
1001
0000
0000
0010
0000
0011
0000
0000
0000
,
1000
0000
0000
0000
0001
0010
0100
0010
0001
0000
1000
0000
0011
0000
0000
0000
,
0101
0000
1000
0000
1010
0000
0100
0000
1000
0100
1000
0000
0100
0000
0010
0000
,
0100
0000
0001
0100
1000
0000
0001
0000
0010
0000
1000
0000
0001
0000
0100
0000
,
1001
0000
0001
0100
0001
0000
0100
0010
0100
0000
0001
0000
0200
0000
1000
0000
,
0300
0000
0001
0010
0001
0010
0100
0010
0001
0000
0110
0000
0010
0000
0001
0100
,
0010
0000
1000
0000
0010
0000
0100
0000
0101
0000
1100
0000
0010
0000
0100
0010
,
1000
0000
0001
0010
0001
0000
1000
0000
0001
0100
0001
0010
0001
1000
0100
1000
,
0010
0100
0010
0000
1000
0001
0100
0010
0100
0000
1001
0000
1000
0000
1100
0000
,
0000
0000
1010
0000
0101
0000
0000
0000
0100
0000
0010
1000
0010
0000
1000
0000
,
0001
0000
0010
0000
1000
0000
0010
0100
0010
0000
0100
0000
0001
0000
0100
0010
,
0100
0000
1000
0000
0110
0000
0000
0000
0001
0000
0010
0100
1000
0000
0001
0000
,
0000
0000
0000
0000
1000
0000
0001
0100
0001
0000
0100
0000
0001
0000
0010
0000
,
0000
0001
2002
0000
0000
0000
3003
0000
,
0100
0000
0001
0000
0100
0000
1000
0000
0010
0000
0100
0010
0001
0000
1000
0000
,
0001
0000
0010
0000
0110
0000
0000
0000
0001
0100
0010
1000
0100
0010
0100
1000
,
0001
0010
0001
1000
0100
1000
0100
0000
0010
0000
0100
0010
0001
0000
0011
0000
,
0000
0000
1001
0000
0110
0000
0000
0000
0000
0000
0010
0001
1000
0000
0000
0000
,
0000
0000
0000
0000
;
#NOTES:
     dance-double:
     :
     Easy:
     7:
     :
00000000
00000000
00000000
00000000
,
00000000
00000000
00000000
00000000
,
00000000
00000000
00000000
00000000
,
00000000
00000000
00000000
00000000
,
00000000
00000000
00000000
00000000
,
00020000
00000000
00000000
00000000
00000000
00000000
00030000
00000200
,
00000000
00000000
00000300
00011000
,
00200000
00000000
00000000
00000000
00000000
00000000
00300000
00002000
,
00000000
00000000
00003000
00011000
,
00000000
00000000
00000000
00110000
,
10000000
01000000
00000000
00010000
,
00001000
00010000
00000000
00000010
,
00000001
00000010
00000000
00000100
,
00001000
00010000
00100000
10010000
,
10000000
00100000
00000000
00010000
,
00001000
00010000
00000000
00000100
,
00000001
00000100
00000000
00000010
,
00000001
00000100
00001000
00011000
,
00100000
00001000
00010000
01000000
,
10000000
00010000
00100000
00001000
,
00000100
00000001
00000100
00000010
,
00010000
00001000
00100000
00001000
,
00000010
00000100
00010000
00001000
,
00010000
00000010
00000000
00001010
,
00000001
00000010
00000100
00010000
,
00001000
00011000
00000000
10010000
,
00100000
01000000
00001000
00010000
,
00000100
00000010
00000001
00000100
,
00000010
00010000
00001000
01000000
,
00100000
10000000
01000000
00010000
,
00001000
00000010
00000100
00010000
,
00001000
01000000
00100000
00010000
,
00001000
00010000
00000100
00000010
,
00001000
00010000
00001000
00011000
,
00100000
00010000
10000000
00010000
,
00100000
00001000
01000000
00010000
,
01000000
00001000
00000100
00000010
,
00010000
00001000
00000010
00000001
,
00000100
00001000
00010000
00011000
,
00001000
00100000
10000000
00100000
,
00001000
00010000
00000100
00000010
,
00000001
00000100
00001000
00011000
,
00010000
00001000
00101000
00000000
,
00010000
01000000
01100000
00000000
,
10000000
00010000
01010000
00000000
,
00001000
00100000
00110000
00000000
,
01000000
00001000
00011000
00000000
,
00000100
00010000
00011000
00000000
,
00100000
00001000
00011000
00000000
,
00000010
00000100
00000101
00000000
,
00001100
00000000
00011000
00000000
,
00000010
00001000
00001100
00000000
,
00010000
00001000
00101000
00000000
,
01000000
00100000
00110000
00000000
,
00002000
00000000
00000000
00000000
00000000
00000000
00003000
02000000
,
00000000
00000000
03000000
00011000
,
00000020
00000000
00000000
00000000
00000000
00000000
00000030
00020000
,
00000000
00000000
00030000
00011000
,
00000000
00000000
00000000
00001010
,
00000001
00000100
00000000
00001000
,
00010000
00001000
00000000
00100000
,
10000000
00100000
00000000
01000000
,
00010000
00001000
00000010
00001001
,
00000001
00000010
00000000
00001000
,
00010000
00001000
01000000
01000000
,
10000000
01000000
00000000
00100000
,
10000000
01000000
00010000
00011000
,
00000010
00001000
00000010
00000000
,
00010000
00100000
00010000
00000000
,
00001000
00100000
01000000
10000000
,
00010000
00002000
00000000
00003000
,
00010000
00100000
00001000
00000100
,
00000010
00001000
00000002
00000000
,
00000003
00001100
00010000
00001000
,
01000000
00002000
00000000
00013000
,
00000000
00000000
00000000
00000000
;
#NOTES:
     dance-double:
     :
     Medium:
     11:
     :
00000000
00000000
00000000
00000000
,
00000000
00000000
00000000
00000000
,
00000000
00000000
00000000
00000000
,
00000000
00000000
00000000
00000000
,
00000000
00000000
00000000
00000000
,
00002000
00000000
00000000
00013000
00000000
00000000
00020000
00000000
00000000
00030010
00000000
00000000
00000000
00000000
00002000
00000000
,
00000000
00103000
00000000
00000000
00200000
00000000
00000000
01300000
00000000
00000000
00000000
00000000
10010000
00000000
00000000
00000000
,
02000000
00000000
00000000
03010000
00000000
00000000
00020000
00000000
00000000
00130000
00000000
00000000
00000000
00000000
02000000
00000000
,
00000000
03001000
00000000
00000000
00002000
00000000
00000000
00013000
00000000
00000000
00000000
00000000
00001010
00000000
00000000
00000000
,
00000000
00000000
00000000
00001100
,
00001001
00000000
00000100
00001000
00010000
00000000
00000010
00001000
,
00000100
00000000
00010000
00001000
00010000
00000000
00100000
01000000
,
00010000
00000000
10000000
00010000
01000000
00000000
00001000
00010000
,
00001000
00000000
00000010
00001000
00010000
00000000
00000010
00001000
,
00010000
00000000
01000000
00100000
00010000
00000000
00001000
01000000
,
00100000
00000000
10000000
00010000
00100000
00000000
00001000
00010000
,
00001000
00000000
00000100
00000010
00001000
00000000
00000001
00001000
,
00000100
00010000
00001000
00000000
00000000
01000000
00100000
00000000
,
10000000
00100000
00010000
00001000
00000000
00100000
00010000
00001000
,
00000000
00000001
00000010
00000000
00000000
00002002
00003003
00000000
,
00000001
00000010
00001000
00010000
00000000
00000010
00001000
00010000
,
00000000
10000000
00100000
00000000
00000000
20020000
30030000
00000000
,
10000000
00010000
00100000
00001000
00000000
00010000
00001000
00000100
,
00000000
00000001
00000100
00000000
00000000
00022000
00033000
00000000
,
00000100
00001000
00000010
00010000
00000000
01000000
10000000
01000000
,
00000000
00010000
00001000
00000000
00000000
00000022
00000033
00000000
,
00002000
00000000
00000000
00000000
00000000
00003001
00000100
00002000
,
00000000
00000000
00000000
00023000
00000000
00000000
00030100
00000000
,
00000101
00000000
00000100
00001000
00000000
00000001
00000100
00001000
,
00000000
00010000
01000000
20000000
00000000
00000000
00010000
00000000
,
32000000
00000000
00000000
00000000
00000000
03010000
00001000
00000020
,
00000000
00000000
00000130
00002000
00000000
00000000
00003002
00000000
,
00000203
00000000
00000000
00000000
00000000
00000301
00000100
00001000
,
00010000
00100000
00000000
10010000
00000000
10000000
01000000
00000000
,
00020000
00000000
00000000
00000000
00000000
00031000
00000100
00000002
,
00000000
00000000
00000000
00000203
00000000
00000000
00000310
00000000
,
00010000
00001000
00010000
00000000
00100000
01000000
00100000
10000000
,
00000000
00010000
00100000
00001000
00000000
00000100
00000010
00000000
,
00001000
00000001
00000100
00000010
00010000
00001000
00000100
00000000
,
00000010
00010000
00001000
00010000
01000000
00100000
00010000
00000000
,
01000000
00100000
00010000
00001000
00010000
00100000
01000000
00000000
,
00010000
10000000
00000000
00110000
00000000
00001000
00010000
00000000
,
00002000
00000000
00000000
00000000
00003100
00000000
00001000
00010000
,
00200000
00000000
00000000
00000000
10300000
00000000
00100000
01000000
,
00020000
00000000
00000000
00000000
00130000
00000000
00010000
00100000
,
00002000
00000000
00000000
00003100
00000001
00000000
00000100
00000010
,
00001000
00000000
00000110
00000000
00000101
00000000
00001000
00000100
,
00010000
00000000
01100000
00000000
11000000
00000000
00010000
00001000
,
00000010
00000000
00000110
00000000
00001100
00000000
00000001
00000100
,
00001000
00000000
00011000
00000000
01000000
00010000
00001000
00000000
,
00020000
00000000
00000000
00030000
00000010
00000000
00000100
00000001
,
00000100
00000000
00001010
00000000
00011000
00000000
00100000
00010000
,
00001000
00000000
00001100
00000000
00000101
00000000
00000100
00001000
,
00010000
00000000
01100000
00000000
10000000
01000000
00010000
00001000
,
00020000
00000000
00000000
00031000
00000000
00000000
00002000
00000000
00000000
00103000
00000000
00000000
00000000
00000000
00020000
00000000
,
00000000
00030010
00000000
00000000
00000020
00000000
00000000
00000130
00000000
00000000
00000000
00000000
00001001
00000000
00000000
00000000
,
00000200
00000000
00000000
00001300
00000000
00000000
00002000
00000000
00000000
00003010
00000000
00000000
00000000
00000000
00000200
00000000
,
00000000
00010300
00000000
00000000
00020000
00000000
00000000
00031000
00000000
00000000
00000000
00000000
00110000
00000000
00000000
00000000
,
00000000
00000000
00000000
01010000
,
10010000
00000000
01000000
00010000
00001000
00000000
00100000
00010000
,
01000000
00000000
00001000
00010000
00001000
00000000
00000010
00000100
,
00001000
00000000
00000001
00001000
00000100
00000000
00010000
00001000
,
00010000
00000000
00100000
00010000
00001000
00000000
00100000
00010000
,
00001000
00000000
00000100
00000010
00001000
00000000
00010000
00000100
,
00000010
00000000
00000001
00001000
00000010
00010000
00001000
00010000
,
00100000
00000000
10100000
00000000
00010000
00100000
00001000
00010000
,
00000010
00000100
00000100
00000000
00000000
00000010
00010000
00000000
,
00011000
00000000
00001010
00000000
00000001
00000100
00001000
00010000
,
00000000
00001000
01000000
00000000
10000000
01000000
00010000
00001000
,
00000000
00000000
00001001
00000000
00000001
00001000
00000100
00000001
,
00000000
00000100
00020000
00000000
00000000
00000000
00000000
00030000
,
00001000
00100000
00010000
01000000
10000000
01000000
00001000
00010000
,
00000000
00000100
00001000
00000000
00000001
00000010
00001000
00010000
,
01000000
00000000
01100000
00000000
00000000
00011000
00000000
00001010
,
00000000
00000100
00000001
00000000
00000000
00001000
00001000
00000000
,
00000000
00000000
00000000
00000000
;
#NOTES:
     dance-double:
     :
     Hard:
     15:
     :
00000000
00000000
00000000
00000000
,
00000000
00000000
00000000
00000000
,
00000000
00000000
00000000
00000000
,
00000000
00000000
00000000
00000000
,
00000000
00000000
00000000
00000000
,
00011000
00000000
00000000
00001010
00000000
00000000
00011000
00000000
00000000
00001010
00000000
00000000
00001000
00000000
00011000
00000000
,
00000000
00110000
00000000
00000000
00011000
00000000
00000000
00110000
00000000
00000000
01000000
00000000
01010000
00000000
00000000
00000000
,
11000000
00000000
00000000
01010000
00000000
00000000
11000000
00000000
00000000
01010000
00000000
00000000
00010000
00000000
00110000
00000000
,
00000000
00011000
00000000
00000000
00110000
00000000
00000000
00011000
00000000
00000000
00000100
00000000
00001100
00000000
00000000
00000000
,
00000000
00000000
00000000
00000000
00000001
00000010
00001000
00000000
,
00011000
00000000
00000000
00000000
00000010
00000000
00000100
00000000
00000001
00000010
00000001
00000000
00001000
00000000
00000100
00000000
,
00010000
00000000
00000100
00001000
00000100
00000000
00000000
00000000
00010000
00000000
01000000
00000000
10000000
00000000
00010000
00000000
,
01010000
00000000
00000000
00000000
00110000
00000000
01000000
00100000
01000000
00000000
10000000
00000000
01000000
00000000
00010000
00000000
,
00001000
00000000
00000010
00000001
00000010
00000000
00000001
00000100
00000001
00000000
00000001
00000000
00001000
00000000
00000100
00010000
,
00001000
00000000
00000100
00000000
00000001
00000000
00000010
00000000
00001000
00010000
00001000
00000000
00100000
00000000
01000000
10000000
,
01000000
00000000
00100000
00010000
00100000
00000000
00000000
00000000
00001000
00000000
01000000
00000000
00010000
00000000
00001000
00000000
,
00000010
00000100
00000010
00000000
00010000
00000000
00000100
00000010
00000100
00000000
00010000
00000000
00001000
00000000
00101000
00000000
,
00000000
00000000
10010000
00000000
10010000
00000000
00000000
00000000
01000000
00000000
00001000
00010000
00001000
00000000
00000000
00000000
,
00010000
00000100
00000001
00000100
00000010
00001000
00010000
01000000
,
10000000
00010000
00100000
01000000
10000000
02000000
03000000
00000000
,
00100000
00001000
00010000
00000010
00001000
00000100
00010000
00001000
,
00000010
00000001
00001000
00000100
00000010
00000002
00000003
00000000
,
00000001
00000100
00001000
00010000
00000010
00001000
00000001
00000100
,
00001000
00010000
00001000
00000000
01000000
20000000
30000000
00000000
,
00010000
00100000
01000000
00010000
00001000
00010000
01000000
00010000
,
00000000
00000100
00000001
00000000
00000100
00000220
00000330
00000000
,
00000001
00000000
00000010
00000000
00001000
00000000
00010000
00001000
00010000
00000000
00001000
00000000
00000010
00000000
00000001
00000000
,
00000100
00000000
00000001
00000000
00001000
00000000
00010000
00001000
00010000
00000000
00001000
00000000
00000010
00000000
00000001
00000000
,
00000010
00000000
00001000
00000000
00000100
00000000
00010000
00001000
00010000
00000000
00000100
00000000
00001000
00000000
00010000
00000000
,
00100000
00000000
01000000
00000000
00010000
00000000
00001000
00010000
00001000
00000000
00010000
00000000
01000000
00000000
10000000
00000000
,
00010000
00000000
00100000
00000000
01000000
00000000
00010000
00001000
00010000
00000000
01000000
00000000
10000000
00000000
00100000
00000000
,
00010000
00000000
10000000
00000000
01000000
00000000
00010000
00001000
00010000
00000000
01000000
00000000
00100000
00000000
00010000
00000000
,
00001000
00000000
00100000
00000000
00010000
00000000
00001000
00010000
00001000
00000000
00000100
00000000
00001000
00000001
00000010
00000100
,
00001000
00000000
00000001
00000000
00000000
00000000
00001001
00000000
00000000
00000000
00000001
00000000
00000100
00000000
00001000
00010000
,
00001000
00000000
00010000
00000000
00000010
00000000
00000100
00000001
00000100
00000000
00000010
00000000
00010000
00000000
00001000
00100000
,
00010000
00000000
01000000
00000000
00100000
00000000
01000000
00010000
01000000
00000000
00001000
00000000
00010000
00000000
00001000
00100000
,
00010000
00000000
01000000
00000000
00010000
00000000
00100000
00001000
00010000
00000000
00000010
00000000
00001000
00000000
00000001
00000100
,
00000001
00000000
00001000
00000000
00000010
00000000
00010000
00000100
00001000
00000000
00000001
00000000
00000100
00000000
00000010
00010000
,
00001000
00000000
00010000
00000000
00001000
00000000
00100000
00010000
01000000
00000000
00001000
00000000
00010000
00000000
00000010
00001000
,
00000100
00000000
00000010
00000000
00000001
00000000
00000010
00000001
00000100
00000000
00000010
00000000
00010000
00000000
00000010
00001000
,
00000100
00000000
00010000
00000000
00001000
00000000
00100000
00010000
01000000
00000000
00010000
10000000
01000000
00100000
00010000
00100000
,
00001000
00000000
00010000
00000000
00000000
00000000
00000010
00000000
00000000
00000000
00001001
00000000
00000010
00000100
00001000
00000001
,
00001000
00000010
00000001
00000010
00002000
00000000
00000000
00003000
,
00100000
10000000
01000000
00010000
00002000
00000000
00000000
00003000
,
00000001
00000100
00001000
00010000
00200000
00000000
00000000
00300000
,
00010000
10000000
01000000
00010000
00002000
00000000
00003100
00000000
,
00000001
00000100
00001000
00010000
00100000
00000000
10100000
00000000
,
10000000
01000000
00010000
00001000
00000010
00000000
00000011
00000000
,
00000001
00000100
00001000
00010000
00100000
00000000
10100000
00000000
,
10000000
01000000
00010000
00001000
00000010
00000000
00001001
00000000
,
00000020
00000000
00000000
00000000
00000030
00000000
00001000
00000010
00001000
00000000
00000100
00000000
00010000
00000000
00000100
00000000
,
00001000
00000000
00000001
00000000
00000100
00000000
00001000
00010000
00001000
00000000
00000000
00000000
01100000
00000000
00000000
00000000
,
00100000
10000000
00010000
01000000
00001000
00000000
00000110
00000000
,
00000001
00001000
00000100
00010000
00001000
00000000
01010000
00000000
,
00011000
00000000
00000000
00110000
00000000
00000000
00011000
00000000
00000000
00110000
00000000
00000000
00010000
00000000
00011000
00000000
,
00000000
00001010
00000000
00000000
00011000
00000000
00000000
00001010
00000000
00000000
00000100
00000000
00001100
00000000
00000000
00000000
,
00000101
00000000
00000000
00001100
00000000
00000000
00000101
00000000
00000000
00001100
00000000
00000000
00001000
00000000
00001010
00000000
,
00000000
00011000
00000000
00000000
00001010
00000000
00000000
00011000
00000000
00000000
01000000
00000000
01010000
00000000
00000000
00000000
,
00000000
00000000
00000000
00000000
10000000
00100000
00010000
00000000
,
00011000
00000000
00000000
00000000
00100000
00000000
01000000
00000000
10000000
00100000
10000000
00000000
00010000
00000000
01000000
00000000
,
00001000
00000000
01000000
00010000
01000000
00000000
00000000
00000000
00001000
00000000
00000100
00000000
00000001
00000000
00001000
00000000
,
00001100
00000000
00000000
00000000
00001010
00000000
00000100
00000010
00000100
00000000
00000001
00000000
00000100
00000000
00001000
00000000
,
00010000
00000000
00100000
10000000
00100000
00000000
10000000
01000000
10000000
00000000
10000000
00000000
00010000
00000000
01000000
00001000
,
00010000
00000000
01000000
00000000
10000000
00000000
00100000
00000000
00010000
00001000
00010000
00000000
00000010
00000000
00000100
00000001
,
00000100
00000000
00000010
00001000
00000010
00000000
00000000
00000000
00010000
00000100
00010000
00001000
00010000
00000000
00010000
00001000
,
00100000
01000000
00100000
00000000
00001000
00000000
01000000
00100000
01000000
00000000
00001000
00000000
00010000
00000000
00010010
00000000
,
00000000
00001001
00001001
00000000
00000100
00010000
00011000
00000000
,
00101000
00000000
00001100
00000000
00000001
00000010
00001000
00000010
,
00000000
00000000
00001000
00010000
00001000
00000000
00000000
00000000
01000000
00000000
00100000
00000000
00010000
00000000
00100000
00000000
,
00000000
00000000
10100000
00000000
00010000
00100000
00001000
01001000
,
00000000
00001000
00022000
00000000
00000000
00000000
00000000
00033000
,
00010000
00000000
00000100
00000000
00000010
00000000
00000001
00000010
00000100
00000000
00010000
00000000
00000010
00000000
00001000
00000000
,
00000100
00000000
00000010
00000100
00000010
00000000
00000000
00000000
00000001
00000100
00000010
00001000
00000100
00010000
00001000
00010000
,
00000100
00000000
00001001
00000000
00001000
00010000
00000000
01100000
,
00000000
00000000
10010000
00000000
10010000
00000000
00000000
00000000
00000000
00000000
00001000
00010000
01000000
00000000
00000000
00000000
,
00000000
00000000
00000000
00000000
;
#NOTES:
     dance-double:
     :
     Challenge:
     16:
     :
00000000
00000000
00000000
00000000
,
00000000
00000000
00000000
00000000
,
00000000
00000000
00000000
00000000
,
00000000
00000000
00000000
00000000
,
00001001
00000000
00000000
00000000
00000001
00000010
00000100
00001000
00000100
00001000
00000100
00000000
00011000
00000000
00000000
00000000
,
01100000
00000000
00000000
00110000
00000000
00000000
11000000
00000000
00000000
01010000
00000000
00000000
00001000
00000000
00011000
00000000
,
00000000
00000110
00000000
00000000
00001010
00000000
00000000
00001001
00000000
00000000
00000100
00000000
00010100
00000000
00000000
00000000
,
00000110
00000000
00000000
00001010
00000000
00000000
00000101
00000000
00000000
00001100
00000000
00000000
00010000
00000000
00011000
00000000
,
00000000
01100000
00000000
00000000
00110000
00000000
00000000
10010000
00000000
00000000
01000000
00000000
01001000
00000000
00000000
00000000
,
00001000
00000000
00000000
00000000
00010000
00000010
00000100
00000010
00001000
00000000
00000100
00000000
00010100
00000000
00000000
00000000
,
00011000
00000000
01000000
00000000
00100000
00000000
01000000
00000000
00001000
01000000
00001000
00000000
01000000
00000000
00100000
00000000
,
01000000
00000000
10000000
01000000
00010000
00000000
10000000
00000000
00100000
00000000
00010000
00000000
00001000
00000000
00010000
00000000
,
00011000
00000000
00001000
00000100
00001000
00000000
00000100
00000010
00000100
00000000
00001000
00000000
00000200
00000000
00000001
00000000
,
00000300
00000000
00001000
00000001
00001000
00000010
00000100
00001000
00010000
00000000
00011000
00000000
00100000
00000000
00010000
00001000
,
00100000
00000000
00010000
00000000
00100000
00000000
01000000
00000000
10000000
00000000
01000000
00000000
00100000
00000000
01000000
00100000
,
01000000
00000000
00010000
00001000
00010000
00000000
00000100
00000000
00010000
00000000
00000100
00000000
00001000
00000000
00000110
00000000
,
00000010
00000100
00000010
00000000
00000001
00001000
00000100
00000010
00000100
00001000
00000001
00000100
00000010
00001000
00000010
00000000
,
00000000
00000000
00010010
00000000
00011000
00000000
00000000
00000000
00001000
00000000
00100000
00010000
00100000
00000000
00010000
00000000
,
10000000
00000000
00100000
00000000
00010000
00000000
00100000
01000000
00100000
00000000
01000000
00000000
10000000
00000000
01000000
00100000
,
01000000
00001000
00010000
00001000
00010000
00002000
00003000
00000100
,
00000001
00000000
00000010
00000000
00001000
00000000
00000010
00000100
00000010
00000000
00000100
00000000
00001000
00000000
00000010
00000000
,
00000001
00000000
00000110
00000000
00000010
00000000
00000100
00000010
00001000
00000000
00000001
00000000
00000100
00000000
00001000
00000000
,
00010000
00000000
00001000
00000000
00100000
00000000
00010000
00000000
00100000
00000000
01000000
00100000
00010000
00000000
10000000
00000000
,
01000000
00100000
01100000
00000000
00000000
00022000
00033000
00000000
,
00010000
00000000
00000010
00000000
00000100
00001000
00000100
00000000
00000010
00000000
00000100
00000010
00000001
00000000
00000011
00000000
,
00000000
00001010
00000000
00000000
00000000
00002000
00013000
00000000
,
00100000
01000000
10000000
00000000
01000000
00000000
00100000
00010000
00000000
00000000
00001000
00000000
00010000
00000000
01000000
10000000
,
01000000
00000000
10000000
01000000
00010000
00001000
00000010
00001000
,
00010000
00001000
00000000
00000000
00000010
00000000
00000001
00000000
00000010
00000000
00001000
00000000
00010000
00000000
00001000
00000000
,
00000000
00000000
01000000
00100000
00010000
00000000
00100000
00000000
00000000
00000000
01000000
00000000
00001000
00000000
01000000
00000000
,
00010000
01000000
10000000
00000000
01000000
00000000
00100000
00010000
00000000
00000000
00001000
00000000
00010000
00000000
00000010
00000100
,
00000010
00000000
00001000
00000010
00000001
00000010
00000100
00000001
,
00001000
00000010
00000000
00000000
00000100
00000000
00000001
00000000
00000100
00000000
00001000
00000000
00010000
00000000
00000010
00000000
,
00010000
00000000
00001000
00010000
00001000
00000000
00101000
00000000
00000000
00000000
00011000
00000000
00010000
00000100
00001000
00000100
,
00000010
00000100
00000001
00000000
00000100
00000000
00000010
00001000
00000000
00000000
00010000
00000000
00001000
00000000
00000100
00000001
,
00000100
00000000
00000001
00000100
00001000
00010000
00001000
00100000
,
00001000
00010000
00100000
01000000
00000000
00100000
00010000
00001000
,
00000000
00000000
00010000
00001000
00010000
00000000
00001000
00000000
00000000
00000000
00000100
00000000
00000010
00000000
00000100
00000000
,
00001000
00000100
00000001
00000000
00000100
00000000
00000010
00010000
00000000
00000000
00001000
00000000
00010000
00000000
00001000
00000000
,
00000000
00100000
00010000
00100000
10000000
00100000
01000000
10000000
,
00010000
00100000
00000000
00000000
01000000
00000000
10000000
00000000
01000000
00000000
00010000
00000000
00001000
00000000
00100000
00000000
,
00001000
00000000
00010000
00001000
00000010
00000000
00000110
00000000
00000000
00000000
00000001
00000000
00000100
00000001
00001000
00000010
,
00000100
00000000
00001000
00000000
00010000
00000000
00100000
01000000
00100000
00000000
10000000
00000000
00010000
00000000
01100000
00000000
,
00000000
00000000
00110000
00000000
00000000
00000000
00001000
00000000
00010000
00000000
00001000
00000010
00000100
00000000
00000000
00000000
,
00000100
00000010
00000001
00000100
00000010
00001000
00000001
00001000
00000001
00000000
00000010
00000000
00000001
00000000
00001001
00000000
,
00000000
00000011
00000000
00000100
00001000
00010000
00100000
00000000
,
10100000
00000000
00000000
00000000
00110000
00000000
00000000
00000000
01000000
00000000
00010000
00000000
00000000
00000000
00010000
01000000
,
00010000
10000000
00100000
01000000
00100000
10000000
01000000
10000000
00010000
00000000
01000000
00000000
00100000
00000000
00010000
00000000
,
00001000
00000000
00000000
00000000
00010000
00000000
00000000
00000000
00000100
00000000
00001000
00000000
00000000
00000000
00000001
00000100
,
00000001
00001000
00000100
00001000
00000010
00000000
00000100
00000010
00010000
00000000
00001000
00000000
00000000
00000000
00000000
00000000
,
00011000
00000000
00000000
00000000
00010000
00001000
00000010
00000100
00000010
00000000
00000001
00000000
00001000
00000000
00000110
00000000
,
00000000
00000000
00001000
00000000
00000000
00000000
00010000
00000000
00001000
00000000
00010000
00100000
01000000
00000000
00000000
00000000
,
01000000
00100000
10000000
01000000
00100000
00010000
10000000
00010000
10000000
00000000
00100000
00000000
10000000
00000000
10010000
00000000
,
00000000
10100000
00000000
01000000
00010000
00001000
00000010
00000000
,
00000110
00000000
00000000
00000011
00000000
00000000
00001001
00000000
00000000
00001100
00000000
00000000
00010000
00000000
00011000
00000000
,
00000000
01100000
00000000
00000000
00110000
00000000
00000000
10010000
00000000
00000000
01000000
00000000
01001000
00000000
00000000
00000000
,
01100000
00000000
00000000
00110000
00000000
00000000
11000000
00000000
00000000
01010000
00000000
00000000
00001000
00000000
00011000
00000000
,
00000000
00000110
00000000
00000000
00000011
00000000
00000000
00001001
00000000
00000000
00000100
00000000
00010100
00000000
00000000
00000000
,
00010000
00000000
00000000
00000000
00001000
00100000
01000000
00100000
00010000
00000000
01000000
00000000
01001000
00000000
00000000
00000000
,
00011000
00000000
00000100
00000000
00000010
00000000
00000100
00000000
00010000
00000100
00010000
00000000
00000100
00000000
00000010
00000000
,
00000100
00000000
00000001
00000100
00001000
00000000
00000001
00000000
00000010
00000000
00001000
00000000
00010000
00000000
00001000
00000000
,
00011000
00000000
00010000
01000000
00010000
00000000
01000000
00100000
01000000
00000000
00010000
00000000
02000000
00000000
10000000
00000000
,
03000000
00000000
00010000
10000000
00010000
00100000
01000000
00010000
00001000
00000000
00011000
00000000
00000010
00000000
00001000
00010000
,
00000010
00000000
00001000
00000000
00000010
00000000
00000100
00000000
00000001
00000000
00000100
00000000
00000010
00000000
00000100
00000010
,
00000100
00000000
00001000
00010000
00100000
00000000
01000000
00000000
00010000
01000000
00010000
00100000
00010000
10000000
01000000
10000000
,
00100000
01000000
00100000
00000000
10000000
00010000
01000000
00100000
01000000
00000000
10000000
01000000
00100000
00010000
00100000
00000000
,
00000000
00000000
00101000
00000000
00011000
00000000
00000000
00000000
00010000
00000000
00000010
00001000
00000010
00000000
00001000
00000000
,
00000001
00000000
00000010
00000000
00001000
00000000
00000010
00000100
00000010
00000000
00001000
00000000
00010000
00000000
00001000
00010000
,
00001000
00000000
00100000
00000000
01100000
00000000
00000000
00000000
00010000
00000000
00100000
01000000
10000000
00000000
00010000
00000000
,
00000000
00000000
00000000
00000000
10000000
00000000
01000000
00010000
00001000
00000000
00000010
00000000
00000001
00000000
00000100
00000000
,
00000000
00000001
00002002
00000000
00000000
00000000
00003003
00000000
,
00000001
00000000
00000100
00000000
00001000
00000000
00010000
00000000
00100000
00000000
01000000
00100000
10000000
00000000
01000000
00000000
,
00010000
00000000
01000000
00000000
01100000
00000000
00000000
00000000
00010000
01000000
00100000
10000000
01000000
00100000
01000000
10000000
,
00010000
00100000
01000000
00010000
00001000
00010000
00001000
00000000
00010000
00000000
00001000
00100000
00010000
00000000
00011000
00000000
,
00000000
00000000
00000100
00000000
00001000
00000000
00000000
00000000
00000000
00000000
00000100
00000010
00000001
00000000
00000000
00000000
,
00000000
00000000
00000000
00000000
;
