
//----- song ID: sttr -----//
#TITLE:Star Trail;
#ARTIST:Nhato;
#BANNER:Star Trail.png;
#BACKGROUND:Star Trail-bg.png;
#CDTITLE:./CDTitles/bm IIDX 19 Lincle.png;
#MUSIC:Star Trail.ogg;
#SAMPLESTART:16.208;
#SAMPLELENGTH:15;
#BPMS:0=74,20=148,164=74,172=148;
#NOTES:
     dance-single:
     :
     Beginner:
     2:
     :
0000
0000
0000
0000
,
0000
0000
0000
0000
,
0000
0000
0000
0000
,
0000
0000
0000
0000
,
0000
0000
0000
0000
,
1000
0000
0001
0000
,
1000
0000
0000
0000
,
0001
0000
1000
0000
,
0001
0000
0000
0000
,
0010
0000
0001
0000
,
0010
0000
0000
0000
,
0001
0000
1000
0000
,
0001
0000
0000
0000
,
0010
0000
0000
0000
,
1000
0000
0000
0000
,
0001
0000
0000
0000
,
0010
0000
0100
0000
,
0010
0000
0000
0000
,
0001
0000
0000
0000
,
1000
0000
0000
0000
,
1001
0000
0000
0000
,
0001
0000
1000
0000
,
0010
0000
0000
0000
,
1000
0000
0001
0000
,
0010
0000
0000
0000
,
0001
0000
0000
0000
,
1000
0000
0000
0000
,
0010
0000
0000
0000
,
1000
0000
0001
0000
,
1000
0000
0001
0000
,
0010
0000
0000
0000
,
0001
0000
1000
0000
,
0010
0000
0000
0000
,
1000
0000
0001
0000
,
0100
0000
0001
0000
,
1000
0000
0000
0000
,
0001
0000
0000
0000
,
0020
0000
0000
0000
,
0030
0000
0000
0000
,
2000
0000
0000
0000
,
3000
0000
0000
0000
,
0200
0000
0300
0000
,
0002
0000
0000
0000
0000
0000
0000
0003
,
0020
0000
0000
0000
,
0030
0000
0000
0000
,
2000
0000
0000
0000
,
3000
0000
0000
0000
,
0002
0000
0000
0000
,
0003
0000
0000
0000
,
0020
0000
0000
0000
,
0030
0000
0000
0000
,
0100
0000
0010
0000
,
0100
0000
0000
0000
,
1000
0000
0001
0000
,
1000
0000
0000
0000
,
0010
0000
0100
0000
,
0010
0000
0000
0000
,
0100
0000
0001
0000
,
0100
0000
0000
0000
,
0001
0000
0000
0000
,
0000
0000
0000
0000
,
1000
0000
0000
0000
,
0000
0000
0000
0000
,
0020
0000
0000
0000
,
0000
0000
0000
0000
,
0000
0000
0000
0000
,
0030
0000
0000
0000
,
0000
0000
0000
0000
;
#NOTES:
     dance-single:
     :
     Easy:
     5:
     :
0000
0000
0000
0000
,
0000
0000
0000
0000
,
0000
0000
0000
0000
,
0000
0000
0000
0000
,
0000
0000
0000
0000
,
1000
1000
0100
0000
,
0010
0010
0001
0000
,
0001
0001
0100
0000
,
0010
0010
1000
0000
,
0001
0001
0010
0000
,
0100
0100
1000
0000
,
0010
1000
0010
1000
,
0002
0000
0000
0003
,
0010
0001
1000
0000
,
0001
1000
0100
0000
,
0010
0001
1000
0000
,
0001
0000
1000
0001
,
1000
0001
0010
0000
,
0100
1000
0001
0000
,
0010
0001
1000
0001
,
0200
0000
0000
0310
,
1001
0000
0010
0001
,
1001
0000
0010
0100
,
0110
0000
0001
1000
,
1001
0000
0100
0010
,
0110
0000
0100
0100
,
2000
0000
0001
0001
,
3002
0000
0100
0100
,
0203
0000
0000
0310
,
1001
0000
0010
1000
,
1001
0000
0010
0100
,
0110
0000
1000
0001
,
1001
0000
0100
0010
,
0210
0000
0001
0000
,
0010
0000
0001
0000
,
0320
0000
0100
0000
,
1000
0000
0100
0000
,
2030
0000
3100
0000
,
0010
0000
0001
0000
,
0020
0000
0130
0000
,
1000
0000
0001
0000
,
0200
0301
0010
0100
,
2000
3001
0100
0010
,
1000
0100
0010
0001
,
0010
0100
2000
0000
,
3001
0100
0010
1000
,
0010
0100
0002
0000
,
1003
0100
0010
0100
,
0010
0100
2000
0000
,
3001
0100
0010
0100
,
0010
0100
0002
0000
,
1003
0000
0010
0000
,
0100
0010
0100
0000
,
0001
1000
0001
0000
,
1000
0100
1000
0000
,
0001
1000
0010
0000
,
0100
0001
1000
0000
,
0010
0100
0010
0000
,
2000
0000
0000
0000
,
3002
0000
0000
0000
,
0000
0000
0000
0000
,
0203
0000
0000
0000
,
0000
0000
0000
0000
,
0020
0000
0000
0000
,
0000
0000
0000
0000
,
0000
0000
0000
0000
,
0330
0000
0000
0000
,
0000
0000
0000
0000
;
#NOTES:
     dance-single:
     :
     Medium:
     9:
     :
0000
0000
0000
0000
,
0000
0000
0000
0000
,
0000
0000
0000
0000
,
0000
0000
0000
0000
,
0000
0000
0000
0000
,
1000
0000
0010
0000
1000
0000
0010
0100
,
0001
0100
0010
0000
1000
0010
1000
0000
,
0001
0000
0010
0000
0001
0000
0010
0100
,
1000
0100
0010
0000
0100
1000
0100
1000
,
0001
0010
1000
0010
,
0001
0000
0010
0001
1000
0000
0001
0000
,
1000
0110
1001
0110
,
0002
0000
0000
0000
,
0103
0010
0100
0000
0001
0100
1000
0000
,
0100
0010
0100
0000
1000
0100
0001
0000
,
0100
0010
1000
0001
0100
0000
0010
0000
,
2000
0000
3002
0000
,
1003
0010
1000
0000
0001
0100
1000
0000
,
0100
0001
0100
0000
1000
0100
0001
0000
,
0010
0100
1000
0001
0010
0000
0100
0000
,
2200
0000
0000
3300
,
0101
0000
1100
0000
0001
0100
0001
0000
,
1100
0000
0101
0000
1000
0100
1000
0000
,
0011
0000
0101
0000
0010
0100
0010
0000
,
1100
0000
1010
0000
0100
0010
0100
0000
,
0001
0100
1000
0000
1000
0100
0001
0000
,
0001
0100
1000
0000
1000
0100
0001
0000
,
0100
0001
0100
0001
0100
0001
0100
0000
,
0020
0000
2000
3030
,
1100
0000
0101
0000
1000
0100
1000
0000
,
0101
0000
1100
0000
0001
0100
0001
0000
,
1010
0000
1100
0000
0010
0100
0010
0000
,
0101
0000
0011
0000
0100
0010
0100
0000
,
0010
0100
0001
0000
1002
0000
0000
0000
,
0013
0100
1000
0000
2001
0000
0000
0000
,
3100
1000
0100
1000
0100
1000
0100
0000
,
2000
0000
0001
0100
,
3100
0010
0001
0000
1000
0100
0010
0000
,
0001
1000
0100
0000
0010
0001
1000
0000
,
0001
0100
0010
0000
1000
0001
0100
0000
,
0010
1000
0001
0000
0100
0010
1000
0000
,
0001
0000
0110
0000
1000
0010
1001
0000
,
0100
0000
0011
0000
0100
1000
0100
0010
,
0001
0000
0001
0000
0100
0010
0100
0001
,
1000
0100
0010
0000
0010
0100
1000
0000
,
0010
0000
0010
0000
1000
0001
1000
0100
,
0010
0100
1000
0000
1000
0010
1000
0000
,
0100
0000
0100
0000
0010
0001
0010
0001
,
0100
0010
1000
0000
1000
0010
0100
0000
,
0001
0000
0001
0000
0100
0001
0100
0010
,
1000
0100
0010
0001
0010
0100
1000
0000
,
0001
0000
1000
0000
0001
0000
0000
1000
,
0010
0000
1000
0100
0000
1000
0001
0000
,
0010
0001
0100
1000
0100
0000
0000
0001
,
0010
0000
0001
0100
0000
0001
1000
0100
,
0010
0000
0001
0000
0010
0000
0100
0010
,
0000
0100
1000
0000
0100
0001
0000
0100
,
1000
0000
0010
0000
1000
0000
0001
0020
,
0000
0000
0000
0000
,
0032
0000
0000
0000
0010
0000
0000
1000
,
0000
0000
0000
0000
,
0203
0000
0000
0000
0010
0000
0000
0001
,
0000
0000
0000
0000
0300
0001
1000
0010
,
0200
0000
0000
0000
,
0000
0000
0000
0000
,
0000
0000
0000
0000
,
0300
0000
0000
0000
,
0000
0000
0000
0000
;
#NOTES:
     dance-single:
     :
     Hard:
     13:
     :
0000
0000
0000
0000
,
0000
0000
0000
0000
,
0000
0000
0000
0000
,
0000
0000
0000
0000
,
0000
0000
0000
0000
,
1000
0000
0010
0000
1000
0000
0010
0000
1000
0000
0001
0000
0010
0000
0100
0010
,
0100
1000
0001
0100
0001
0010
0001
0010
,
0001
0000
0100
0000
0001
0000
0100
0000
0001
0000
1000
0000
0100
0000
0010
0001
,
0010
0000
0001
0000
1000
0000
0010
0000
1000
0001
0010
0001
0010
0001
0010
0001
,
1000
0000
0010
0000
1000
0000
0010
0000
0100
0000
0001
0000
0010
0000
0001
0100
,
0001
0010
0100
0010
0001
0010
0100
1000
,
0001
0010
0001
0010
0001
0000
1000
0001
1000
0000
0010
1000
0010
0000
0100
0001
,
0200
0000
0000
0000
,
0301
0000
0010
0000
0001
0000
0010
0000
0100
0000
0010
0100
0000
0000
1000
0000
,
0010
0000
1000
0000
0010
0000
1000
0000
0010
0000
0100
0010
0000
0000
0100
0000
,
0001
0000
0000
0000
0010
0000
0000
0000
0001
0000
0000
0000
0100
0000
0000
0000
0010
0000
0000
0000
0100
0000
0000
0000
0010
0000
0000
0000
0000
0000
1000
0000
0000
0100
0000
0000
0000
0000
0000
0000
0000
0000
1000
0000
0000
0000
0000
0000
,
0002
0000
2003
0000
,
3001
0000
0100
0000
0001
0000
0100
0000
1000
0000
0100
1000
0000
0000
0100
0000
,
0010
0000
0100
0000
0010
0000
0100
0000
0001
0000
0010
0001
0000
0000
0010
0000
,
0001
0000
0010
0000
1000
0000
0010
0000
0001
0000
0100
0001
0000
0000
0100
0000
,
0202
0000
0000
0000
0000
0000
0000
0000
0303
0000
0000
0000
0001
0010
0001
0010
,
0100
0000
0000
1000
0000
0000
0010
0000
0000
0001
0000
0000
0010
0000
0100
0010
,
0100
0000
0000
0001
0000
0000
0010
0000
0000
1000
0000
0000
0010
0000
0001
0010
,
0001
0000
0000
0100
0000
0000
0010
0000
0000
0001
0000
0000
1000
0000
0100
0010
,
0100
0000
0000
0001
0000
0000
0010
0000
0000
1000
0000
0000
0001
0000
0100
0000
,
1000
0000
0100
0000
1000
0000
0100
0000
0010
0000
0100
0010
0000
0001
0000
1000
,
0010
0000
1000
0000
0010
0000
1000
0000
0100
0000
1000
0100
0000
0010
0000
0001
,
0100
0000
0001
0000
0100
0000
0010
0000
0100
0000
0001
1000
0000
1000
0000
0001
,
0020
0000
0000
0000
0130
1000
0100
1000
0200
0000
0000
0000
0310
0001
0010
0001
,
0100
0000
0000
0001
0000
0000
0010
0000
0000
1000
0000
0000
0010
0000
0100
0010
,
0100
0000
0000
1000
0000
0000
0010
0000
0000
0001
0000
0000
0010
0000
1000
0010
,
1000
0000
0000
0100
0000
0000
0010
0000
0000
1000
0000
0000
0001
0000
0100
0010
,
0100
0000
0000
1000
0000
0000
0010
0000
0000
0001
0000
0000
1000
0000
0100
0000
,
0001
0000
0100
0000
0001
0000
0100
0000
0010
0000
0100
0010
0000
1000
0000
1000
,
0010
0000
1000
0000
0010
0000
1000
0000
0100
0000
1000
0100
0000
0100
0000
0010
,
0100
0010
0100
0010
0100
0010
0100
0010
0100
0000
1000
0001
0000
0001
0000
1000
,
0010
0000
1000
0000
0100
1000
0100
1000
0100
0000
0002
0000
0000
0000
0000
0000
,
0203
0000
1300
0010
1000
0010
1000
0100
,
0010
0100
1000
0010
0001
0010
1000
0010
,
2000
0000
3001
0010
0001
0100
0001
1000
,
0100
0010
0100
0010
0001
0100
1000
0100
,
0002
0000
0103
0000
1100
0000
1000
0100
0010
1000
0100
0000
0101
0000
0001
0100
,
0020
0000
0000
0000
0130
0000
0000
0000
1001
0000
0000
0000
1000
0000
0010
0000
0100
0000
0001
0000
0000
0010
0000
0000
0100
0000
0010
0000
0001
0000
0010
0000
,
0002
0000
1003
0010
0001
0010
0001
0010
,
0100
0001
0100
0000
0001
0010
0001
0000
0100
0010
0100
0000
0010
1000
0010
0000
,
0020
0000
0130
0001
0010
1000
0010
0001
,
0010
0001
0010
0000
0100
1000
0100
0000
1000
0010
1000
0000
0001
0100
0001
0000
,
0200
0000
0310
1000
0100
0001
0100
1000
,
0010
1000
0010
0000
0100
0010
0100
0000
0001
1000
0001
0000
0010
0001
0010
0000
,
2000
0000
3010
0001
0100
1000
0100
0001
,
0010
1000
0010
0000
0001
0010
0001
0000
1000
0100
1000
0000
0010
0100
0010
0100
,
0001
0000
1000
0000
0001
0000
0000
0000
0010
0000
0001
0010
0001
0000
1000
0010
,
0000
1000
0010
1000
0010
0000
0100
0000
0010
0000
0000
1000
0000
0000
0010
0000
,
1000
0100
1000
0100
1000
0000
0001
0000
1000
0000
0000
0010
0000
0000
0001
0000
,
1000
0000
0000
0000
0000
0000
0000
0000
0000
0100
0000
0000
0000
0000
0000
0000
0000
0000
0001
0000
0000
0000
0000
0000
0000
0000
0000
0010
0000
0000
0000
0000
0000
0000
0000
0000
0001
0000
0000
0000
0010
0000
0000
0000
0001
0000
0000
0000
,
0010
0000
0100
0000
1000
0000
0010
0000
0100
0000
0001
0000
0100
0000
0010
0100
,
0010
0000
0100
0001
0100
0000
0001
0000
0010
0000
0000
0100
0000
0000
0001
0000
,
0100
0000
1000
0000
0010
0000
0001
0000
1000
0000
0100
0000
0001
0010
0001
0200
,
0000
0000
0000
0000
0000
0000
0000
0000
0000
0000
0000
0000
0310
1000
0010
1000
,
0200
0000
0000
0000
0001
0000
0000
1000
,
0000
0000
0000
0000
0000
0000
0000
0000
0000
0000
0000
0000
0000
0000
1300
0001
,
0020
0000
0000
0000
0001
0000
0000
0100
,
0000
0000
0000
0000
0000
0130
1000
0010
,
0002
0000
0000
0000
,
0000
0000
0000
0000
,
0000
0000
0000
0000
,
0003
0000
0000
0000
,
0000
0000
0000
0000
;
#NOTES:
     dance-double:
     :
     Easy:
     6:
     :
00000000
00000000
00000000
00000000
,
00000000
00000000
00000000
00000000
,
00000000
00000000
00000000
00000000
,
00000000
00000000
00000000
00000000
,
00000000
00000000
00000000
00000000
,
10000000
10000000
01000000
00000000
,
00100000
00100000
01000000
00000000
,
00010000
00010000
00001000
00000000
,
00000010
00000010
00000100
00001000
,
00000001
00000001
00000100
00000000
,
00000010
00000010
00000100
00000000
,
00001000
00001000
00010000
00000000
,
00002000
00000000
00000000
00003000
,
00100000
00010000
01000000
00000000
,
00010000
00100000
00001000
00000000
,
01000000
00010000
00100000
00000000
,
00001000
00000000
00010000
00000000
,
00000010
00001000
00000100
00000000
,
00001000
00000010
00010000
00000000
,
00000100
00001000
00000010
00010000
,
00002000
00000000
00000000
00013000
,
00001100
00000000
00000010
00001000
,
00001100
00000000
00010000
00000100
,
00001100
00000000
00000001
00000010
,
00001100
00000000
00010000
00000100
,
00000010
00000001
00001001
00000000
,
00000100
00001000
00011000
00000000
,
00010000
00100000
01100000
00000000
,
20000000
00000000
00000000
30010000
,
01010000
00000000
00100000
00010000
,
01010000
00000000
00001000
01000000
,
01010000
00000000
10000000
00100000
,
01010000
00000000
00001000
01000000
,
01020000
00000000
00100000
00000000
,
01000000
00000000
00100000
00000000
,
00032000
00000000
00000100
00000000
,
00000010
00000000
00000100
00000000
,
00023000
00000000
00130000
00000000
,
01000000
00000000
10000000
00000000
,
02000000
00000000
03100000
00000000
,
00010000
00000000
00001000
00000000
,
00000200
00000310
00000001
00000010
,
00000200
00001300
00010000
00100000
,
01000000
00100000
00010000
00001000
,
00000100
00000010
00000002
00000000
,
00000103
00000010
00001000
00010000
,
01000000
00100000
20000000
00000000
,
31000000
00010000
00001000
00010000
,
00001000
00000010
00000002
00000000
,
00000103
00001000
00010000
00100000
,
10000000
00100000
00020000
00000000
,
00031000
00000000
00010000
00000000
,
00000100
00000010
00000100
00000000
,
00001000
00000001
00001000
00000000
,
00000010
00010000
00001000
00000000
,
00100000
00001000
00010000
00000000
,
00100000
01000000
00010000
00000000
,
10000000
00010000
10000000
00000000
,
00200000
00000000
00000000
00000000
,
02300000
00000000
00000000
00000000
,
00000000
00000000
00000000
00000000
,
03002000
00000000
00000000
00000000
,
00000000
00000000
00000000
00000000
,
00003200
00000000
00000000
00000000
,
00000000
00000000
00000000
00000000
,
00000000
00000000
00000000
00000000
,
00000300
00000000
00000000
00000000
,
00000000
00000000
00000000
00000000
;
#NOTES:
     dance-double:
     :
     Medium:
     9:
     :
00000000
00000000
00000000
00000000
,
00000000
00000000
00000000
00000000
,
00000000
00000000
00000000
00000000
,
00000000
00000000
00000000
00000000
,
00000000
00000000
00000000
00000000
,
10000000
00000000
00010000
00000000
00100000
00000000
00010000
01000000
,
00010000
00100000
00001000
00000010
,
00000001
00000000
00001000
00000000
00000010
00000000
00001000
00000100
,
00001000
00000010
00010000
00100000
,
10000000
00000000
00010000
00000000
00100000
00000000
00001000
00010000
,
00001000
00100000
00001000
00000010
,
00000001
00001001
00000110
00001010
,
00020000
00000000
00000000
00000000
,
00130000
01000000
00100000
00000000
01000000
00000000
00010000
00000000
,
00100000
01000000
00100000
00000000
00010000
00000000
00001000
00000000
,
00000100
00001000
00000100
00001000
00000010
00000000
00001000
00000000
,
00002000
00000000
00003002
00000000
,
00000013
00000100
00000010
00000000
00000100
00000000
00001000
00000000
,
00000010
00000100
00000010
00000000
00001000
00000000
00010000
00000000
,
01000000
00010000
01000000
00010000
00100000
00000000
00010000
00000000
,
02020000
00000000
00000000
03030000
,
11000000
00000000
01010000
00000000
10000000
01000000
00100000
00000000
,
01010000
00000000
11000000
00000000
00010000
01000000
00100000
00000000
,
00110000
00000000
00011000
00000000
00010000
00100000
00010000
00000000
,
00011000
00000000
00001010
00000000
00001000
00000100
00001000
00000000
,
00000001
00000100
00000110
00000010
,
00001000
00010000
01100000
01000000
,
00010000
01000000
00010000
01000000
00010000
00000000
00100000
00000000
,
00002000
00000000
00003010
00000001
,
00000101
00000000
00001100
00000000
00000001
00000100
00000010
00000000
,
00001100
00000000
00000101
00000000
00001000
00000100
00000010
00000000
,
00001010
00000000
00011000
00000000
00001000
00000010
00001000
00000000
,
00011000
00000000
00110000
00000000
00010000
00001000
00010000
00000000
,
01000000
01000000
01200000
00000000
,
00301000
00010000
00010200
00000000
,
00001300
00000100
00001000
00000100
00000010
00000000
00000001
00000000
,
00002000
00000000
00000001
00000100
,
00003002
00000000
00000103
00001000
,
00010000
01000000
10000000
01000000
,
00020000
00000000
00031000
00000010
,
00000001
00000100
00001000
00000100
,
00000001
00000000
00001100
00000000
00000100
00010000
00011000
00000000
,
00100000
00000000
00110000
00000000
01000000
10000000
01000000
00100000
,
00010000
00000000
00010000
00000000
01000000
00100000
01000000
00000000
,
00001000
01000000
00010000
00000000
00010000
00100000
00001000
00000000
,
00010000
00000000
00010000
00000000
00000010
00010000
00000010
00000000
,
00010000
00001000
00100000
00000000
00100000
00001000
00010000
00000000
,
00000100
00000000
00000100
00000000
00000010
00000001
00000010
00000000
,
00000100
00010000
00001000
00000000
00001000
00010000
00000010
00000000
,
00000001
00000000
00000001
00000000
00000010
00001000
00000010
00000000
,
00001000
00000100
00000010
00000001
00000010
00000100
00001000
00000000
,
00000001
00000000
00001000
00000000
00010000
00000000
00000000
00001000
,
00000010
00000000
00010000
00001000
00000000
00100000
00001000
00000000
,
00010000
00001000
00010000
01000000
10000000
00000000
00000000
00010000
,
00100000
00000000
00001000
00010000
00000000
00000010
00010000
00000100
,
00001000
00000000
00000001
00000000
00001000
00000000
00010000
00001000
,
00000000
00000010
00001000
00000000
00000100
00010000
00000000
00001000
,
00010000
00000000
01000000
00000000
10000000
00000000
00010000
00200000
,
00000000
00000000
00000000
00000000
,
00302000
00000000
00000000
00000000
00000000
00000000
00000000
00010000
,
00000000
00000000
00000000
00000000
,
00003200
00000000
00000000
00000000
00000000
00000000
00000000
00000001
,
00000000
00000000
00000000
00000000
00000300
00000001
00001000
00000010
,
00000200
00000000
00000000
00000000
,
00000000
00000000
00000000
00000000
,
00000000
00000000
00000000
00000000
,
00000300
00000000
00000000
00000000
,
00000000
00000000
00000000
00000000
;
#NOTES:
     dance-double:
     :
     Hard:
     13:
     :
00000000
00000000
00000000
00000000
,
00000000
00000000
00000000
00000000
,
00000000
00000000
00000000
00000000
,
00000000
00000000
00000000
00000000
,
00000000
00000000
00000000
00000000
,
10000000
00000000
00100000
00000000
10000000
00000000
00100000
00000000
00010000
00000000
00001000
00000000
00000100
00000000
00000010
00000100
,
00000010
00000100
00001000
00010000
00100000
00010000
00001000
00000100
,
00000001
00000000
00000010
00000000
00000001
00000000
00000010
00000000
00001000
00000000
00010000
00000000
01000000
00000000
00100000
01000000
,
00100000
01000000
00010000
00001000
00010000
00000010
00010000
00001000
,
00010000
00000000
00001000
00000000
00000010
00000000
00000001
00000000
00000100
00000000
00000001
00000000
00000010
00000000
00000001
00000010
,
00000001
00000100
00001000
00010000
00100000
10000000
00100000
10000000
,
00010000
00100000
00010000
00100000
00010000
00000000
10000000
00010000
10000000
00000000
00100000
10000000
00100000
00000000
01000000
00010000
,
02000000
00000000
00000000
00000000
,
03010000
00000000
00100000
00000000
00010000
00000000
00100000
00000000
00001000
00000000
00000010
00001000
00000000
00000000
00010000
00000000
,
00000010
00000000
00001000
00000000
00000010
00000000
00001000
00000000
00010000
00000000
01000000
00010000
00000000
00000000
00001000
00000000
,
00000010
00000000
00000000
00000000
00001000
00000000
00000000
00000000
00000010
00000000
00000000
00000000
00000100
00000000
00000000
00000000
00000001
00000000
00000000
00000000
00000100
00000000
00000000
00000000
00000001
00000000
00000000
00000000
00000000
00000000
00001000
00000000
00000000
00000100
00000000
00000000
00000000
00000000
00000000
00000000
00000000
00000000
00000100
00000000
00000000
00000000
00000000
00000000
,
00020000
00000000
00000000
00000000
00000000
00000000
00000000
00000000
00000000
00000000
00000000
00000000
00000000
00000000
00000000
00000000
00000000
00000000
00000000
00000000
00000000
00000000
00000000
00000000
00000000
00000000
00000000
00000000
00000000
00000000
00000000
00000000
00000000
00000000
00000000
00000000
00000000
00000000
00000000
00000000
00000000
00000000
00000000
00000000
00000000
00000000
00000000
00000000
00000000
00000000
00000000
00000000
00000000
00000000
00000000
00000000
00000000
00000000
00000000
00000000
00000000
00000000
00000000
00000000
00000000
00000000
00000000
00000000
00000000
00000000
00000000
00000000
00000000
00000000
00000000
00000000
00000000
00000000
00000000
00000000
00000000
00000000
00000000
00000000
00000000
00000000
00000000
00000000
00000000
00000000
00000000
00000000
00000000
00000000
00000000
00000000
00030200
00000000
00000000
00000000
00000000
00000000
00000000
00000000
00000000
00000000
00000000
00000000
00000000
00000000
00000000
00000000
00000000
00000000
00000000
00000000
00000000
00000000
00000000
00000000
00000000
00000000
00000000
00000000
00000000
00000000
00000000
00000000
00000000
00000000
00000000
00000000
00000000
00000000
00000000
00000000
00000000
00000000
00000000
00000000
00000000
00000000
00000000
00000000
00000000
00000000
00000000
00000000
00000000
00000000
00000000
00000000
00000000
00000000
00000000
00000000
00000000
00000000
00000000
00000000
00000000
00000000
00000000
00000000
00000000
00000000
00000000
00000000
00000000
00000000
00000000
00000000
00000000
00000000
00000000
00000000
00000000
00000000
00000000
00000000
00000000
00000000
00000000
00000000
00000000
00000000
00000000
00000000
00000000
00000000
00000000
00000300
,
00001000
00000000
00000010
00000000
00001000
00000000
00000010
00000000
00010000
00000000
00100000
00010000
00000000
00000000
00001000
00000000
,
00100000
00000000
00010000
00000000
00100000
00000000
00010000
00000000
00001000
00000000
00000100
00001000
00000000
00000000
00010000
00000000
,
00100000
00000000
10000000
00000000
00100000
00000000
00010000
00000000
10000000
00000000
00100000
01000000
00000000
00000000
00010000
00000000
,
02020000
00000000
00000000
00000000
00000000
00000000
00000000
00000000
03030000
00000000
00000000
00000000
00010000
00100000
00010000
00100000
,
01000000
00000000
00000000
10000000
00000000
00000000
00100000
00000000
00000000
00010000
00000000
00000000
00000010
00000000
00000100
00000010
,
00000100
00000000
00000000
00000001
00000000
00000000
00000100
00000000
00000000
00001000
00000000
00000000
01000000
00000000
00100000
01000000
,
00100000
00000000
00000000
10000000
00000000
00000000
01000000
00000000
00000000
00010000
00000000
00000000
00000100
00000000
00000010
00000100
,
00000010
00000000
00000000
00000001
00000000
00000000
00000010
00000000
00000000
00001000
00000000
00000000
00100000
00000000
01000000
00000000
,
10000000
00000000
01000000
00000000
10000000
00000000
01000000
00000000
00100000
00000000
01000000
00100000
00000000
00010000
00000000
00100000
,
00001000
00000000
00010000
00000000
00001000
00000000
00010000
00000000
00001000
00000000
00000100
00000010
00000000
00001000
00000000
00000100
,
00001000
00000000
00000100
00000000
00001000
00000000
00000010
00000000
00001000
00000000
00000001
00000010
00000000
00000010
00000000
00001000
,
00020000
00000000
00000000
00000000
00031000
00010000
00001000
00010000
00002000
00000000
00000000
00000000
00013000
00000010
00001000
00000010
,
00000100
00000000
00000000
00000001
00000000
00000000
00000010
00000000
00000000
00001000
00000000
00000000
00100000
00000000
01000000
00100000
,
01000000
00000000
00000000
10000000
00000000
00000000
01000000
00000000
00000000
00010000
00000000
00000000
00000100
00000000
00000010
00000100
,
00000010
00000000
00000000
00000001
00000000
00000000
00000100
00000000
00000000
00001000
00000000
00000000
01000000
00000000
00100000
01000000
,
00100000
00000000
00000000
10000000
00000000
00000000
00100000
00000000
00000000
00010000
00000000
00000000
00000010
00000000
00000100
00000000
,
00000001
00000000
00000100
00000000
00000001
00000000
00000100
00000000
00000010
00000000
00000100
00000010
00000000
00001000
00000000
00000010
,
00010000
00000000
00001000
00000000
00010000
00000000
00001000
00000000
00010000
00000000
01000000
00100000
00000000
00010000
00000000
01000000
,
00010000
01000000
00010000
01000000
00010000
01000000
00010000
01000000
00010000
00000000
10000000
00100000
00000000
00100000
00000000
00010000
,
00001000
00000000
00000000
00000000
00000000
00000000
00000000
00000000
00000000
00000000
00000000
00000000
00000000
00000000
00000000
00000000
00000000
00000000
00000000
00000000
00000000
00000000
00000000
00000000
00010000
00000000
00000000
00000000
00000000
00000000
00000000
00000000
00000000
00000000
00000000
00000000
00000000
00000000
00000000
00000000
00000000
00000000
00000000
00000000
00000000
00000000
00000000
00000000
00001000
00000000
00000000
00000000
00000000
00000000
00000000
00000000
00000000
00000000
00000000
00000000
00010000
00000000
00000000
00000000
00000000
00000000
00000000
00000000
00000000
00000000
00000000
00000000
00001000
00000000
00000000
00000000
00000000
00000000
00000000
00000000
00000000
00000000
00000000
00000000
00010000
00000000
00000000
00000000
00000000
00000000
00000000
00000000
00000000
00000000
00000000
00000000
00001000
00000000
00000000
00000000
00000000
00000000
00000000
00000000
00000000
00000000
00000000
00000000
00000000
00000000
00000000
00000000
00000000
00000000
00000000
00000000
00000000
00000000
00000000
00000000
00020000
00000000
00000000
00000000
00000000
00000000
00000000
00000000
00000000
00000000
00000000
00000000
00000000
00000000
00000000
00000000
00000000
00000000
00000000
00000000
00000000
00000000
00000000
00000000
00000000
00000000
00000000
00000000
00000000
00000000
00000000
00000000
00000000
00000000
00000000
00000000
00000000
00000000
00000000
00000000
00000000
00000000
00000000
00000000
00000000
00000000
00000000
00000000
00000000
00000000
00000000
00000000
00000000
00000000
00000000
00000000
00000000
00000000
00000000
00000000
00000000
00000000
00000000
00000000
00000000
00000000
00000000
00000000
00000000
00000000
00000000
00030000
,
00000100
00000010
00000001
00000000
00000100
00001000
00010000
00000000
,
00000100
00000010
00000001
00000000
00000100
00001000
00010000
00000000
,
00000010
00010000
00001000
00000000
00000100
00000010
00010000
00000000
,
00001000
00000100
00000010
00000000
00010000
00001000
00000100
00001000
,
00020000
00000000
00031000
00000000
00000110
00000000
00000010
00001000
00010000
00001000
00010000
00000000
00011000
00000000
00010000
01000000
,
20000000
00000000
00000000
00000000
30010000
00000000
00000000
00000000
01010000
00000000
00000000
00000000
00010000
00000000
00100000
00000000
01000000
00000000
00100000
00000000
00000000
00001000
00000000
00000000
00020000
00000000
00000000
00000000
00031000
00000000
00000000
00000000
,
00000020
00000000
00000031
00001000
00000100
00001000
00000100
00001000
,
00000001
00000010
00000001
00000000
00001000
00000010
00001000
00000000
00000001
00000100
00000001
00000000
00001000
00000001
00001000
00000000
,
00000200
00000000
00000310
00000100
00000010
00000001
00000010
00000100
,
00001000
00000010
00001000
00000000
00000010
00010000
00000010
00000000
00010000
00001000
00010000
00000000
00001000
00100000
00001000
00000000
,
00020000
00000000
00130000
01000000
10000000
01000000
00100000
00010000
,
00001000
00010000
00001000
00000000
00100000
01000000
00100000
00000000
00010000
10000000
00010000
00000000
01000000
00100000
01000000
00000000
,
20000000
00000000
31000000
00010000
00001000
00010000
01000000
00010000
,
00100000
00010000
00100000
00000000
00001000
00100000
00001000
00000000
00010000
00001000
00010000
00000000
00000100
00000010
00000100
00000010
,
00000001
00000000
00001000
00000000
00000001
00000000
00000000
00000000
00000100
00000000
00000010
00001000
00000010
00000000
00001000
00000100
,
00000000
00010000
00000100
00010000
00000100
00000000
00010000
00000000
00001000
00000000
00000000
00100000
00000000
00000000
00010000
00000000
,
01000000
00010000
01000000
00010000
01000000
00000000
00010000
00000000
10000000
00000000
00000000
01000000
00000000
00000000
00010000
00000000
,
00001000
00000000
00000000
00000000
00000000
00000000
00000000
00000000
00000000
00010000
00000000
00000000
00000000
00000000
00000000
00000000
00000000
00000000
01000000
00000000
00000000
00000000
00000000
00000000
00000000
00000000
00000000
00010000
00000000
00000000
00000000
00000000
00000000
00000000
00000000
00000000
00001000
00000000
00000000
00000000
00010000
00000000
00000000
00000000
00001000
00000000
00000000
00000000
,
00010000
00000000
00000100
00000000
00000010
00000000
00001000
00000000
00000010
00000000
00000001
00000000
00000010
00000000
00000001
00000010
,
00000001
00000000
00000100
00000010
00000100
00000000
00000010
00000000
00000100
00000000
00000000
00001000
00000000
00000000
00010000
00000000
,
00100000
00000000
10000000
00000000
00010000
00000000
00100000
00000000
00010000
00000000
01000000
00000000
00100000
10000000
00100000
20000000
,
00000000
00000000
00000000
00000000
00000000
00000000
00000000
00000000
00000000
00000000
00000000
00000000
31000000
10000000
01000000
10000000
,
02000000
00000000
00000000
00000000
00100000
00000000
00000000
10000000
,
00000000
00000000
00000000
00000000
00000000
00000000
00000000
00000000
00000000
00000000
00000000
00000000
00000000
00000000
13000000
00010000
,
00200000
00000000
00000000
00000000
00010000
00000000
00000000
01000000
,
00000000
00000000
00000000
00000000
00000000
01300000
00010000
00001000
,
00000020
00000000
00000000
00000000
,
00000000
00000000
00000000
00000000
,
00000000
00000000
00000000
00000000
,
00000030
00000000
00000000
00000000
,
00000000
00000000
00000000
00000000
;
