
//----- song ID: speo -----//
#TITLE:Special One;
#ARTIST:kors k feat. Suzuyo Miyamoto;
#BANNER:Special One.png;
#BACKGROUND:Special One-bg.png;
#CDTITLE:./CDTitles/jubeat.png;
#MUSIC:Special One.ogg;
#SAMPLESTART:63.275;
#SAMPLELENGTH:15;
#BPMS:0=128;
#NOTES:
     dance-single:
     :
     Beginner:
     2:
     :
0000
0000
0000
0000
,
0000
0000
0000
0000
,
0000
0000
0000
0000
,
0000
0000
0000
0000
,
0000
0000
0000
0000
,
0000
1000
0000
0001
,
0000
1000
0000
1000
,
0000
0001
0000
1000
,
0000
0001
0000
0000
,
0010
0000
0010
0000
,
0001
0000
0000
0000
,
0010
0000
0010
0000
,
1000
0000
0000
0000
,
0010
0000
0010
0000
,
0001
0000
0000
0000
,
0010
0000
0010
0000
,
1000
0000
0000
0000
,
1000
0000
0001
0000
,
1000
1000
1000
0000
,
0010
0000
0000
0000
,
0100
0000
0000
0000
,
0001
0000
1000
0000
,
0001
0001
0001
0000
,
0010
0000
0000
0000
,
0100
0000
0000
0000
,
1000
1000
1000
1000
,
0000
0000
0000
0000
,
0001
0001
0001
0001
,
0000
0000
0000
0000
,
0100
0100
0100
0100
,
0000
0000
0000
0000
,
0010
0000
0000
0000
,
0010
0010
0010
0000
,
0000
0000
0000
0000
,
1000
0000
0001
0000
,
0001
0000
1000
0000
,
0010
0000
0000
0000
,
0100
0000
0000
0000
,
0001
0000
1000
0000
,
1000
0000
0001
0000
,
0010
0000
0000
0000
,
0100
0000
0000
0000
,
0001
0000
0001
0000
,
0010
0000
0000
0000
,
1000
0000
1000
0000
,
0100
0100
0100
0000
,
1000
0000
1000
0000
,
0010
0000
0000
0000
,
0001
0000
0001
0000
,
0100
0000
0010
0000
,
0220
0000
0000
0330
,
0000
0000
0000
0000
;
#NOTES:
     dance-single:
     :
     Easy:
     5:
     :
0000
0000
0000
0000
,
0000
0000
0000
0000
,
0000
0000
0000
0000
,
0000
0000
0000
0000
,
0000
0000
0000
0000
,
0010
1000
1000
0000
,
0010
0001
0001
0000
,
0010
1000
1000
0000
,
0020
0000
0000
0030
,
1000
0000
0001
0000
,
0010
0001
0100
0000
,
0001
0000
0001
0000
,
1000
0100
0010
0001
,
0001
0000
1000
0000
,
0010
1000
0100
0000
,
1000
0000
1000
0000
,
0010
0000
0010
0000
,
1000
0100
1000
0100
,
0001
0000
0100
0000
,
1000
0000
0001
0000
,
1000
0000
0001
0001
,
0001
0100
0001
0100
,
1000
0000
0100
0000
,
0001
0000
1000
0000
,
0001
0000
1000
1000
,
0001
0001
0001
0001
,
1000
0100
1000
0000
,
1000
1000
1000
1000
,
0001
1000
0100
0000
,
0010
0010
0010
0010
,
0001
0000
1000
0000
,
1000
0001
1000
0000
,
0110
0000
0110
0000
,
0000
0000
0000
0000
,
1000
0100
0001
0000
,
0001
0100
1000
0000
,
0001
0010
1000
0010
,
0001
0010
0001
0000
,
0001
0100
1000
0000
,
1000
0100
0001
0000
,
1000
0000
0001
0000
,
1000
0001
1000
0100
,
0020
0100
0100
0130
,
0200
1000
1000
1300
,
0001
0000
0001
0000
,
0010
0001
0100
1000
,
0200
0010
0010
0310
,
0002
1000
1000
1003
,
2000
3000
0002
0003
,
0010
0001
0100
1000
,
2002
0000
0000
3003
,
0000
0000
0000
0000
;
#NOTES:
     dance-single:
     :
     Medium:
     8:
     :
0000
0000
0000
0000
,
0000
0000
0000
0000
,
0000
0000
0000
0000
,
0000
0000
0000
0000
,
0000
0000
0000
0000
,
0000
0000
0000
0000
,
0000
0000
0000
0000
,
0000
0000
0000
0000
,
0000
0000
0000
0000
,
0010
1000
1000
0101
,
0010
0000
0001
0000
0001
0010
0001
0000
,
0010
0001
1000
0000
1000
0001
1000
0000
,
1001
0110
1100
0011
,
0010
0001
0001
1100
,
0010
0000
1000
0000
1000
0010
1000
0000
,
0001
0000
0010
0001
0000
0000
0001
0000
,
0110
1001
0110
1001
,
0001
0000
0001
0000
1000
0100
1000
0000
,
0010
1000
0100
0100
,
1000
0100
0020
0130
,
1000
0100
1100
0011
,
1000
0000
1000
0000
0001
0100
0001
0000
,
0010
0002
0103
0000
,
0001
0100
0020
0130
,
0001
0100
0101
1010
,
0010
1000
0010
0001
,
0010
0000
1000
0000
0001
0010
0001
0000
,
0010
1000
0010
0001
,
0010
0000
1000
0000
0010
0001
0100
0000
,
0001
0100
1000
0100
,
0101
0000
0000
0000
,
1000
0000
0100
0000
1000
0100
1000
0000
,
0001
0000
0000
1000
0000
0000
0001
0000
1000
0000
0000
0000
0000
0000
0000
0000
,
0010
0100
0010
0000
0100
0010
0100
0000
,
0001
1001
1000
0100
,
1000
1100
1000
0100
,
0010
0001
0010
0000
0001
0000
0100
0000
,
0001
1000
0001
0001
,
1000
1001
0001
0100
,
0001
0101
0001
0100
,
0010
1000
0010
0000
1000
0000
0100
0000
,
1000
0001
1000
1000
,
0001
0000
0100
0000
1000
0100
1000
0000
,
1000
0000
0100
0000
0001
0010
0001
0000
,
1000
1000
0001
0001
,
1000
0001
1000
0100
,
0020
0001
0100
0031
,
0200
1000
0010
1300
,
0010
0000
0100
0010
0100
0000
0000
0000
,
0101
0011
1010
1100
,
2002
0000
0000
3003
,
0000
0000
0000
0000
;
#NOTES:
     dance-single:
     :
     Hard:
     11:
     :
0000
0000
0000
0000
,
0000
0000
0000
0000
,
0000
0000
0000
0000
,
0000
0000
0000
0000
,
0000
0000
0000
0000
,
0000
0000
0000
0000
,
0000
0000
0000
0000
,
0000
0000
0000
0000
,
0000
0000
0000
0000
,
0010
0001
1000
0100
1000
0100
0001
0000
,
0100
0010
0001
0100
0001
0010
0001
0010
,
0010
0001
0010
0000
0100
1000
0100
0000
,
1000
0001
0000
0000
0100
0010
0000
0000
0101
0000
0000
0000
1001
0000
0000
0000
,
0010
1000
0001
0100
0001
0100
1000
0000
,
0100
0010
1000
0100
1000
0010
1000
0000
,
0010
0000
0100
0010
0001
0010
1000
0000
,
1000
0100
0000
0000
0010
1000
0000
0000
0010
0100
0000
0000
0001
1000
0000
0000
,
0001
0010
0001
0100
1000
0100
1000
0000
,
0100
0010
0001
0010
0100
0000
0001
0000
,
1000
0001
0100
0000
0020
0100
0130
0000
,
0001
1000
0100
1000
1010
0000
0101
0000
,
1000
0010
1000
0100
0001
0100
0001
0000
,
0100
0010
1000
0010
0100
0000
0010
0100
,
0010
0001
0010
0100
0010
1000
0010
0000
,
0001
1000
0100
1000
1100
0000
0101
0000
,
1010
0000
0000
0000
0101
0000
0000
0000
0010
0000
0000
0001
0000
0000
1000
0000
,
0100
1000
0001
0100
0001
0010
0001
0000
,
0011
0000
0000
0000
1100
0000
0000
0000
0010
0000
0000
0001
0000
0000
0100
0000
,
0010
0010
0010
0000
0010
1000
0100
0000
,
1100
0000
0000
0000
0011
0000
0000
0000
1000
0000
0000
0100
0000
0000
1100
0000
,
0000
1000
1000
0000
0001
0010
0001
0010
,
1000
0010
0100
1000
0010
0100
1000
0000
,
1100
0000
0000
0110
0000
0000
0011
0000
1000
0000
0000
0000
0000
0000
0000
0000
,
0001
0010
0000
0001
0000
1000
0000
0001
0100
0000
0010
0000
1000
0000
0100
0000
,
1000
0100
1000
0010
1000
0001
0100
0000
,
0001
0010
1000
0010
0001
0100
1000
0000
,
0100
0001
0100
0000
0001
1000
0100
0000
,
1000
0010
1000
0100
0001
0000
0100
0010
,
0001
0100
0001
0010
0001
0000
0110
0000
,
0100
0010
0001
0010
1000
0000
0110
0000
,
0010
0001
0100
0000
0001
1000
0100
0010
,
0100
1000
0001
0100
0001
0000
0110
0000
,
0001
0000
0000
0000
0100
0000
0000
0000
1000
0000
0000
0100
0000
0000
0010
0000
,
0000
0100
0001
1000
0001
0010
0001
0010
,
0000
0001
1000
0000
0001
0010
0001
0000
,
1000
0100
0000
0000
0001
0010
0000
0000
0110
0000
0000
0000
1001
0000
0000
0000
,
1000
0000
0000
0000
0100
0000
0000
0000
0001
0000
0000
0100
0000
0000
0010
0000
,
0000
0100
1000
0001
1000
0010
1000
0100
,
1000
0000
0100
0001
0000
0000
0110
0000
,
1000
0100
0000
0000
0010
1000
0000
0000
0010
0100
0000
0000
0001
1000
0000
0000
,
2002
0000
0000
3003
,
0000
0000
0000
0000
;
#NOTES:
     dance-double:
     :
     Easy:
     5:
     :
00000000
00000000
00000000
00000000
,
00000000
00000000
00000000
00000000
,
00000000
00000000
00000000
00000000
,
00000000
00000000
00000000
00000000
,
00000000
00000000
00000000
00000000
,
00100000
10000000
10000000
00000000
,
01000000
00010000
00001000
00000000
,
00000010
00000110
00000100
00000000
,
00000200
00000000
00000000
00000300
,
00001000
00000000
00010000
00000000
,
00100000
10000000
01000000
00000000
,
10000000
00000000
10000000
00000000
,
01000000
01000000
00010000
00010000
,
00001000
00000000
00001000
00000000
,
00000010
00000001
00000100
00000000
,
00000001
00000000
00000001
00000000
,
00000100
00001000
00010000
00100000
,
10000000
00000000
10000000
00000000
,
01000000
00000000
00010000
00000000
,
00001000
00001000
00000100
00000000
,
00000001
00000000
00000010
00000010
,
00000001
00000000
00000001
00000000
,
00000100
00000000
00001000
00000000
,
00010000
00010000
00100000
00000000
,
10000000
00000000
01000000
01000000
,
00010000
00001000
00000100
00000100
,
00000001
00000000
00000000
00000000
,
00000001
00000100
00001000
00001000
,
00010000
00000000
00000000
00000000
,
00001000
00010000
01000000
01000000
,
10000000
00000000
00000000
00000000
,
10000000
01000000
00010000
00000000
,
00011000
00000000
00001100
00000000
,
00000110
00000000
00000000
00000000
,
00000001
00000100
00001000
00000000
,
00010000
01000000
10000000
00000000
,
00010000
00100000
10000000
00100000
,
00010000
00100000
00010000
00000000
,
10000000
01000000
00010000
00000000
,
00001000
00000100
00000001
00000000
,
00001000
00000010
00000001
00000010
,
00000100
00000000
00001000
00000000
,
00020000
00001000
00001000
00001000
,
02030000
10000000
10000000
13000000
,
01000000
00000000
00010000
00000000
,
00001000
00000010
00000001
00000001
,
00000200
00000010
00000010
00000010
,
00002300
00010000
00010000
00013000
,
00020000
00030000
02000000
03000000
,
10000000
01000000
00010000
00001000
,
00000220
00000000
00000000
00000330
,
00000000
00000000
00000000
00000000
;
#NOTES:
     dance-double:
     :
     Medium:
     8:
     :
00000000
00000000
00000000
00000000
,
00000000
00000000
00000000
00000000
,
00000000
00000000
00000000
00000000
,
00000000
00000000
00000000
00000000
,
00000000
00000000
00000000
00000000
,
00000000
00000000
00000000
00000000
,
00000000
00000000
00000000
00000000
,
00000000
00000000
00000000
00000000
,
00000000
00000000
00000000
00000000
,
00100000
10000000
10000000
01000000
,
00010000
00000000
00001000
00000000
00000010
00000100
00000001
00000000
,
00000100
00000001
00000100
00000000
00000100
00001000
00000100
00000000
,
00010000
00100000
00010000
00001000
,
00000010
00000001
00000001
00000100
,
00001000
00000000
00010000
00000000
00100000
01000000
10000000
00000000
,
01000000
00000000
10000000
01000000
00000000
00000000
00100000
00000000
,
00010000
00001000
00000010
00000011
,
00000001
00000000
00000001
00000000
00001000
00000100
00001000
00000000
,
00000010
00000100
00001000
00001000
,
00010000
00010000
00200000
01300000
,
10000000
01000000
11000000
01100000
,
10000000
00000000
10000000
00000000
00010000
01000000
00010000
00000000
,
00100000
01000000
00010000
00010000
,
00001000
00001000
00000020
00000130
,
00000001
00000100
00000110
00001100
,
00000100
00010000
00001000
00010000
,
00100000
00000000
10000000
00000000
00010000
00100000
00010000
00000000
,
00100000
10000000
00100000
00010000
,
00000100
00000000
00000000
00000000
00000010
00001000
00000100
00000000
,
00000010
00000001
00000100
00001000
,
00011000
00000000
01000000
01000000
,
10000000
00000000
01000000
00000000
10000000
01000000
10000000
00000000
,
00010000
00000000
00000000
10000000
00000000
00000000
00010000
00000000
10000000
00000000
00000000
00000000
00000000
00000000
00000000
00000000
,
10000000
01000000
00010000
00000000
00001000
00000000
00000010
00000000
,
00000001
00001001
00001000
00000100
,
00001000
00010100
00001000
00000100
,
00010000
00001000
00010000
00000000
00010000
00000000
01000000
00000000
,
10000000
01000000
00010000
01000000
,
10000000
10010000
00010000
01000000
,
00010000
01001000
00010000
01000000
,
00001000
00010000
00001000
00000000
00001000
00000000
00000100
00000000
,
00000001
00000100
00001000
00010000
,
00010000
00000000
01000000
00000000
10000000
01000000
10000000
00000000
,
10000000
00000000
01000000
00000000
00010000
00001000
00000010
00000000
,
00000001
00000001
00001000
00001000
,
00010000
00010000
10000000
10000000
,
00200000
00010000
01000000
00310000
,
02000000
10000000
00100000
03001000
,
00010000
00001000
00000010
00000010
,
00000011
00000110
00001100
00011000
,
02200000
00000000
00000000
03300000
,
00000000
00000000
00000000
00000000
;
#NOTES:
     dance-double:
     :
     Hard:
     11:
     :
00000000
00000000
00000000
00000000
,
00000000
00000000
00000000
00000000
,
00000000
00000000
00000000
00000000
,
00000000
00000000
00000000
00000000
,
00000000
00000000
00000000
00000000
,
00000000
00000000
00000000
00000000
,
00000000
00000000
00000000
00000000
,
00000000
00000000
00000000
00000000
,
00000000
00000000
00000000
00000000
,
00100000
00010000
10000000
01000000
10000000
01000000
00010000
00000000
,
01000000
00100000
00010000
01000000
00010000
00100000
00010000
00100000
,
00001000
00010000
00001000
00000000
00000100
00001000
00000100
00000000
,
00000010
00001000
00000000
00000000
00000100
00000010
00000000
00000000
00001100
00000000
00000000
00000000
00011000
00000000
00000000
00000000
,
00010000
00100000
00010000
00001000
00000100
00000010
00001000
00000000
,
00000100
00000010
00000001
00000100
00000001
00000010
00001000
00010000
,
00002000
00000000
00013000
00002000
00000000
00000000
00003000
00000000
,
00100000
00010000
00000000
00000000
01000000
00100000
00000000
00000000
11000000
00000000
00000000
00000000
10010000
00000000
00000000
00000000
,
00010000
00100000
00010000
01000000
10000000
01000000
10000000
00000000
,
01000000
00100000
00010000
00001000
00000100
00000000
00000010
00000000
,
00000001
00000010
00001000
00000000
00000020
00000100
00000130
00000000
,
00000001
00000010
00000100
00001000
00001200
00000000
00000301
00000000
,
00000001
00000100
00001000
00000100
00000001
00000100
00000001
00000000
,
00000100
00000010
00001000
00010000
01000000
00000000
00100000
00000000
,
10000000
00100000
00010000
00000000
00200000
01000000
01300000
00000000
,
10000000
00100000
01000000
00010000
00110000
00000000
00011000
00000000
,
00001010
00000000
00000000
00000000
00000011
00000000
00000000
00000000
00000010
00000000
00000000
00000001
00000000
00000000
00001000
00000000
,
00000100
00001000
00000001
00000100
00000001
00000010
00001000
00000000
,
00010000
00000000
00000000
00000000
10100000
00000000
00000000
00000000
00100000
00000000
00000000
10000000
00000000
00000000
01000000
00000000
,
00100000
00100000
00100000
00000000
00001000
00010000
00000100
00000000
,
00001100
00000000
00000000
00000000
00000011
00000000
00000000
00000000
00001000
00000000
00000000
00000100
00000000
00000000
00001100
00000000
,
00000000
00010000
00001000
00000000
00010000
00100000
01000000
00100000
,
10000000
00100000
01000000
00010000
00100000
00001000
00010000
00000000
,
00001000
00000000
00000000
00000100
00000000
00000000
00000001
00000000
00000100
00000000
00000000
00000000
00000000
00000000
00000000
00000000
,
00000001
00000010
00000000
00000001
00000000
00001000
00000000
00000001
00000100
00000000
00000010
00000000
00001000
00000000
00000100
00000000
,
00000001
00000100
00000010
00001000
00010000
00100000
01000000
00000000
,
00010000
00100000
10000000
00100000
00010000
01000000
10000000
00000000
,
01000000
00010000
01000000
00000000
00100000
00010000
00001000
00000000
,
00001000
00000010
00000001
00000100
00000001
00000000
00000100
00000010
,
00000001
00000010
00000100
00001000
00010000
00000000
01100000
00000000
,
01000000
00100000
00010000
00100000
10000000
00000000
01100000
00000000
,
00100000
10000000
01000000
00000000
10000000
01000000
00010000
00001000
,
00000010
00000100
00000001
00000100
00000001
00000000
00000110
00000000
,
00000001
00000000
00000000
00000000
00000100
00000000
00000000
00000000
00001000
00000000
00000000
00000100
00000000
00000000
00000010
00000000
,
00000000
00000100
00001000
00010000
00100000
01000000
10000000
01000000
,
00000000
00100000
01000000
00000000
00001000
00010000
00001000
00000000
,
00001000
00010000
00000000
00000000
00010000
00100000
00000000
00000000
10100000
00000000
00000000
00000000
10010000
00000000
00000000
00000000
,
10000000
00000000
00000000
00000000
01000000
00000000
00000000
00000000
00010000
00000000
00000000
01000000
00000000
00000000
00100000
00000000
,
00000000
01000000
00010000
00001000
00000010
00000100
00000001
00000100
,
00000001
00000000
00000100
00002000
00000000
00000000
00003000
00000000
,
00001000
00000100
00000000
00000000
00000100
00000010
00000000
00000000
00001010
00000000
00000000
00000000
00011000
00000000
00000000
00000000
,
02200000
00000000
00000000
03300000
,
00000000
00000000
00000000
00000000
;
