
//----- song ID: smpa -----//
#TITLE:Smiling Passion;
#ARTIST:ときめきアイドル project;
#ARTISTTRANSLIT:Tokimeki Idol project;
#BANNER:Smiling Passion.png;
#BACKGROUND:Smiling Passion-bg.png;
#CDTITLE:./CDTitles/DDR A.png;
#MUSIC:Smiling Passion.ogg;
#SAMPLESTART:62.411;
#SAMPLELENGTH:15;
#BPMS:0=187;
#NOTES:
     dance-single:
     :
     Beginner:
     2:
     :
0000
0000
0000
0000
,
0000
0000
0000
0000
,
0000
0000
0000
0000
,
0000
0000
0000
0000
,
0000
0000
0000
0000
,
0000
0000
0000
0000
,
0000
0000
0000
0000
,
1000
0000
0000
0000
,
0001
0000
0000
0000
,
1000
0000
0000
0000
,
0010
0000
0000
0000
,
1000
0000
0000
0000
,
1000
0000
0000
0000
,
0001
0000
0000
0000
,
0001
0000
0000
0000
,
1000
0000
0000
0000
,
0001
0000
0000
0000
,
1000
0000
0000
0000
,
0001
0000
0000
0000
,
0100
0000
0000
0000
,
0000
0000
0000
0000
,
0100
0000
0000
0000
,
0000
0000
0000
0000
,
0010
0000
0000
0000
,
0010
0000
0000
0000
,
0000
0000
0000
0000
,
0100
0000
0000
0000
,
0001
0000
0000
0000
,
0001
0000
0000
0000
,
1000
0000
0000
0000
,
1000
0000
0000
0000
,
0001
0000
0000
0000
,
0001
0000
0000
0000
,
1000
0000
0000
0000
,
1000
0000
0000
0000
,
0010
0000
0000
0000
,
0010
0000
0000
0000
,
0010
0000
0000
0000
,
0010
0000
0000
0000
,
0100
0000
0000
0000
,
0100
0000
0000
0000
,
0100
0000
0000
0000
,
0100
0000
0000
0000
,
0001
0000
0000
0000
,
1000
0000
0000
0000
,
0001
0000
0000
0000
,
1000
0000
0000
0000
,
0010
0000
0000
0000
,
0100
0000
0000
0000
,
0001
0000
0000
0000
,
1000
0000
0000
0000
,
0010
0000
0000
0000
,
0100
0000
0000
0000
,
0001
0000
0000
0000
,
1000
0000
0000
0000
,
0010
0000
0000
0000
,
0100
0000
0000
0000
,
0001
0000
0000
0000
,
1000
0000
0000
0000
,
0010
0000
0000
0000
,
0100
0000
0000
0000
,
0001
0000
0001
0000
,
1000
0000
0000
0000
,
0010
0000
0010
0000
,
0100
0000
0000
0000
,
1000
0000
0000
0000
,
0001
0000
0001
0000
,
1000
0000
0000
0000
,
0001
0000
0000
0000
,
1000
0000
0000
0000
,
0001
0000
0000
0000
,
0100
0000
0000
0000
,
0010
0000
0000
0000
,
0100
0000
0100
0000
,
0010
0000
0010
0000
,
0001
0000
0000
0000
,
1000
0000
0010
0000
,
0000
0000
0000
0000
;
#NOTES:
     dance-single:
     :
     Easy:
     7:
     :
0000
0000
0000
0000
,
0000
0000
0000
0000
,
0000
0000
0000
0000
,
0000
0000
0000
0000
,
0000
0000
0000
0000
,
0000
0000
0000
0000
,
0000
0000
0000
0000
,
1000
1000
0001
0000
,
0001
0001
1000
0000
,
1000
1000
0001
0000
,
0100
0000
0010
0000
,
1000
0000
1000
0000
,
0001
0000
0001
0000
,
0100
0000
0100
0100
,
0100
0000
0010
1000
,
0001
0000
0100
0010
,
1000
0001
0100
0000
,
0010
0010
0010
0010
,
1000
0000
1000
0000
,
0001
0001
0000
0000
0000
0000
0000
0000
,
0100
0000
0000
0000
,
1000
1000
0000
0000
0000
0000
0000
0000
,
0010
0000
0000
0000
,
1000
1000
0000
0000
0000
0000
0000
0000
,
0001
0001
0000
0000
0000
0000
0000
0000
,
0100
1001
0100
1001
,
0010
0100
0010
0000
,
1000
0100
0010
0100
,
0001
0010
0100
0010
,
1000
0100
0001
0100
,
1000
0100
0001
0100
,
1000
0000
1000
0000
,
0010
0000
0010
0100
,
0001
0000
0010
0000
,
0100
1000
0001
0110
,
1000
1000
1000
1000
,
0001
0001
0001
0001
,
0100
0100
0100
0100
,
0010
0000
0010
0100
,
0001
0001
0000
0000
1000
1000
0000
0000
,
0010
0100
0010
0000
,
1000
0100
0010
0001
,
0100
0010
1000
0001
,
0100
0010
1000
1001
,
0010
0100
0001
1001
,
0200
0000
0000
0310
0000
0010
0000
1000
,
0000
1000
0000
0001
0000
0000
0100
0000
,
0010
0100
0010
0100
,
0001
0000
1000
0000
,
1000
0001
0100
0010
,
1000
0100
0010
0010
,
0100
1000
0001
0001
,
0200
0000
0010
0300
,
0010
1000
0001
0100
,
0010
1000
0100
0000
,
0001
0000
0100
0000
0010
0000
1000
0100
,
0000
0100
0000
0010
0000
0000
0000
0000
,
0001
1000
0100
0010
,
0001
0100
0010
0010
,
0100
0001
1000
1000
,
0200
0000
0010
0300
,
0010
0001
1000
0100
,
0010
0001
0100
0010
,
1000
0000
0100
0000
0010
0000
0001
0100
,
0000
0100
0000
0000
0001
0000
1000
0000
,
0010
0000
0000
0000
1000
0000
0001
0100
,
0000
0100
0000
0010
0000
0100
0100
0000
,
0001
0100
0001
0000
,
1000
0100
1000
0000
,
0001
1000
0001
0000
,
0010
0010
0010
0000
,
0100
0000
0000
0000
0001
0000
0000
1000
,
0000
1000
0000
1000
0000
0000
0000
0000
,
0010
1000
0100
0010
,
0110
0000
1001
0000
,
0010
0000
0000
0010
0000
0010
0000
0200
,
0000
0000
0310
0000
,
0000
0000
0000
0000
;
#NOTES:
     dance-single:
     :
     Medium:
     10:
     :
0000
0000
0000
0000
,
0000
0000
0000
0000
,
0000
0000
0000
0000
,
0000
0000
0000
0000
,
0000
0000
0000
0000
,
0000
0000
0000
0000
,
0000
0000
0000
0000
,
0100
0001
0100
0010
,
1000
0000
0001
0000
0100
0010
0100
0000
,
0001
0000
1000
0000
0010
0000
0100
0010
,
0000
1000
1000
0000
0001
0001
0000
0000
,
0100
0000
0001
0010
0001
0000
1000
0000
,
0010
0000
0100
0001
0100
0000
0010
1000
,
0020
1000
0130
0001
,
1000
0000
0110
0000
0001
0010
0001
0000
,
0110
0000
0000
0000
1000
0001
0100
0010
,
0000
0100
0000
0010
0000
0000
1000
0000
,
0011
0011
1100
1100
,
1001
0010
0110
0010
,
1000
1000
0100
0000
0000
0000
0100
0000
,
0000
0100
0000
0100
,
0001
0001
0100
0000
0000
0000
0100
0000
,
0000
0100
0000
0100
,
1000
1000
0010
0000
0000
0000
0010
0000
,
0001
0001
0010
0000
0000
0000
0010
0000
,
0100
1001
0010
1001
,
0100
0100
0000
0020
0000
0000
0000
0000
,
1030
0000
0001
0000
1000
0100
1000
0000
,
0001
0000
0100
0000
0010
1000
0010
0000
,
0100
0000
0001
0000
0100
0001
1000
0000
,
0010
0000
1000
0000
0001
0010
0100
1000
,
0000
0001
0000
0000
0100
0010
1000
0001
,
0000
0100
0200
0000
0000
0000
0310
0000
,
2000
0000
0000
3001
0000
0000
0100
0020
,
0000
0000
0130
1001
,
0100
0100
0100
0100
,
0010
0010
0010
0010
,
1000
0001
1000
0000
0001
1000
0001
0000
,
0100
0010
0200
0000
,
0301
0001
0000
0000
1000
1000
0000
0010
,
0000
0100
0010
0000
0200
0000
0000
0000
,
0301
0000
0001
0000
0100
0010
0100
0000
,
1000
0000
1000
0000
0010
0100
0010
0000
,
0100
0000
0100
0000
0001
1000
0001
0000
,
0010
0000
0010
0000
1000
0001
0100
0000
,
0002
0000
0000
1003
0000
0001
0000
0100
,
0000
0010
0000
1000
0000
0001
0100
0020
,
0000
0000
1000
0000
0001
0000
0100
0030
,
0000
0100
0100
0000
0010
0010
0000
0000
,
0001
0000
1000
0010
1000
0010
0000
0100
,
0001
0100
0000
0000
0010
0000
1000
0000
,
0001
0000
0100
0010
0000
1000
0000
0101
,
0000
0000
0010
0100
,
0001
0000
1000
0001
0000
0100
0000
0010
,
0000
1000
0001
0100
0000
0000
0000
0000
,
1001
0000
0101
0000
1010
0000
0100
0010
,
0000
1000
0000
1001
0000
0000
0000
0000
,
1000
0000
0001
0010
0001
0010
0000
0100
,
1000
0100
0000
0000
0010
0000
0001
0000
,
1000
0000
0100
0010
0000
0001
0000
2000
,
0000
0000
3010
0100
,
0001
1000
0100
0110
,
1000
0001
0010
1001
,
0010
0000
0100
0001
0100
0001
0000
1100
,
0000
0101
0000
1000
0000
0001
0000
0100
,
0000
0010
0000
1000
0001
1000
0010
0100
,
0000
0010
0000
0100
0000
0100
0100
0000
,
0001
0000
0010
0100
0010
0000
0001
0000
,
1000
0000
0010
0100
0010
0000
1000
0100
,
2000
0100
3010
0100
,
0001
0000
1000
0000
0010
0100
0010
0000
,
1000
0000
0001
0000
0100
0000
0100
0010
,
0000
1000
0100
0010
0000
0000
0100
0000
,
0011
1000
1010
0001
,
0101
1000
1100
0001
,
1000
0001
1000
0001
0000
0100
0010
0200
,
0000
0000
0310
0000
,
0000
0000
0000
0000
;
#NOTES:
     dance-single:
     :
     Hard:
     12:
     :
0000
0000
0000
0000
,
0000
0000
0000
0000
,
0000
0000
0000
0000
,
0000
0000
0000
0000
,
0000
0000
0000
0000
,
0000
0000
0000
0000
,
0000
0000
0000
0000
,
0100
0100
0000
0001
0000
1000
0100
0010
,
0000
0010
0000
0002
0000
0013
0100
1000
,
0100
0100
0000
1000
0000
0001
0100
0010
,
0000
1000
1100
0000
0001
0101
0000
0000
,
1000
0000
0100
1000
0000
0001
0100
0010
,
0000
1000
0000
0010
0100
0001
1000
0010
,
0100
0000
0001
1000
0000
0100
0000
2002
,
0000
0003
0100
3010
,
0002
0000
0000
0000
1003
0100
0010
0002
,
0000
0103
0010
1000
0000
0001
0010
0100
,
1000
1001
0010
0101
,
0200
1000
0001
1300
,
0000
0000
0001
1000
0100
0000
0100
0010
,
0000
1000
0000
0010
0000
0001
1000
0100
,
0020
0000
0030
0001
0200
0000
0000
0000
,
0300
0000
0000
0001
0010
0001
1000
0100
,
0000
0001
0000
1000
0010
1000
0001
0100
,
0000
1000
0000
0000
0000
1000
0100
0001
,
0000
0001
0100
1000
0001
0010
0100
1000
,
0010
0010
0000
0120
0000
0000
1030
0000
,
0001
0000
1000
0000
0010
1000
0100
0000
,
1000
0000
0001
0000
0100
0001
1000
0010
,
0200
0001
1000
0301
,
1000
0000
0100
0001
0010
0001
1000
0100
,
0000
0001
0000
1000
0010
1000
0001
0100
,
0000
1000
0010
0000
0100
0010
1000
0001
,
0200
0000
0000
0302
0000
0000
1003
0020
,
0000
1030
0100
0010
0001
0000
1100
0000
,
0001
0101
0001
0011
,
1000
1100
1000
1010
,
0011
0000
0011
0000
1100
0000
1100
0001
,
0000
0001
0100
0010
1000
0000
0101
0000
,
1100
1000
0000
0000
0101
0001
0010
0100
,
0000
1000
0010
0100
0001
0000
0100
0010
,
0100
0000
0001
1000
0000
1000
0001
1000
,
0100
0000
0001
0010
0000
1000
0100
0010
,
0100
0000
0010
0100
0000
0100
1000
0001
,
0100
0000
1000
0010
0000
1000
0001
0000
,
1000
0000
0001
0001
0000
1000
0010
0100
,
0000
0100
0000
0010
0000
1000
0100
0010
,
0001
1000
0001
1000
0100
0001
0100
1000
,
0000
1010
1000
0000
0101
0001
0000
0000
,
0010
1000
0001
0100
0010
0100
1000
0100
,
0000
0101
0000
1000
0010
0100
0001
0100
,
0010
1000
0001
0001
0000
0110
0000
1001
,
0000
0000
0000
1000
0100
0010
0001
1000
,
0100
0000
0100
0010
0001
0100
0010
0100
,
1000
0100
0001
1000
0000
0000
0000
0100
,
1000
0001
1000
0001
0100
0010
0000
0010
,
0000
1100
0000
0101
0000
0010
0010
0001
,
0100
0001
1000
0010
0100
0010
0001
0010
,
0000
1010
0000
0001
0100
0010
1000
0010
,
0100
0001
1000
1000
0000
0110
0000
1001
,
0000
0000
0000
0001
0010
0100
1000
0001
,
0010
0000
0010
0100
1000
0010
0100
0020
,
0000
0000
0000
1030
0100
0010
0001
0010
,
1000
0000
0010
0001
1000
0100
0000
0011
,
0000
1100
0000
1000
0100
0010
0001
0100
,
0010
0000
0100
0001
0100
0010
1000
1001
,
0000
0110
0000
1001
0000
0100
0100
0000
,
1000
0100
0001
0000
1000
0100
0010
0100
,
0000
0100
0001
0100
1000
0100
0010
0001
,
1000
1000
0010
0100
0000
0100
0001
0200
,
0000
0310
1000
0010
,
1100
0000
0110
0000
0010
0001
0010
0100
,
0000
0100
1000
0010
0000
0000
0110
0000
,
0101
0011
0101
0011
,
1100
1010
1100
1010
,
0001
0001
0100
0010
0000
0010
1000
0200
,
0000
0300
1001
0000
,
0000
0000
0000
0000
;
#NOTES:
     dance-double:
     :
     Easy:
     7:
     :
00000000
00000000
00000000
00000000
,
00000000
00000000
00000000
00000000
,
00000000
00000000
00000000
00000000
,
00000000
00000000
00000000
00000000
,
00000000
00000000
00000000
00000000
,
00000000
00000000
00000000
00000000
,
00000000
00000000
00000000
00000000
,
00001000
00000000
00010000
00000000
,
00000100
00000000
00001000
00000000
,
00000010
00000000
00000100
00000000
,
00000001
00000000
00000001
00000000
,
00001000
00000000
00000100
00000000
,
00010000
00000000
00001000
00000000
,
01000000
00000000
00010000
00000000
,
00100000
00100000
00100000
00000000
,
01000000
00000000
10000000
00000000
,
00100000
00000000
01000000
00000000
,
00001000
00100000
00001000
00100000
,
00010000
00000000
00001000
00000000
,
00010000
00010000
00000000
00000000
00000000
00000000
00000000
00000000
,
00010000
00000000
00000000
00000000
,
00001000
00001000
00000000
00000000
00000000
00000000
00000000
00000000
,
00001000
00000000
00000000
00000000
,
00010000
00010000
00000000
00000000
00000000
00000000
00000000
00000000
,
00001000
00001000
00000000
00000000
00000000
00000000
00000000
00000000
,
00010000
00011000
00001000
00011000
,
00010000
01000000
10000000
00000000
,
10000000
01000000
00010000
01000000
,
10000000
01000000
00010000
00001000
,
00000100
00000001
00000100
00001000
,
00000100
00000001
00000010
00000100
,
00010000
00000000
00010000
00000000
,
00001000
00000000
00001000
00000000
,
00100000
00000000
01000000
00000000
,
10000000
00010000
10000000
00000000
,
00010000
00010000
00010000
00010000
,
00100000
00100000
00100000
00100000
,
00001000
00001000
00001000
00001000
,
00010000
00000000
00010000
00000000
,
00000100
00000100
00000000
00000000
00001000
00001000
00000000
00000000
,
00000001
00000100
00000010
00000000
,
00001000
00000100
00010000
00001000
,
00010000
00000000
00001000
00000000
,
00100000
00010000
00100000
01000000
,
10000000
00000000
00100000
00000000
,
01000000
00000000
00010000
00000000
,
00100000
00000000
00001000
00000000
,
00010000
00011000
00001000
00011000
,
00000000
00000100
00000100
00000000
00000010
00000010
00000000
00000000
,
00000001
00001000
00000100
00010000
,
00001000
00100000
01000000
01000000
,
00100000
00010000
10000000
01000000
,
00200000
00000000
00010000
00310000
,
01000000
00001000
00010000
00000100
,
00001000
00000010
00000010
00000000
,
00001000
00000000
00000100
00000000
00010000
00000000
00001000
00100000
,
00000000
01000000
00000000
00100000
00000000
00000000
00000000
00000000
,
10000000
00010000
01000000
00001000
,
00010000
00000010
00000100
00000100
,
00000010
00001000
00000001
00000100
,
00000020
00000000
00001000
00001030
,
00000100
00010000
00001000
01000000
,
00010000
10000000
01000000
00010000
,
00001000
00000000
00000100
00000000
00000001
00000000
00000100
00000010
,
00000000
00000010
00000000
00000000
00001000
00000000
00000100
00000000
,
00010000
00000000
00000000
00000000
00001000
00000000
00100000
00010000
,
00000000
00010000
00000000
10000000
00000000
01000000
01000000
00000000
,
10000000
10000000
00010000
00000000
,
00100000
00100000
00001000
00000000
,
00010000
00010000
00000100
00000000
,
00001000
00001000
00001000
00000000
,
00000001
00000000
00001000
00000000
00000001
00000000
00000000
00000100
,
00000000
00000010
00000000
00000100
00000000
00000000
00000000
00000000
,
00001000
00010000
01000000
10000000
,
00010000
01000000
00010000
00100000
,
01000000
00000000
00000000
10000000
00000000
00010000
00000000
20000000
,
00000000
00000000
30100000
00000000
,
00000000
00000000
00000000
00000000
;
#NOTES:
     dance-double:
     :
     Medium:
     10:
     :
00000000
00000000
00000000
00000000
,
00000000
00000000
00000000
00000000
,
00000000
00000000
00000000
00000000
,
00000000
00000000
00000000
00000000
,
00000000
00000000
00000000
00000000
,
00000000
00000000
00000000
00000000
,
00000000
00000000
00000000
00000000
,
00001000
00010000
00001000
00100000
,
00010000
00000000
01000000
00000000
00010000
00100000
00010000
00000000
,
10000000
01000000
00100000
00010000
,
00000000
01000000
01000000
00000000
00100000
00100000
00000000
00000000
,
10000000
00000000
00010000
00100000
00010000
00000000
01000000
00000000
,
00001000
00000000
00010000
00001000
00010000
00000000
00000100
00000010
,
00000100
00001000
00000001
00000100
,
00000010
00000000
00001000
00000000
00000100
00001000
00000100
00000000
,
00010000
00000000
00001000
00000000
00100000
00000000
00010000
01000000
,
00000000
00100000
10000000
00020000
00000000
00000000
00000000
00000000
,
01030000
01010000
00010000
00101000
,
00001000
00000000
00010000
00000000
,
00000100
00000100
00010000
00000000
00000000
00000000
00010000
00000000
,
00000000
00001000
00000000
00001000
,
01000000
01000000
00001000
00000000
00000000
00000000
00001000
00000000
,
00000000
00010000
00000000
00010000
,
00000100
00000100
00010000
00000000
00000000
00000000
00001000
00000000
,
01000000
01000000
00001000
00000000
00000000
00000000
00001000
00000000
,
00010000
00101000
00001000
00010010
,
00001000
00001000
00000000
00020000
00000000
00000000
00000000
00000000
,
00031000
00000000
01000000
00000000
00010000
00100000
01000000
00000000
,
10000000
00000000
00010000
00000000
01000000
00100000
10000000
00000000
,
01000000
00000000
00010000
00000000
00001000
00010000
00000100
00000000
,
00001000
00000000
00000010
00000000
00001000
00000100
00000010
00000001
,
00000000
00001000
00000000
00000000
00000100
00010000
00001000
00100000
,
00000000
01000000
01000000
00000000
00000000
00000000
00100000
00000000
,
20000000
00000000
00000000
30010000
00000000
00000000
00100000
02000000
,
00000000
00000000
03100000
10010000
,
00100000
00100000
00001000
00001000
,
00010000
00010000
00000100
00000100
,
00001000
00001000
00000001
00000001
,
00000100
00000010
00002000
00000000
,
00003100
00000100
00000000
00000000
00010000
00010000
00000000
00000000
,
00001000
01000000
00100000
00000000
,
01000000
00000000
01000000
00000000
00010000
00100000
00010000
00000000
,
00100000
00000000
00100000
00000000
00001000
00010000
00001000
00000000
,
00010000
00000000
00010000
00000000
00000100
00001000
00000100
00000000
,
00000010
00000000
00000010
00000000
00000001
00001000
00000001
00000000
,
00000200
00000000
00000000
00000310
00000000
00001000
00000000
00000100
,
00000000
00010000
00000000
00001000
00000000
01000000
00100000
02000000
,
00000000
00010000
00100000
03010000
,
00000000
10000000
10000000
00000000
00100000
00100000
00000000
00000000
,
10000000
00000000
00010000
00100000
00010000
00100000
00000000
01000000
,
10000000
01000000
00000000
00000000
00100000
00000000
00001000
00000000
,
00010000
00000000
00001000
00000100
00000000
00000001
00000000
00001010
,
00000000
00000000
00000001
00000100
,
00000010
00000000
00010000
00001000
00000000
00100000
00000000
01000000
,
00000000
10000000
00010000
10000000
00000000
00000000
00000000
00000000
,
10010000
00000000
00101000
00000000
00011000
00000000
00010000
00000100
,
00000000
00000010
00000000
00001001
00000000
00000000
00000000
00000000
,
00000001
00000000
00001000
00000100
00001000
00000100
00000000
00000010
,
00000001
00000010
00000000
00000000
00000100
00000000
00010000
00000000
,
00001000
00000000
00010000
00100000
00000000
10000000
00000000
01010000
,
00000000
00000000
10000000
00100000
,
01000000
00001000
00010000
00010100
,
00001000
00000001
00000100
00001010
,
00010000
00000000
00001000
00010000
00001000
00010000
00000000
01000000
,
00000000
01100000
00000000
00010000
00000000
01000000
00000000
00100000
,
00000000
10000000
00000000
00010000
01000000
00100000
00000000
10000000
,
00000000
10000000
00000000
00100000
00000000
00100000
00100000
00000000
,
10000000
00000000
00010000
00100000
00010000
00000000
01000000
00000000
,
00001000
00000000
00010000
00001000
00010000
00000000
00000100
00000010
,
00000100
00001000
00000001
00000100
,
00000010
00000000
00001000
00000000
00000100
00001000
00000100
00000000
,
00010000
00000000
00001000
00000000
00100000
00000000
00010000
01000000
,
00000000
00100000
10000000
00020000
00000000
00000000
00000000
00000000
,
01030000
01010000
00010000
00101000
,
00010000
00010100
00001000
00000110
,
00000001
00001000
00000010
00001000
00000000
00000100
00010000
00002000
,
00000000
00000000
00013000
00000000
,
00000000
00000000
00000000
00000000
;
#NOTES:
     dance-double:
     :
     Hard:
     12:
     :
00000000
00000000
00000000
00000000
,
00000000
00000000
00000000
00000000
,
00000000
00000000
00000000
00000000
,
00000000
00000000
00000000
00000000
,
00000000
00000000
00000000
00000000
,
00000000
00000000
00000000
00000000
,
00000000
00000000
00000000
00000000
,
00010000
00010000
00000000
00001000
00000000
00010000
00000100
00001000
,
00000000
00001000
00000000
00000002
00000000
00001003
00000100
00010000
,
00001000
00001000
00000000
00100000
00000000
00010000
10000000
01000000
,
00000000
00010000
01010000
00000000
10000000
11000000
00000000
00000000
,
00100000
00000000
00001000
01000000
00000000
00010000
00000000
00100000
,
00001000
00010000
00000000
00001000
00000100
00000001
00000010
00000001
,
00001000
00000000
00000100
00010000
00000000
00001000
00000000
00202000
,
00000000
00300000
00010000
01003000
,
00200000
00000000
00000000
00300000
10000000
00100000
01000000
00020000
,
00000000
01030000
00001000
00010000
00000000
00001000
00010000
00000100
,
00001000
00000101
00001000
00010100
,
00002000
00100000
00010000
00103000
,
00000000
00000000
00001000
00100000
00010000
00000000
01000000
00100000
,
00000000
10000000
00000000
00010000
00000000
01000000
00100000
10000000
,
00020000
00000000
00000000
01030000
00200000
00000000
00000000
00000000
,
00300000
00000000
00000000
10000000
01000000
00100000
00001000
00010000
,
00000000
00001000
00000000
00010000
00000100
00000010
00000001
00001000
,
00000000
00000100
00000000
00000000
00000000
00001000
00000010
00000100
,
00000000
00000001
00000100
00000010
00001000
00000000
00000001
00000100
,
00000010
00000010
00000000
00000200
00000000
00000000
00000000
00000000
,
00000301
00000000
00001000
00000000
00000010
00001000
00000100
00000000
,
00001000
00000000
00000010
00000000
00010000
00001000
00100000
00000000
,
01000000
00000000
10000000
00000000
00010000
00100000
01000000
00000000
,
10000000
00000000
00000000
00100000
01000000
00010000
00100000
01000000
,
00000000
00010000
00000000
00001000
00000100
00000010
00001000
00000100
,
00000000
00000010
00000001
00000000
00000001
00000000
00000100
00000000
,
00001000
00000000
00010000
00000100
00000000
00010000
00001000
00100000
,
00000000
01000000
10000000
01000000
00100000
00000000
10010000
00000000
,
00010000
00110000
00010000
00011000
,
00001000
00001010
00000010
00000011
,
00001100
00000000
00010100
00000000
00011000
00000000
01010000
00100000
,
00000000
00010000
10000000
01000000
00100000
00000000
01010000
00000000
,
10000000
00010000
00000000
00000000
01000000
00100000
00000000
10000000
,
00000000
01000000
00010000
00001000
00000100
00000000
00000001
00000000
,
00001000
00000010
00001000
00000001
00000100
00000000
00000010
00000000
,
00010000
00000100
00010000
00001000
00100000
00000000
01000000
00000000
,
10000000
00010000
01000000
00100000
01000000
00000000
00010000
00000000
,
00100000
00001000
00010000
00000100
00010000
00001000
01000000
00000000
,
00100000
00000000
10000000
01000000
00000000
00010000
00001000
00000100
,
00000000
00000001
00000000
00001000
00000000
00000001
00001000
00000100
,
00010000
00000010
00001000
00000100
00010000
00001000
00000010
00000100
,
00000000
00000011
00000001
00000000
00001100
00001000
00000000
00000000
,
00000001
00000100
00000010
00010000
00000100
00010000
00001000
00100000
,
00000000
00101000
00000000
01000000
10000000
00010000
01000000
00100000
,
10000000
01000000
00100000
00010000
00000000
01100000
00000000
11000000
,
00000000
00000000
00000000
00010000
10000000
01000000
00010000
00001000
,
00000100
00000000
00000010
00001000
00000100
00000010
00000001
00001000
,
00000000
00000010
00000100
00000010
00000000
00000000
00010010
00000000
,
00101000
00000000
00011000
00000000
00010010
00000000
00011000
01000000
,
00000000
00100000
00000000
01010000
00000000
01000000
01000000
00010000
,
10000000
00100000
01000000
00001000
00100000
00001000
00010000
00000100
,
00000000
00010100
00000000
00000010
00000001
00001000
00000010
00000100
,
00000001
00000010
00000100
00001000
00000000
00000011
00000000
00001100
,
00000000
00000000
00000000
00001000
00000001
00000010
00001000
00010000
,
00100000
00000000
01000000
00010000
00100000
01000000
10000000
00010000
,
00000000
00000000
00000000
10000000
00010000
01000000
00100000
10000000
,
01000000
00100000
00001000
00010000
00000000
00100000
10000000
01000000
,
00000000
00010000
00000000
00001000
00000100
00000001
00000010
00000002
,
00000000
00000000
00001003
00000010
00000100
00000001
00001000
00001100
,
00000000
00011000
00000000
01010000
00000000
10000000
00100000
00000000
,
10000000
01000000
00100000
00000000
00010000
01000000
00100000
00000000
,
10000000
01000000
00100000
00001000
00010000
00000010
00000100
00000001
,
00001000
00000000
00000100
00000000
00000010
00001000
00000100
00000000
,
00000010
00000000
00000001
00000000
00001000
00000100
00000010
00000000
,
00000001
00000100
00000010
00000000
00000100
00001000
00010000
00100000
,
00000000
10000000
00100000
02000000
00000000
00000000
03010000
00000000
,
10100000
01100000
00110000
00011000
,
00001010
00000101
00001100
00011000
,
00001000
00100000
00001000
01000000
00000000
00100000
10000000
02000000
,
00000000
00000000
03100000
00000000
,
00000000
00000000
00000000
00000000
;
