
//----- song ID: blow -----//
#TITLE:春風ブローインウィンド;
#ARTIST:TAG;
#TITLETRANSLIT:Shunpuu blowing wind;
#BANNER:Shunpuu blowing wind.png;
#BACKGROUND:Shunpuu blowing wind-bg.png;
#CDTITLE:./CDTitles/pnm 22 Lapistoria.png;
#MUSIC:Shunpuu blowing wind.ogg;
#SAMPLESTART:13.496;
#SAMPLELENGTH:15;
#BPMS:0=160,132=80,149=160;
#STOPS:132=0.75;
#NOTES:
     dance-single:
     :
     Beginner:
     2:
     :
0000
0000
0000
0000
,
0000
0000
0000
0000
,
0000
0000
0000
0000
,
0000
0000
0000
0000
,
0000
0000
0000
0000
,
0001
0000
0000
0000
,
0100
0000
0000
0000
,
1000
0000
0000
0000
,
0010
0000
0000
0000
,
1000
0000
1000
0000
,
1000
1000
1000
0000
,
0001
0000
0001
0000
,
0001
0001
0001
0000
,
0010
0000
0010
0000
,
0010
0010
0010
0000
,
1000
0000
0001
0000
,
1001
0000
0000
0000
,
1000
0000
0010
0000
,
1000
0000
0000
0000
,
0001
0000
0010
0000
,
0001
0000
0000
0000
,
1000
0000
0100
0000
,
1000
0000
0000
0000
,
0001
0000
0100
0000
,
0001
0000
0000
0000
,
1000
1000
1000
0000
,
0010
0010
0010
0000
,
0001
0001
0001
0000
,
0100
0000
0100
0000
,
0001
0001
0001
0000
,
0010
0010
0010
0000
,
1000
1000
1000
0000
,
0100
0000
0000
0000
,
0000
0010
0000
0001
,
0000
1000
0000
0100
,
0000
0010
0000
1000
,
0000
0001
0000
0100
,
0000
0001
0000
0001
,
0000
1000
0000
1000
,
0000
0010
0000
0010
,
0000
0100
0000
0100
,
0000
0001
0000
0010
,
0000
1000
0000
0010
,
0000
0001
0000
0010
,
0000
1000
0000
0010
,
0000
0001
0000
0000
,
0000
0000
0000
0000
,
0000
1000
0000
1000
,
0000
1000
1000
1000
,
0000
0001
0000
0001
,
0000
0001
0001
0001
,
0000
0010
0000
0010
,
0000
0010
0010
0010
,
0000
0001
0000
1000
,
0000
1001
0000
0000
,
0000
0100
0000
0001
,
0000
0100
0100
0100
,
0000
1000
0000
0010
,
0000
1000
1000
1000
,
0000
0001
0000
0010
,
0000
0001
0001
0001
,
0000
1000
0000
0001
,
0000
1001
0000
0000
,
0000
1000
0000
0010
,
0000
1000
0000
0010
,
0000
0001
0000
0010
,
0000
0001
0000
0010
,
0000
1000
0000
0100
,
0000
1000
0000
0100
,
0000
0001
0000
0100
,
0000
0001
0000
0000
,
0000
1000
1000
1000
,
1000
0000
0000
0000
,
0000
0000
0000
0000
;
#NOTES:
     dance-single:
     :
     Easy:
     6:
     :
0000
0000
0000
0000
,
0000
0000
0000
0000
,
0000
0000
0000
0000
,
0000
0000
0000
0000
,
0000
0000
0000
0000
,
0000
0001
0000
0100
,
0000
1000
0000
0100
,
0000
0000
0001
0000
0000
0000
0100
0020
,
0000
0000
0000
0200
0000
0000
0330
0000
,
0010
1000
0010
0001
,
0010
0100
0220
0330
,
1000
0001
0010
0001
,
0010
0100
1001
1001
,
1000
0001
0100
0010
,
1000
0100
0110
1001
,
0020
0030
0002
0003
,
2000
3000
0010
0010
,
1000
0100
1000
0100
,
0010
0000
0100
0100
,
0001
0100
0001
0100
,
0010
0000
0100
0100
,
1000
0001
1000
0001
,
0010
0000
0100
0100
,
0002
0003
2000
3000
,
0001
0100
0010
1000
,
0001
0010
0100
0100
,
1000
0010
0100
0100
,
0001
0010
0100
0100
,
0010
0001
0100
0010
,
2000
0010
0010
3010
,
0002
0010
0010
0013
,
2000
0010
0010
3010
,
0001
1000
0001
0000
,
0000
0000
0010
0000
0001
0000
1000
1000
,
1000
0000
0001
0000
0100
0000
0010
0100
,
0010
0000
1000
0000
0100
0000
0010
0010
,
0010
0001
1000
0020
,
0030
1000
0100
0010
,
0001
0000
0010
0000
0100
0000
1000
0001
,
1000
0001
0100
0010
,
1000
0000
0010
0000
0100
0000
0001
1000
,
0001
1000
0010
0001
,
0010
0000
1000
0000
0010
0000
0100
0010
,
0100
0001
0010
1000
,
0010
0000
0001
0000
0010
0000
0100
0010
,
0100
2000
0000
0000
,
0000
3000
0000
0000
,
0000
0001
0000
1000
,
0000
0010
1000
0001
,
0000
0010
0000
0100
,
0100
0010
0001
1000
,
1000
0001
0000
1000
,
0000
0001
0100
0010
,
1000
0001
0000
1000
,
0000
2002
0000
0000
,
3003
0010
0001
0010
,
1000
0010
0100
0220
,
0330
0001
1000
0010
,
1000
0010
0100
1001
,
1001
0001
1000
0100
,
0010
0001
0100
0110
,
1001
0020
0030
2000
,
3000
0002
0003
0010
,
0010
0001
0100
0001
,
0100
0010
0000
0100
,
0100
1000
0100
1000
,
0100
0010
0000
0100
,
0100
0001
1000
0001
,
1000
0010
0000
0100
,
0100
2000
3000
0002
,
0003
1000
0100
0010
,
0001
1000
1000
0002
,
0000
0003
0000
0000
0000
0000
0000
0000
,
0000
0000
0000
0000
;
#NOTES:
     dance-single:
     :
     Medium:
     10:
     :
0000
0000
0000
0000
,
0000
0000
0000
0000
,
0000
0000
0000
0000
,
0000
0000
0000
0000
,
0000
0000
0000
0000
,
0010
0000
0000
1000
0000
0000
0000
0100
,
0000
0000
0000
0010
0000
0001
1000
0001
,
0100
0000
0000
0010
0000
0000
0000
2000
,
0000
0000
0000
0002
0000
0000
3003
0000
,
0110
0000
0001
1000
0010
0000
1000
0001
,
0010
0000
0100
0000
0110
0000
0001
1000
,
0100
0000
1000
0100
0010
0001
1000
0001
,
0010
0000
0100
0000
1001
0000
0001
0100
,
0001
0000
1000
0001
0100
0000
0001
1000
,
0100
1000
0110
1001
,
0012
1003
1020
0130
,
0102
0000
1003
0000
0001
0100
0010
1000
,
0002
0000
0010
0000
0010
0000
0013
0001
,
1000
0000
1000
0010
0100
0001
0100
0010
,
2000
0000
0010
0000
0010
0000
3010
1000
,
0001
0000
0001
0010
0100
1000
0100
0010
,
0002
0000
0100
0000
0100
0000
0103
0001
,
1000
0000
1000
0010
0100
0001
0100
0010
,
2000
3010
0002
0013
,
0001
0100
0010
1000
0001
0000
0110
0000
,
1000
0001
0020
0000
0001
0000
0130
0000
,
0001
1000
0020
0000
1000
0000
0130
0000
,
0001
0010
0200
0000
1000
0000
0310
0000
,
0001
0100
1000
0010
,
0001
0200
1000
0000
0010
0000
0301
0000
,
1000
0200
0001
0000
0010
0000
1300
0000
,
0001
0200
1000
0000
0010
0000
0301
0000
,
1000
0000
0000
1000
0000
0000
1000
0000
0000
0000
0000
0000
0000
0000
0000
0000
,
1001
0000
0000
0000
0010
0000
0000
1000
0100
0000
0010
0000
0001
0000
0001
0000
,
1000
0010
2000
3000
0010
0010
0001
0010
,
0100
0000
1000
0000
0001
0000
0000
0100
0001
0000
0010
0000
0100
0100
0100
0100
,
1000
0000
0020
0030
0100
0100
0010
1000
,
0100
0000
0001
0000
0100
0010
1000
0000
,
0100
0000
0010
0000
0001
0100
0010
1000
,
0010
0100
0001
0000
1000
0100
0010
0000
,
0001
0000
1000
0000
0010
1000
0001
1000
,
0100
0000
0022
0000
0033
0100
0010
0000
,
0001
0000
2020
0000
3030
0100
0010
1000
,
0010
0000
2002
0000
3003
0010
0001
0000
,
1000
0000
0220
0000
0330
0001
0010
0001
,
1000
0001
0200
0000
0000
0000
0000
0000
,
0000
0300
0000
0000
,
0000
0001
0000
1000
,
0000
0000
0000
0000
0001
0000
0000
0100
0000
0000
0010
0000
1000
0000
0000
0000
,
0000
0000
0001
0000
0000
0000
0010
0100
,
0010
0000
0100
0000
0010
0000
0000
0001
0000
0000
1000
0000
0001
0000
0000
0000
,
0110
1001
0000
0001
,
0000
0000
0000
0000
1000
0000
0000
0100
0000
0000
0010
0000
0001
0000
0000
0000
,
1000
0001
0000
0100
,
0000
0000
0000
0000
0010
0000
0000
0010
0000
0000
0010
0000
1000
0000
0001
0000
,
1000
0000
0020
0000
1030
0001
0010
0000
,
0001
1000
0010
0000
0100
0000
0110
0000
,
1000
0001
0100
0000
0001
0100
0010
1000
,
0001
1000
0010
0000
0100
0000
1001
0000
,
1000
0100
1000
0000
0001
1000
0100
0000
,
1000
0001
0100
0000
0001
0000
0110
0000
,
1001
2010
3001
0021
,
0130
0000
2100
0000
3001
0000
1000
0100
,
0010
0001
2000
0000
0010
0000
0010
0000
,
3010
1000
0001
0000
0001
0010
0100
1000
,
0100
0010
0002
0000
0010
0000
0010
0000
,
0013
0001
1000
0000
1000
0010
0100
0001
,
0100
0010
2000
0000
0100
0000
0100
0000
,
3100
1000
0001
0000
0001
0010
0100
1000
,
0100
0010
0002
0000
0013
0000
2000
0000
,
3010
0000
1000
0100
0010
0001
1000
0000
,
0110
0000
0000
0000
1000
0000
0100
0000
1000
0000
0100
0000
0010
0000
0000
0010
,
0000
0010
0000
0000
0000
0000
0000
0000
,
0000
0000
0000
0000
;
#NOTES:
     dance-single:
     :
     Hard:
     15:
     :
0000
0000
0000
0000
,
0000
0000
0000
0000
,
0000
0000
0000
0000
,
0000
0000
0000
0000
,
0000
0000
0000
0000
,
0010
0000
1000
0100
0000
0010
0001
0100
,
0000
0010
1000
0100
0000
0010
0001
0100
,
0010
0000
0100
0000
0010
0000
0100
0000
0001
0100
0001
0100
0010
1000
0002
0000
,
0000
0000
0000
0200
0000
0000
0303
0000
,
0002
0000
0000
0000
1003
0000
0001
0010
0002
0000
0000
0000
1003
0000
0001
0010
,
0002
0000
0000
0013
0100
0000
1000
0000
0001
0000
0000
0000
0100
0000
0010
0000
,
0200
0000
0000
0000
0301
0000
0100
0010
0100
0000
0010
0000
1000
0000
0001
0000
,
0010
0000
0000
0010
0001
0000
1000
0000
0001
0000
1000
0100
1000
0100
0010
0001
,
2000
0000
0000
0000
3001
0000
1000
0010
2000
0000
0000
0000
3001
0000
1000
0010
,
2000
0000
0000
3010
0100
0000
0001
0000
1000
0000
0000
0000
0110
0000
0000
0000
,
2010
0000
3001
0010
0021
0000
0130
1000
,
2100
0000
0000
0000
3001
0000
1000
0001
1000
0000
0100
0000
0010
0000
0001
0000
,
1000
0000
0010
0000
1000
0100
0000
0100
0010
0000
0010
0001
0000
0001
1000
0000
,
0001
0000
0000
0000
0001
0000
0010
0001
0010
0000
0100
0000
1000
0000
0010
0000
,
1000
0000
0001
0000
0010
0100
0000
0100
1000
0000
1000
0010
0000
0010
0100
0000
,
0001
0000
0000
0000
0001
0000
1000
0100
1000
0000
0001
0000
0100
0000
0010
0000
,
1000
0000
0100
0000
0010
0100
0000
0100
0001
0000
0001
0100
0000
0100
1000
0000
,
0001
0000
0000
0000
0001
0000
0010
0100
0010
0000
1000
0000
0010
0000
0001
0000
,
2000
0000
0010
0000
3002
0000
0013
0001
,
1000
0000
0100
0000
0010
0000
0001
0000
1000
0000
0000
0001
1000
0000
0001
0000
,
1000
0000
0100
0000
0010
0001
0010
0001
1000
0000
0001
0100
0000
0001
1000
0000
,
0001
0000
0100
0000
0010
1000
0010
1000
0001
0000
1000
0100
0000
1000
0001
0000
,
1000
0000
0010
0000
0100
0001
0100
0001
1000
0000
0001
0010
0000
0001
1000
0000
,
0002
0000
0000
0023
0000
0000
2030
0000
0000
3002
0000
0000
0103
0000
1000
0000
,
0001
0000
0100
0000
0010
1000
0010
1000
0001
0000
0000
1100
0000
0000
0101
0000
,
0010
0000
1000
0000
0001
0010
0001
0010
0100
0000
0000
1001
0000
0000
0110
0000
,
1000
0000
0001
0000
0010
0001
0010
0001
1000
0000
0000
0101
0000
0000
1100
0000
,
0001
0000
0000
1000
0000
0000
0110
0000
0000
0000
1000
0100
0010
0001
1000
0001
,
1000
0000
0000
0000
0000
0000
0000
0000
2002
0000
0000
0000
3003
0000
0100
0000
0010
0000
0000
0000
0001
0000
0000
0000
1100
0000
0000
1100
0000
0000
1100
0000
,
0001
0000
0000
0000
0000
0000
1000
0000
0000
0000
0000
0000
0010
0000
0000
0100
0000
0000
0010
0000
0000
0100
0000
0000
0002
0000
0000
0000
0000
0000
0000
0000
0000
0000
0000
0000
0000
0000
0000
0000
0000
0000
1003
0000
0000
0000
0000
0000
0010
0000
0000
0000
1000
0000
0000
0000
0100
0000
0000
0000
0010
0000
0000
0000
0001
0000
0000
0000
0100
0000
0000
0000
0010
0000
0000
0000
0000
0000
1000
0000
0000
0001
0000
0000
1000
0000
0000
0000
0000
0000
0100
0000
0000
0000
0000
0000
,
0010
0001
0001
0001
2002
0000
3003
0100
0010
0000
1000
0000
0101
0001
0001
0001
,
1000
0000
0000
0000
0000
0000
0001
0000
0000
0000
0000
0000
0000
0000
0000
1000
0000
0000
0100
0000
0000
1000
0000
0000
0002
0000
0000
0000
0000
0000
0000
0000
0000
0000
0000
0000
0000
0000
0000
0000
0000
0000
1003
0000
0000
0000
0000
0000
0010
0000
0000
0000
1000
0000
0000
0000
0100
0000
0000
0000
0010
0000
0000
0000
0001
0000
0000
0000
0100
0000
0000
0000
0010
0000
0000
0000
0000
0000
0010
0000
0000
0000
0000
0000
0100
0000
0000
0010
0000
0000
0100
0000
0000
0000
0000
0000
,
0010
0000
1000
0010
1000
0010
0100
0001
2000
0000
0000
0000
3100
0000
0000
0000
0001
0000
0100
0000
0000
0000
0010
0000
0100
0000
0000
0000
1000
0000
0100
0000
,
0000
0010
0100
0000
2000
0000
3010
0000
0001
0010
0000
0100
0010
0000
1000
0010
,
0000
0100
0010
0000
0002
0000
0103
0000
1000
0100
0000
0010
0100
0000
0001
0100
,
0000
0010
0100
0000
0002
0000
0013
0000
1000
0010
0000
0100
0010
0000
0001
0010
,
0000
0100
0010
0000
0001
0000
0001
0000
0100
0010
0000
0010
1000
0000
1000
0100
,
0000
0100
0010
0000
0001
0000
0001
0000
0010
0100
0000
0100
1000
0000
1000
0010
,
0000
0010
0100
0000
1000
0000
1000
0000
0100
0001
0000
0001
0010
0000
0010
1000
,
0000
1000
0010
0000
0100
0000
0100
0000
1000
0001
0000
0001
0010
0000
0001
0000
,
1000
0001
2000
0000
0000
0000
0000
0000
,
3000
0000
0000
0000
0101
0000
0000
0101
0000
0000
0101
0000
0000
0000
1000
0000
,
0001
0000
1000
0010
1000
0000
0000
0000
0000
0000
0001
0010
0001
0000
0000
0000
,
0000
0000
1000
0010
1000
0000
0000
0010
0000
0000
0001
0000
0100
0000
0000
0000
,
0000
0000
0010
0000
1000
0000
0000
0000
0000
0000
0100
0010
0100
0000
0010
0000
,
0001
0000
1000
0000
0010
0000
0000
0100
0000
0000
0010
0000
1000
0000
0001
0100
,
0001
0100
0010
1000
0001
0000
0000
0000
0000
0000
1000
0010
1000
0000
0000
0000
,
0000
0000
0001
0010
0001
0000
0000
0010
0000
0000
1000
0000
0100
0000
0000
0000
,
0010
0000
0011
0000
0000
1000
1010
0000
,
0000
0000
0001
0000
0001
0000
0000
0100
0000
0000
0010
0000
1000
0000
0001
0000
,
0010
0001
0010
0001
1000
0000
0000
0000
0110
0000
1000
0010
2000
0000
0000
0000
,
3001
0000
1000
0010
2000
0000
0000
3010
0100
0000
0001
0000
1000
0000
0000
0000
,
0100
0000
0010
0000
0200
0000
0000
0000
1300
0000
0100
0010
0100
0000
0010
0000
,
0001
0000
1000
0000
0010
0000
0000
0010
1000
0000
0001
0000
1000
0000
0001
0100
,
0001
0100
0010
1000
0002
0000
0000
0000
0000
0000
0000
0000
1003
0000
0100
0000
,
0010
0001
0000
1000
0001
0100
0000
0011
,
0000
0000
1010
0000
0001
0000
0010
0001
0000
0010
0001
0010
0100
0000
1000
0100
,
0000
1000
0100
1000
0001
0000
1000
0001
0000
1000
0001
1000
0010
0000
0100
0000
,
0010
0000
0100
0000
0001
0000
0010
0000
0001
0100
0000
0100
0010
0000
0010
1000
,
0000
1000
0001
0000
1000
0000
0000
0000
1000
0000
0010
1000
0010
0000
0100
0000
,
0001
0000
0010
0000
0001
0000
1000
0000
0010
0100
0000
0100
0001
0000
0001
0010
,
0000
0010
0100
0000
1000
0000
0000
0000
1000
0000
0001
0100
0001
0000
1000
0000
,
0100
0000
0010
0000
0001
0000
0100
0000
0010
0100
0000
0100
1000
0000
1000
0100
,
0000
0100
0001
0000
1000
0000
0000
0000
1000
0000
0010
0100
0010
0000
0001
0000
,
0010
1000
0002
0000
0010
0000
2003
0000
,
3010
0000
1000
0000
0001
0000
0100
0000
0010
0000
1000
0000
0001
0000
0000
1000
,
0001
0000
1000
0000
0001
0000
0100
0000
1000
0000
0100
0000
0010
0000
1000
0001
,
0000
0100
0010
0000
0000
0000
0000
0000
0000
0000
0000
0000
0000
0000
0000
0000
,
0000
0000
0000
0000
;
#NOTES:
     dance-double:
     :
     Easy:
     7:
     :
00000000
00000000
00000000
00000000
,
00000000
00000000
00000000
00000000
,
00000000
00000000
00000000
00000000
,
00000000
00000000
00000000
00000000
,
00000000
00000000
00000000
00000000
,
00000000
00000010
00000000
00000001
,
00000000
00001000
00000000
00000100
,
00000000
00000000
00010000
00000000
00000000
00000000
00001000
00020000
,
00000000
00000000
00000000
00002000
00000000
00000000
00033000
00000000
,
00010000
00100000
10000000
00100000
,
00010000
00001000
00011000
00000000
,
00001000
00000010
00000001
00000100
,
00001000
00010000
00001000
00001000
,
00010000
01000000
10000000
01000000
,
00010000
00001000
00010000
00010000
,
00000020
00000030
00002000
00003000
,
00000002
00000003
00000010
00000010
,
00000001
00000100
00000001
00000100
,
00001000
00000100
00001000
00000100
,
00001000
00010000
00001000
00010000
,
01000000
00010000
01000000
00010000
,
01000000
01000000
10000000
00100000
,
01000000
01000000
00010000
00100000
,
00002000
00003000
00020000
00030000
,
00001000
00010000
00011000
00000000
,
00010000
00001000
00000010
00000001
,
00000001
00000100
00001000
00010000
,
00001000
00010000
00100000
10000000
,
00010000
01000000
00100000
10000000
,
10000000
01000000
00010000
00001000
,
00010000
00001000
00000100
00000001
,
00000001
00000010
00001000
00010000
,
00001000
00010000
00001000
00000000
,
00000000
00000000
00100000
00000000
00010000
00000000
01000000
01000000
,
01000000
00000000
00100000
00000000
10000000
00000000
01000000
00100000
,
01000000
00000000
00010000
00000000
00001000
00000000
00000010
00000010
,
00000010
00000100
00001000
00000020
,
00000030
00001000
00000001
00000100
,
00000010
00000000
00010000
00000000
00001000
00000000
00100000
00100000
,
00100000
00010000
00100000
01000000
,
10000000
00000000
00010000
00000000
01000000
00000000
00100000
00100000
,
00100000
10000000
01000000
00010000
,
00001000
00000000
00000100
00000000
00000001
00000000
00001000
00001000
,
00001000
00000010
00000100
00000001
,
00000010
00000000
00000100
00000000
00000010
00000000
00000100
00000100
,
00000100
00002000
00000000
00000000
,
00000000
00003000
00000000
00000000
,
00000000
00000001
00000000
00001000
,
00000000
00010000
00000000
10000000
,
00000000
00100000
00000000
01000000
,
01000000
00100000
01000000
00100000
,
00000000
10000000
00000000
00010000
,
00000000
00001000
00000000
00000001
,
00000000
00000010
00000000
00000100
,
00000000
00002002
00000000
00000000
,
00003003
00001000
00000010
00000001
,
00000010
00001000
00010000
00011000
,
00000000
00010000
00100000
10000000
,
01000000
00010000
00001000
00010000
,
00010000
00001000
00000100
00000001
,
00000100
00001000
00010000
00001000
,
00001000
00200000
00300000
00020000
,
00030000
20000000
30000000
00100000
,
00100000
10000000
01000000
10000000
,
01000000
00010000
01000000
00010000
,
01000000
00010000
00001000
00010000
,
00001000
00000100
00001000
00000100
,
00001000
00000100
00000100
00000001
,
00000010
00000100
00000100
00001000
,
00000010
00020000
00030000
00002000
,
00003000
00010000
00001000
00011000
,
00000000
00100000
00100000
02000000
,
00000000
03000000
00000000
00000000
00000000
00000000
00000000
00000000
,
00000000
00000000
00000000
00000000
;
#NOTES:
     dance-double:
     :
     Medium:
     10:
     :
00000000
00000000
00000000
00000000
,
00000000
00000000
00000000
00000000
,
00000000
00000000
00000000
00000000
,
00000000
00000000
00000000
00000000
,
00000000
00000000
00000000
00000000
,
00100000
00000000
00000000
00010000
00000000
00000000
00000000
01000000
,
00000000
00000000
00000000
00100000
00000000
10000000
00010000
10000000
,
01000000
00000000
00000000
00010000
00000000
00000000
00000000
00002000
,
00000000
00000000
00000000
00020000
00000000
00000000
00033000
00000000
,
00000010
00000000
00001000
00000001
00000010
00000000
00000100
00001000
,
00000010
00000000
00000100
00000000
00000110
00000000
00000001
00001000
,
00000010
00000000
00000100
00000010
00000100
00000001
00000100
00001000
,
00010000
00000000
00010000
00000000
00100000
00000000
10000000
01000000
,
10000000
00000000
00010000
10000000
01000000
00000000
10000000
00010000
,
01000000
00010000
00100000
00011000
,
00000020
00001000
00020030
00001000
,
00030020
00000000
00001030
00000000
00000100
00000010
00000001
00000100
,
00000020
00000000
00010000
00000000
00010000
00000030
00010000
00001000
,
00010000
00000000
00010000
00000000
00010000
01000000
10000000
00010000
,
00200000
00000000
00001000
00000000
00001000
00300000
00001000
00010000
,
00001000
00000000
00001000
00000000
00001000
00000100
00000001
00001000
,
00000200
00000000
00010000
00000000
00010300
00000000
00010000
00001000
,
00010000
00000000
00010000
00000000
00010000
00100000
10000000
00010000
,
00100000
00110000
00100000
10100000
,
10000000
01000000
00100000
00010000
00100000
00000000
00011000
00000000
,
00000010
00001000
00000100
00000000
00000010
00000000
00000001
00000000
,
00000100
00000010
00001000
00000000
00000001
00000000
00000010
00000000
,
00000100
00010000
00001000
00000000
01000000
00000000
00010000
00000000
,
00100000
00010000
01000000
10000000
,
00100000
10000000
02000000
00000000
00010000
00000000
13000000
00000000
,
00100000
00010000
00002000
00000000
00100000
00000000
00013000
00000000
,
00001000
00000010
00000002
00000000
00000010
00000000
00001003
00000000
,
00000010
00000000
00000000
00000010
00000000
00000000
00000010
00000000
00000000
00000000
00000000
00000000
00000000
00000000
00000000
00000000
,
00001001
00000000
00000000
00000000
00000010
00000000
00000000
00000001
00000100
00000000
00001000
00000000
00010000
00000000
00010000
00000000
,
00100000
10000000
00020000
00030000
00100000
00100000
01000000
10000000
,
00100000
00000000
00010000
00000000
00001000
00000000
00000000
00010000
00001000
00000000
00000010
00000000
00000100
00000100
00000100
00000100
,
00001000
00000000
00000002
00000003
00001000
00001000
00000001
00000100
,
00001000
00000000
00010000
00000000
00010000
00100000
10000000
00000000
,
00100000
00000000
00010000
00000000
00100000
10000000
01000000
00100000
,
00010000
01000000
00010000
00000000
10000000
01000000
00010000
00000000
,
00001000
00000000
00000100
00000000
00001000
00010000
00001000
00000100
,
00000001
00000000
00002002
00000000
00003003
00000100
00000010
00000000
,
00000001
00000000
00000202
00000000
00000303
00001000
00000100
00010000
,
00001000
00000000
00220000
00000000
00330000
01000000
10000000
00000000
,
00010000
00000000
02200000
00000000
03300000
10000000
00100000
10000000
,
00010000
10000000
02000000
00000000
00000000
00000000
00000000
00000000
,
00000000
03000000
00000000
00000000
,
00000000
10000000
00000000
01000000
,
00000000
00000000
00000000
00000000
00010000
00000000
00000000
00001000
00000000
00000000
00010000
00000000
00001000
00000000
00000000
00000000
,
00000000
00000000
00000010
00000000
00000000
00000000
00000001
00000010
,
00000100
00000000
00001000
00000000
00000001
00000000
00000000
00000100
00000000
00000000
00000001
00000000
00001000
00000000
00000000
00000000
,
00000110
00001001
00000000
00000100
,
00000000
00000000
00000000
00000000
00001000
00000000
00000000
00010000
00000000
00000000
00001000
00000000
00010000
00000000
00000000
00000000
,
01000000
10000000
00000000
00100000
,
00000000
00000000
00000000
00000000
00010000
00000000
00000000
00010000
00000000
00000000
00010000
00000000
00001000
00000000
00010000
00000000
,
00001000
00000000
00100000
00000000
00010000
10000000
00100000
00000000
,
01000000
00010000
00100000
00000000
01000000
00000000
01100000
00000000
,
10000000
00010000
00100000
00000000
01000000
00100000
01000000
10000000
,
01000000
00010000
00001000
00000000
00001000
00000000
00000010
00000000
,
00000001
00000100
00000001
00000000
00001000
00000001
00000100
00000000
,
00000001
00001000
00000100
00000000
00001000
00000000
00000010
00000000
,
00011000
00200000
00010000
00302000
,
00010000
00000000
00203000
00000000
00310000
00000000
01000000
00100000
,
10000000
01000000
00200000
00000000
00001000
00000000
00001000
00300000
,
00001000
00010000
00001000
00000000
00001000
00000000
00001000
00000100
,
00000001
00001000
00000020
00000000
00010000
00000000
00010000
00000030
,
00010000
00001000
00010000
00000000
00010000
00000000
00010000
01000000
,
10000000
00010000
02000000
00000000
00001000
00000000
03001000
00000000
,
00001000
00010000
00001000
00000000
00001000
00000000
00001000
00000010
,
00000001
00001000
00000010
00000000
00001010
00000000
00000010
00000000
,
00000011
00000000
00000001
00000100
00000010
00001000
00000010
00000000
,
00011000
00000000
00000000
00000000
00100000
00000000
00010000
00000000
01000000
00000000
00010000
00000000
10000000
00000000
00000000
10000000
,
00000000
10000000
00000000
00000000
00000000
00000000
00000000
00000000
,
00000000
00000000
00000000
00000000
;
#NOTES:
     dance-double:
     :
     Hard:
     14:
     :
00000000
00000000
00000000
00000000
,
00000000
00000000
00000000
00000000
,
00000000
00000000
00000000
00000000
,
00000000
00000000
00000000
00000000
,
00000000
00000000
00000000
00000000
,
00000010
00000000
00000001
00001000
00000000
00000010
00001000
00000100
,
00000000
00010000
00001000
00100000
00000000
00010000
01000000
00100000
,
10000000
00000000
01000000
00000000
00100000
00000000
00010000
00000000
01000000
00010000
01000000
00010000
01000000
00001000
00020000
00000000
,
00000000
00000000
00000000
00002000
00000000
00000000
00033000
00000000
,
00000020
00000000
00000000
00000000
00010030
00000000
00000010
00001000
00000020
00000000
00000000
00000000
00010030
00000000
00000010
00001000
,
00000010
00000000
00000000
00000100
00000000
00000000
00001000
00000000
00010000
00000000
00000000
00000000
00100000
00000000
10000000
00000000
,
00010000
00000000
00000000
00000000
00010000
00000000
10000000
01000000
10000000
00000000
01000000
00000000
00100000
00000000
00010000
00000000
,
01000000
00000000
00000000
01000000
00000000
00000000
00100000
00000000
00010000
00000000
00001000
00010000
00001000
00010000
00000100
00001000
,
00000200
00000000
00000000
00000000
00010300
00000000
00000100
00001000
00000200
00000000
00000000
00000000
00010300
00000000
00000100
00001000
,
00000100
00000000
00000000
00000010
00000000
00000000
00000001
00000000
00001000
00000000
00000000
00000000
00000110
00000000
00000000
00000000
,
00000012
00000000
00000103
00001000
00002100
00000000
00013000
00100000
,
00210000
00000000
00000000
00000000
10300000
00000000
00010000
10000000
00010000
00000000
01000000
00000000
00100000
00000000
10000000
00000000
,
20000000
00000000
30020000
00000000
00032000
00000000
00003001
00001000
,
00000001
00000000
00000000
00000000
00000001
00000000
00001000
00000010
00001000
00000000
00000100
00000000
00000010
00000000
00000001
00000000
,
00000002
00000000
00002003
00000000
00023000
00000000
10030000
00010000
,
10000000
00000000
00000000
00000000
10000000
00000000
00010000
00100000
00010000
00000000
01000000
00000000
00100000
00000000
10000000
00000000
,
20000000
00000000
32000000
00000000
03002000
00000000
00003100
00000010
,
00000001
00000000
00000000
00000000
00000001
00000000
00000010
00000100
00000010
00000000
00000001
00000000
00001000
00000000
00000100
00000000
,
00000020
00000031
00000020
00001030
,
00000001
00000000
00000100
00000000
00001000
00000000
00010000
00000000
00100000
00000000
00000000
10000000
00010000
00000000
01000000
00000000
,
00100000
00000000
10000000
00000000
01000000
00010000
00000000
00010000
00001000
00000000
00001000
00000100
00000000
00000100
00000001
00000000
,
00000010
00000000
00000001
00000000
00000100
00001000
00000000
00001000
00010000
00000000
00010000
01000000
00000000
01000000
10000000
00000000
,
00100000
00000000
10000000
00000000
01000000
00010000
00000000
00010000
00001000
00000000
00001000
00000100
00000000
00000100
00000001
00000000
,
00000020
00000000
00000000
00002030
00000000
00000000
00003002
00000000
00000000
00000203
00000000
00000000
00001300
00000000
00000001
00000000
,
00000100
00000000
00000010
00000000
00010000
00001000
00010000
00001000
00100000
00000000
00000000
00001000
00000000
00000000
00010000
00000000
,
01000000
00000000
00100000
00000000
00001000
00010000
00001000
00010000
00000010
00000000
00000000
00010000
00000000
00000000
00001000
00000000
,
00000100
00000000
00000010
00000000
00010000
00001000
00010000
00001000
00100000
00000000
00000000
00001000
00000000
00000000
00010000
00000000
,
00001000
00000000
00000000
00010000
00000000
00000000
00011000
00000000
00000000
00000000
00100000
00010000
10000000
01000000
10000000
01000000
,
10000000
00000000
00000000
00000000
00000000
00000000
00000000
00000000
20020000
00000000
00000000
00000000
30030000
00000000
01000000
00000000
00100000
00000000
00000000
00000000
10000000
00000000
00000000
00000000
01000000
00000000
00000000
00010000
00000000
00000000
00001000
00000000
,
00000000
00000000
00000000
00000000
00000000
00000000
00000100
00000000
00000000
00000000
00000000
00000000
00000001
00000000
00000000
00001000
00000000
00000000
00000001
00000000
00000000
00001000
00000000
00000000
00000200
00000000
00000000
00000000
00000000
00000000
00000000
00000000
00000000
00000000
00000000
00000000
00000000
00000000
00000000
00000000
00000000
00000000
00000300
00000000
00000000
00000000
00000000
00000000
00000010
00000000
00000000
00000000
00000001
00000000
00000000
00000000
00000100
00000000
00000000
00000000
00000010
00000000
00000000
00000000
00001000
00000000
00000000
00000000
00000100
00000000
00000000
00000000
00000010
00000000
00000000
00000000
00000000
00000000
00000001
00000000
00000000
00001000
00000000
00000000
00000001
00000000
00000000
00000000
00000000
00000000
00000100
00000000
00000000
00000000
00000000
00000000
,
00000010
00010000
00010000
00010000
00022000
00000000
00033000
01000000
10000000
00000000
00200000
00000000
01000000
01000000
01000000
01300000
,
00000000
00000000
00000000
00000000
00000000
00000000
00010000
00000000
00000000
00000000
00000000
00000000
00000000
00000000
00000000
10000000
00000000
00000000
01000000
00000000
00000000
10000000
00000000
00000000
00020000
00000000
00000000
00000000
00000000
00000000
00000000
00000000
00000000
00000000
00000000
00000000
00000000
00000000
00000000
00000000
00000000
00000000
00030000
00000000
00000000
00000000
00000000
00000000
01000000
00000000
00000000
00000000
00100000
00000000
00000000
00000000
10000000
00000000
00000000
00000000
01000000
00000000
00000000
00000000
00100000
00000000
00000000
00000000
00010000
00000000
00000000
00000000
01000000
00000000
00000000
00000000
00000000
00000000
01000000
00000000
00000000
00000000
00000000
00000000
00001000
00000000
00000000
00010000
00000000
00000000
00001000
00000000
00000000
00000000
00000000
00000000
,
00010000
00000000
00000100
00001000
00000100
00001000
00000001
00000010
00000002
00000000
00000000
00000000
00000000
00000000
00000000
00000000
00000103
00000000
00000000
00000000
00000010
00000000
00000000
00000000
00001010
00000000
00000000
00000000
00000000
00000000
00000000
00000000
,
00011000
00000000
00210000
00000000
00301000
00010000
00100000
10000000
,
01000000
00100000
02100000
00000000
13000000
00010000
00110000
00000000
,
00011000
00000000
00001010
00000000
00010000
00001000
00000010
00000001
,
00000100
00000000
00000010
00000000
00000100
00000000
00000001
00000000
00001000
00000010
00000000
00010000
00001000
00000000
00100000
00010000
,
00000000
10000000
00100000
00000000
10000000
00000000
00010000
00000000
01000000
00001000
00000000
00010000
00000100
00000000
00001000
00000001
,
00000000
00000100
00000001
00000000
00000010
00000000
00000001
00000000
00001000
00000100
00000000
00010000
00001000
00000000
01000000
00010000
,
00000000
10000000
01000000
00000000
10000000
00000000
00010000
00000000
00100000
00001000
00000000
00010000
00000010
00000000
00001000
00000000
,
00000100
00000010
00000002
00000000
00000000
00000000
00000000
00000000
,
00000003
00000000
00000000
00000000
00000100
00000000
00000000
00001000
00000000
00000000
00010000
00000000
00000000
00000000
00001000
00000000
,
00010000
00000000
00000010
00001000
00000010
00000000
00000000
00000000
00000000
00000000
00100000
00010000
00100000
00000000
00000000
00000000
,
00000000
00000000
00000010
00001000
00000010
00000000
00000000
00000100
00000000
00000000
00001000
00000000
00010000
00000000
00000000
00000000
,
00000000
00000000
00001000
00000000
00100000
00000000
00000000
00000000
00000000
00000000
01000000
00100000
01000000
00000000
00100000
00000000
,
00010000
00000000
01000000
00000000
00100000
00000000
00000000
00100000
00000000
00000000
10000000
00000000
00010000
00000000
01000000
00100000
,
01000000
00100000
01000000
00010000
01000000
00000000
00000000
00000000
00000000
00000000
00000100
00001000
00000100
00000000
00000000
00000000
,
00000000
00000000
01000000
00010000
01000000
00000000
00000000
00100000
00000000
00000000
00010000
00000000
00001000
00000000
00000000
00000000
,
00000010
00000000
00000011
00000000
00000000
00000100
00001100
00000000
,
00000000
00000000
00001000
00000000
00000001
00000000
00000000
00000100
00000000
00000000
00001000
00000000
00010000
00000000
00001000
00000000
,
00100000
00010000
00100000
00010000
00100000
00000000
00000000
00000000
00011000
00000000
00100000
00010000
00200000
00000000
00000000
00000000
,
00301000
00000000
00100000
00010000
00100000
00000000
00000000
01000000
00000000
00000000
00010000
00000000
00001000
00000000
00000000
00000000
,
00000010
00000000
00000001
00000000
00001000
00000000
00000000
00000000
00001000
00000000
00000001
00000100
00000001
00000000
00000100
00000000
,
00000010
00000000
00001000
00000000
00000100
00000000
00000000
00000100
00000000
00000000
00000010
00000000
00001000
00000000
00010000
00001000
,
00010000
00001000
01000000
00010000
20000000
00000000
00000000
00000000
00000000
00000000
00000000
00000000
31000000
00000000
00100000
00000000
,
00010000
01010000
00000000
00100000
10000000
11000000
00000000
01010000
,
00000000
00000000
11000000
00000000
00100000
00000000
10000000
00100000
00000000
01000000
00010000
01000000
00001000
00000000
00010000
00001000
,
00000000
00010000
00000010
00010000
00000010
00000000
00001000
00000010
00000000
00001000
00000001
00001000
00000100
00000000
00000010
00000000
,
00000001
00000000
00000100
00000000
00000001
00000000
00001000
00000000
00000001
00000100
00000000
00000100
00001000
00000000
00001000
00010000
,
00000000
00010000
01000000
00000000
10000000
00000000
00000000
00000000
10000000
00000000
00010000
00100000
00010000
00000000
01000000
00000000
,
00100000
00000000
10000000
00000000
10000000
00000000
00010000
00000000
10000000
01000000
00000000
01000000
00010000
00000000
00010000
00001000
,
00000000
00001000
00000100
00000000
00000001
00000000
00000000
00000000
00000001
00000000
00001000
00000010
00001000
00000000
00000100
00000000
,
00000010
00000000
00000001
00000000
00000001
00000000
00001000
00000000
00000001
00000010
00000000
00000010
00001000
00000000
00001000
00010000
,
00000000
00010000
00100000
00000000
10000000
00000000
00000000
00000000
10000000
00000000
00100000
01000000
00100000
00000000
10000000
00000000
,
00010000
01000000
00100000
10000000
00100000
10000000
00010000
10000000
,
00010000
00000000
10000000
00000000
01000000
00000000
00010000
00000000
00001000
00000000
00000010
00000000
00000001
00000000
00000000
00001000
,
00000001
00000000
00001000
00000000
00000001
00000000
00000010
00000000
00001000
00000000
00000010
00000000
00000001
00000000
00001000
00000100
,
00000000
00000010
00000001
00000000
00000000
00000000
00000000
00000000
00000000
00000000
00000000
00000000
00000000
00000000
00000000
00000000
,
00000000
00000000
00000000
00000000
;
