
//----- song ID: show -----//
#TITLE:Show me your moves;
#ARTIST:BEMANI Sound Team “TAG” feat. 柊木りお;
#ARTISTTRANSLIT:BEMANI Sound Team “TAG” feat. Rio Hiiragi;
#BANNER:Show me your moves.png;
#BACKGROUND:Show me your moves-bg.png;
#CDTITLE:./CDTitles/DDR A.png;
#MUSIC:Show me your moves.ogg;
#SAMPLESTART:41.728;
#SAMPLELENGTH:15;
#BPMS:0=155;
#NOTES:
     dance-single:
     :
     Beginner:
     3:
     :
0000
0000
0000
0000
,
0000
0000
0000
0000
,
0000
0000
0000
0000
,
0000
0000
0000
0000
,
0000
0000
0000
0000
,
0001
0000
0010
0000
,
1000
0000
0010
0000
,
0001
0000
1000
0000
,
2002
0000
3003
0000
,
0010
0000
0010
0000
,
1000
0000
1000
0000
,
0001
0000
0000
0000
,
1000
0000
0000
0000
,
0010
0000
0010
0000
,
0001
0000
0001
0000
,
1000
0000
0000
0000
,
0001
0000
0000
0000
,
1000
0000
0100
0000
,
0001
0000
0100
0000
,
1000
0000
0010
0000
,
0001
0000
1000
0000
,
0002
0000
0003
0000
,
2000
0000
3000
0000
,
0020
0000
0000
0000
,
0000
0000
0030
0000
,
0200
0000
0000
0000
,
0300
0000
0000
0000
,
0001
0001
0001
0000
,
1000
1000
1000
0000
,
0001
0000
0010
0000
,
0100
0000
1000
0000
,
1000
1000
1000
0000
,
0001
0001
0001
0000
,
0010
0000
0010
0000
,
0100
0000
0100
0000
,
1000
1000
1000
0000
,
0001
0001
0001
0000
,
0010
0000
0001
0000
,
1000
0000
0010
0000
,
0200
0000
0300
0000
,
0010
0010
0010
0000
,
0100
0000
0001
0000
,
0000
0000
0000
0000
,
1000
0000
1000
0000
,
0010
0000
0010
0000
,
0001
0000
0001
0000
,
0100
0000
0100
0000
,
1000
1000
1000
0000
,
0001
0001
0001
0000
,
0010
0010
0010
0000
,
0100
0100
0100
0000
,
0002
0000
0003
0000
,
0020
0000
0030
0000
,
2000
0000
3000
0000
,
0200
0000
0300
0000
,
2000
0000
3000
0000
,
0020
0000
0030
0000
,
0002
0000
0003
0000
,
0200
0000
0300
0000
,
0001
0001
0001
0000
,
1000
1000
1000
0000
,
0010
0000
1000
0000
,
0001
0000
0010
0000
,
0200
0000
0300
0000
,
0010
0010
0010
0000
,
0100
0000
1000
0000
,
0000
0000
0000
0000
,
0001
0001
0001
0000
,
0010
0000
0100
0000
,
1000
1000
1000
0000
,
0010
0000
0100
0000
,
0001
0001
0001
0000
,
0010
0000
0100
0000
,
2000
0000
3000
0000
,
0002
0000
0003
0000
,
1000
0000
0010
0000
,
0001
0000
0010
0000
,
1000
0000
0100
0000
,
0001
0000
1000
0000
,
1001
0000
0000
0000
,
0000
0000
0000
0000
;
#NOTES:
     dance-single:
     :
     Easy:
     6:
     :
0000
0000
0000
0000
,
0000
0000
0000
0000
,
0000
0000
0000
0000
,
0000
0000
0000
0000
,
0000
0000
0000
0000
,
1000
1000
0010
0000
,
0001
0001
0010
0000
,
1000
1000
0100
0000
,
2002
0000
0000
3003
,
0010
0010
1000
0100
,
0002
0010
0010
0013
,
0100
0100
0010
0100
,
1000
0100
0001
0100
,
0001
1000
0010
0001
,
2000
0010
0010
3010
,
1000
0001
0100
0010
,
1001
0000
0010
0010
,
0001
0010
1000
0100
,
0001
0100
1000
0010
,
0001
0010
1000
0010
,
0001
1000
0220
0330
,
1000
0010
0020
0030
,
0001
0010
0020
0030
,
2000
0000
0000
0000
,
0000
0000
0000
3000
,
0002
0000
0000
0000
,
0003
0000
0000
0000
,
0010
0100
0001
0100
,
1000
0100
2002
3003
,
0010
0100
1000
0100
,
0001
0100
2002
3003
,
0010
1000
0010
0100
,
0001
0100
0220
0330
,
2000
3000
0002
0003
,
0100
0001
2002
3003
,
0001
1000
0010
1000
,
0010
0001
2002
3003
,
0010
0001
1000
0001
,
0010
0010
0010
0000
,
0200
0300
2000
3000
,
0001
0010
1000
0100
,
0002
0003
0020
0000
,
0000
0000
0000
0030
,
1000
1000
0010
0000
,
0001
0001
0010
0000
,
1000
1000
0010
0000
,
0002
0003
2000
3000
,
0010
1000
0010
1000
,
0001
1000
0001
1000
,
0100
1000
0100
1000
,
0010
0100
0020
0030
,
0001
0000
0010
0000
,
1000
0010
0001
0000
,
1000
0000
0010
0000
,
0001
0010
1000
0000
,
0010
0000
0100
0000
,
0010
0100
0010
0000
,
1000
0000
0001
0000
,
0010
0000
0100
0000
,
1000
0001
0010
0001
,
0010
1000
2002
3003
,
0010
1000
0001
1000
,
0010
0010
0010
0000
,
0200
0300
0002
0003
,
1000
0010
0001
0100
,
2000
3000
0020
0000
,
0000
0030
0002
0003
,
1000
0010
0100
0010
,
2000
3000
0002
0003
,
0001
0010
0100
0010
,
0002
0003
2000
3000
,
1000
0100
0010
0100
,
2000
3000
0002
0003
,
0020
0000
0000
0030
,
0200
0000
0000
0300
,
0010
0001
0100
0000
,
0010
1000
0100
0000
,
0010
0001
0100
1000
,
0010
0010
0100
0100
,
1001
0000
0000
0000
,
0000
0000
0000
0000
;
#NOTES:
     dance-single:
     :
     Medium:
     8:
     :
0000
0000
0000
0000
,
0000
0000
0000
0000
,
0000
0000
0000
0000
,
0000
0000
0000
0000
,
0000
0000
0000
0000
,
0001
0010
1000
0010
,
0001
0010
1000
0010
,
0001
1000
0100
0000
0010
0001
0100
0000
,
0010
1000
0001
1000
0100
0000
1001
0000
,
0010
0000
0010
0000
0001
0010
0100
0000
,
2000
3010
0002
0013
,
0100
0000
0100
0000
0010
0001
0100
0000
,
0002
0103
2000
3100
,
1000
0000
0001
0000
0010
0001
1000
0000
,
0002
0013
2000
3010
,
0001
0000
1000
0000
0100
1000
0001
0000
,
1000
0000
0001
0000
0010
0100
0010
0100
,
1000
0000
0010
0000
0001
0010
0100
0000
,
1000
0000
0100
0000
0001
0100
0010
0000
,
1000
1010
0001
0011
,
0110
1001
0220
0330
,
0001
0000
0000
0001
0000
0000
0001
0000
0020
0000
0000
0000
0030
0000
0000
0000
,
1000
0000
0000
1000
0000
0000
1000
0000
0010
0000
0000
0000
1010
0000
0000
0000
,
0002
0100
2003
0100
,
3002
0100
2003
0100
,
3001
0100
0010
0000
1000
0100
0010
0000
,
2001
0000
0000
3010
,
1010
0000
0101
0000
1000
0010
0100
0000
,
0001
1000
0100
0000
2200
0000
3300
0000
,
0011
0000
1100
0000
0001
0010
0100
0000
,
1000
0001
0100
0000
0202
0000
0303
0000
,
0110
0000
1001
0000
0010
1000
0100
0000
,
0010
0001
0100
0000
2020
0000
3030
0000
,
0002
0013
2000
3010
,
0100
0001
1000
0000
0220
0000
0330
0000
,
1100
0000
0101
0000
0010
0100
0001
0000
,
0010
0100
1000
0000
2002
0000
3003
0000
,
0010
0000
1000
0000
0001
0100
0000
1010
,
0000
0101
0000
2020
0000
0000
3030
0000
,
0002
0000
0003
0010
0200
0000
0300
0000
,
1000
0010
0001
0100
,
2000
0000
3000
0100
0020
0000
0000
0000
,
0000
0000
0000
0030
,
0001
0000
0001
0000
0010
0001
0100
0000
,
1000
0000
1000
0000
0010
1000
0100
0000
,
0001
0000
0001
0000
0010
0001
0100
0000
,
2000
0010
0001
3100
,
0001
0000
0001
0000
0010
0001
0010
0000
,
1000
0000
1000
0000
0010
1000
0010
0000
,
0001
0000
0001
0000
0100
0001
0100
0000
,
0110
1001
0220
0330
,
1000
0000
0010
0000
1000
0001
0100
0000
,
0002
0010
1003
0000
,
0001
0000
0010
0000
0001
1000
0100
0000
,
2000
0010
3001
0000
,
0010
0000
0100
0000
0010
0001
0100
0000
,
0010
0100
2002
3003
,
0010
0000
0000
0001
1000
0000
0000
0010
,
0100
0010
2002
3003
,
0101
0000
1100
0000
0010
0100
1000
0000
,
0010
0100
0001
0000
2002
0000
3003
0000
,
0010
0000
0001
0000
1000
0100
0000
0011
,
0000
1100
0000
0022
0000
0000
0033
0000
,
2000
0000
3000
0010
0200
0000
0300
0000
,
0001
0010
1000
0100
,
0002
0000
0003
0100
0020
0000
0000
0000
,
0000
0030
2000
3000
,
0001
0000
0010
0000
0001
0100
0010
0000
,
2000
0010
3002
0010
,
1003
0000
0100
0000
0010
0001
0100
0000
,
0002
0010
2003
0010
,
3001
0000
0100
0000
0010
1000
0100
0000
,
0002
0100
2003
0100
,
3002
0010
1000
0100
,
2003
0010
0001
3100
,
0010
0000
0001
0000
1000
0001
0100
0000
,
0010
0000
1000
0000
0001
1000
0100
0000
,
0010
0001
0100
0000
0010
1000
0100
0000
,
0001
0000
0010
0000
1000
0001
0100
0010
,
0100
0000
0000
0000
,
0000
0000
0000
0000
;
#NOTES:
     dance-single:
     :
     Hard:
     11:
     :
0000
0000
0000
0000
,
0000
0000
0000
0000
,
0000
0000
0000
0000
,
0000
0000
0000
0000
,
0000
0000
0000
0000
,
2010
3100
0012
0103
,
0210
0301
0210
1300
,
0010
1000
0001
0000
0010
0001
1000
0000
,
0001
0000
0100
0000
0010
0000
1000
0000
0001
0000
0000
0001
1000
0000
0100
0000
,
0010
0000
0011
0000
0100
1000
0010
1000
,
0002
0010
1000
0013
,
1000
0000
1010
0000
0100
0001
0010
0001
,
2000
0010
0001
3010
,
0001
0000
0110
0000
1000
0010
0001
0010
,
2000
0010
3002
0010
,
1003
0000
0110
0000
1000
0100
0001
0100
,
1000
0000
0001
0000
0010
0100
0010
0100
,
1000
0100
0010
0000
0001
0010
0100
0000
,
1000
0010
0100
0000
0001
0100
0010
0000
,
1010
0011
0101
1100
,
0001
0000
0000
0100
0000
0000
0010
0000
2020
0000
0000
0000
3030
0000
0000
0000
,
1000
0000
0000
0100
0000
0000
0010
0000
0012
0000
0000
0000
1003
0000
0010
0000
,
0100
0000
0000
0010
0000
0000
1000
0000
1001
0000
0000
0000
0110
0000
0000
0000
,
2000
0010
0001
0100
,
3002
0010
1000
0100
,
1003
0100
0010
0001
1000
0010
0100
0001
,
1000
0000
0000
0010
0000
0000
0001
0000
0000
0100
0000
0000
1000
0000
0000
0000
,
0001
0010
0100
1000
0001
1000
0100
0010
,
0001
0100
1010
0000
0202
0000
0303
0000
,
1000
0010
0100
0001
1000
0001
0100
0010
,
1000
0100
0011
0000
2200
0000
3300
0000
,
0001
0100
0010
1000
0001
1000
0010
0100
,
0001
0010
0100
1000
0200
0000
0300
0000
,
0120
0000
0031
0100
0120
0000
1030
0100
,
0110
0000
0000
0001
0000
0000
1000
0000
0200
0000
0000
0000
0300
0000
0000
0000
,
0010
0001
1000
0010
0100
0010
1000
0100
,
0010
0100
1100
0000
0202
0000
0303
0000
,
1000
0100
0010
0100
0001
0100
0000
1100
,
0000
0101
0000
0022
0000
0000
0033
0000
,
1001
0000
0010
0100
0220
0000
0330
0000
,
0021
0230
2300
3002
,
0203
0000
0000
0010
0020
0000
0000
0000
,
0000
0000
0000
0330
,
2000
0000
0000
0010
0000
0000
3010
0000
0000
0100
0000
0000
0010
0000
1000
0000
,
0002
0000
0000
0010
0000
0000
0013
0000
0000
0100
0000
0000
0010
0000
0001
0000
,
2000
0000
0000
0010
0000
0000
3010
0000
0000
0100
0000
0000
0010
0000
1000
0000
,
0001
0000
0000
0010
0000
0000
0001
0000
1000
0000
0000
0000
0001
0000
0000
0000
,
1000
0000
0000
0010
1000
0000
0001
0000
1000
0000
0100
0000
0010
0000
0000
0000
,
0001
0000
0000
0010
0001
0000
1000
0000
0001
0000
0100
0000
0010
0000
0000
0000
,
1000
0000
0000
0100
1000
0000
0001
0000
1000
0000
0010
0000
0100
0000
0000
0000
,
0001
0000
0000
1000
0000
0000
0001
0000
0220
0000
0000
0000
0330
0000
0000
0000
,
0001
0010
1000
0002
0000
0103
1000
0002
,
0000
1003
0100
0000
0022
0000
0033
0000
,
1000
0010
0001
2000
0000
3100
0001
2000
,
0000
3001
0100
0000
2020
0000
3030
0000
,
0001
0100
1000
0002
0000
0013
1000
0002
,
0000
1003
0010
1000
2002
0000
3003
0000
,
0010
0000
0000
1000
0001
0000
0000
0010
,
0100
0000
0000
0010
0000
0000
0001
0000
1000
0000
0000
0000
0110
0000
0000
0000
,
0100
0001
1000
0100
0010
0100
1000
0010
,
0100
0010
1010
0000
0022
0000
0033
0000
,
1000
0010
0100
0010
0001
0010
0000
1010
,
0000
0011
0000
0202
0000
0000
0303
0000
,
1001
0000
0100
0010
0220
0000
0330
0000
,
0201
0320
2030
3002
,
0023
0000
0000
0100
0200
0000
0000
0000
,
0000
0030
2000
0300
,
3001
0000
0100
0010
1000
0010
0100
0000
,
0201
0310
1200
0310
,
0001
0000
1000
0100
0010
0001
1000
0000
,
1020
0130
0021
0130
,
1000
0000
0001
0010
0001
1000
0001
0000
,
0120
1030
0120
0031
,
2000
0010
0100
0010
,
3002
0000
0000
0000
0010
0000
0000
0000
0103
0000
0000
0001
1000
0000
0001
0000
,
0010
0001
0100
0000
0010
1000
0100
0000
,
0010
0001
1000
0000
0010
1000
0001
0000
,
1000
0100
0010
0001
1000
0001
0100
0010
,
1000
0000
0000
1000
0000
0000
0001
0000
0000
0010
0100
0000
1000
0000
0001
0000
,
1000
0000
0000
0000
,
0000
0000
0000
0000
;
#NOTES:
     dance-single:
     :
     Challenge:
     14:
     :
0000
0000
0000
0000
,
0000
0000
0000
0000
,
0000
0000
0000
0000
,
0000
0000
0000
0000
,
0000
0000
0000
0000
,
0001
0010
0001
0010
0100
1000
0100
1000
,
0001
0100
0001
0100
0010
1000
0010
1000
,
0010
0100
0010
0100
0010
0100
0010
0100
0001
1000
0001
1000
0001
1000
0001
1000
,
0100
0000
0010
0000
0001
0000
1000
0000
0001
0000
0000
0100
0010
0000
1000
0000
,
0001
0000
1100
0000
0010
0001
0100
0001
,
1000
0000
0010
1000
0010
0000
0100
0010
0100
0000
0001
0100
0001
0000
1000
0001
,
1000
0000
0101
0000
0010
1000
0100
1000
,
0001
0000
0010
0001
0010
0000
0100
0010
0100
0000
1000
0100
1000
0000
0001
1000
,
0001
0000
0110
0000
0001
0010
1000
0001
,
0100
0000
1000
0100
1000
0000
0100
0010
0100
0000
0001
0100
0001
0000
0100
1000
,
0100
0000
0110
0000
1000
0010
0001
1000
,
0100
0000
0010
0000
0100
0100
0100
0100
,
0001
0100
0010
0100
0010
1000
0100
0010
,
0001
0010
0100
0010
0001
1000
0100
0010
,
0011
0000
0000
0010
1000
0000
0000
1000
0100
0000
0000
0100
0001
0000
0000
0001
,
0010
0000
0000
0100
0010
0000
0001
0000
2002
0000
0000
0000
3003
0000
0000
0000
,
0001
0000
0100
0010
0100
0000
0010
0000
1020
0000
0000
0000
1030
0000
0010
0000
,
1000
0000
0100
0010
0100
0000
0010
0000
0011
0000
0000
0000
0110
0000
0000
0000
,
0001
0000
0010
0000
0001
0010
0000
0010
0001
0000
1000
0000
0001
1000
0000
1000
,
0001
0000
0100
0000
0001
0100
0000
0100
0001
0000
1000
0000
0001
1000
0000
1000
,
0001
0100
0001
0100
0001
0100
0001
0100
0010
1000
0010
1000
0010
1000
0010
1000
,
0001
0000
0000
0110
0000
0000
1000
0000
0000
0110
0000
0000
1001
0000
0000
0000
,
1000
0000
0010
0100
0010
0000
1000
0000
0001
0000
0010
0100
0010
0000
0001
0000
,
1000
0000
0100
0010
0100
0000
1000
0000
0002
0000
0000
0000
0003
0000
0000
0000
,
0001
0000
0100
0010
0100
0000
0001
0000
1000
0000
0100
0010
0100
0000
1000
0000
,
0001
0000
0010
0100
0010
0000
0001
0000
2000
0000
0000
0000
3000
0000
0000
0000
,
0001
0000
0010
1000
0010
0000
0100
0000
1000
0000
0010
0001
0010
0000
0100
0000
,
0001
0000
0010
1000
0010
0000
0100
0000
0020
0000
0000
0000
0030
0000
0000
0000
,
0002
0000
0103
0010
2000
0000
3100
0010
,
0001
0000
1000
0001
1000
0000
0010
0000
0200
0000
0000
0000
0300
0000
0000
0000
,
0001
0000
0100
1000
0100
0000
0010
0000
1000
0000
0100
0001
0100
0000
0010
0000
,
0001
0000
0100
1000
0100
0000
0010
0000
2000
0000
0000
0000
3000
0000
0000
0000
,
0010
0000
1000
0100
0010
0000
0001
0000
1000
0000
0100
0000
0000
0000
0011
0000
,
0000
1100
0000
0022
0000
0000
0033
0000
,
1001
0000
0010
0100
0220
0000
0330
0000
,
1010
0000
0000
0010
0100
0000
0000
0100
0001
0000
0000
0001
1000
0000
0000
1000
,
0200
0000
0000
0010
0020
0000
0000
0000
,
0000
0000
0000
0330
,
0001
0000
0000
0010
0000
0000
0110
0000
0000
0200
0000
0000
0310
0000
0001
0000
,
1000
0000
0000
0010
0000
0000
0110
0000
0000
0200
0000
0000
0310
0000
1000
0000
,
0001
0000
0000
0010
0000
0000
0110
0000
0000
0200
0000
0000
0310
0000
0001
0000
,
1000
0000
0000
0010
0000
0000
0001
0000
0100
0000
0000
0000
1001
0000
0000
0000
,
0010
0000
0000
1000
0001
0000
0010
0000
0001
0100
0001
0000
1000
0000
0010
0000
,
1000
0000
0000
0001
0010
0000
0100
0000
1000
0100
1000
0000
0001
0000
0100
0000
,
0010
0000
0000
1000
0001
0000
1000
0000
0100
0010
0100
0000
1000
0000
0001
0000
,
0010
0000
0000
0001
0000
0000
0100
0000
0220
0000
0000
0000
0330
0000
0000
0000
,
1000
0010
0001
0012
0000
0013
1000
2010
,
0000
3001
0100
0000
2200
0000
3300
0000
,
0001
0010
1000
2010
0000
3010
0001
0012
,
0000
1003
0100
0000
0202
0000
0303
0000
,
1000
0100
0001
0102
0000
0103
1000
2100
,
0000
3001
0010
0001
2002
0000
3003
0000
,
0010
0000
0000
0001
1000
0000
0000
0010
,
0100
0000
0000
0010
0000
0000
1000
0000
0001
0000
0000
0000
0110
0000
0000
0000
,
0001
0000
0010
1000
0010
0000
0100
0000
1000
0000
0010
0001
0010
0000
0100
0000
,
0001
0000
0010
1000
0010
0000
0100
0000
2000
0000
0000
0000
3000
0000
0000
0000
,
0100
0000
1000
0010
0100
0000
0001
0000
1000
0000
0010
0000
0000
0000
0101
0000
,
0000
1010
0000
0202
0000
0000
0303
0000
,
1001
0000
0100
0010
0220
0000
0330
0000
,
1100
0000
0000
0100
0010
0000
0000
0010
0001
0000
0000
0001
1000
0000
0000
1000
,
0020
0000
0000
0100
0200
0000
0000
0000
,
0000
0030
0002
0300
,
1003
0000
0100
0001
0100
1000
0001
0000
,
1000
0100
1000
0000
0001
0000
0000
0000
0100
0010
0100
0000
0001
0000
0000
0000
,
1000
0000
0010
0001
0010
1000
0001
0000
,
0010
0001
0010
0000
0100
0000
0000
0000
1000
0100
1000
0000
0001
0000
0000
0000
,
0100
0000
1000
0100
0001
1000
0100
0000
,
0010
0100
0010
0000
0001
0000
0000
0000
0100
0010
0100
0000
0001
0000
0000
0000
,
2000
0010
0001
0100
,
3002
0000
0000
0000
0010
0000
0000
0000
1003
0000
0000
1000
0001
0000
1000
0000
,
0010
1000
0100
0010
0001
1000
0100
0010
,
0001
0100
0010
1000
0001
0100
0010
1000
,
0001
1000
0001
1000
0001
1000
0001
1000
0010
0100
0010
0100
0010
0100
0010
0100
,
0001
0000
0000
0110
0000
0000
1001
0000
0000
0010
0100
0000
0001
0000
1000
0100
,
1000
0000
0000
0000
,
0000
0000
0000
0000
;
#NOTES:
     dance-double:
     :
     Easy:
     5:
     :
00000000
00000000
00000000
00000000
,
00000000
00000000
00000000
00000000
,
00000000
00000000
00000000
00000000
,
00000000
00000000
00000000
00000000
,
00000000
00000000
00000000
00000000
,
00000001
00000100
00001000
00000000
,
00000100
00001000
00010000
00000000
,
00001000
00010000
00001000
00000000
,
00022000
00000000
00000000
00033000
,
00001000
00010000
01000000
10000000
,
00100000
10000000
00100000
00000000
,
01000000
00100000
10000000
00010000
,
00100000
00001000
00010000
00000000
,
00010000
00001000
00000100
00000001
,
00000010
00000001
00000010
00000000
,
00000001
00001000
00000100
00000010
,
00001001
00000000
00000010
00000010
,
00000100
00001000
00010000
00100000
,
10000000
00010000
01000000
00100000
,
10000000
00100000
00010000
00001000
,
00010000
00001000
00022000
00033000
,
00000010
00001000
00000100
00000000
,
00010000
00001000
00000100
00000000
,
00000002
00000000
00000000
00000000
,
00000000
00000000
00000000
00000003
,
00002000
00000000
00000000
00000000
,
00003000
00000000
00000000
00000000
,
00000001
00000100
00001000
00010000
,
00001000
00010000
01000000
00000000
,
00100000
00010000
01000000
00100000
,
10000000
01000000
00100000
00000000
,
10000000
01000000
00010000
00001000
,
00010000
00001000
00000100
00000000
,
00000002
00000003
00002000
00003000
,
00000010
00001000
00002002
00003003
,
00000001
00000010
00001000
00010000
,
00001000
00010000
00100000
00000000
,
01000000
00010000
00100000
01000000
,
00100000
00100000
00100000
00000000
,
00002000
00003000
00020000
00030000
,
00000010
00001000
00000100
00010000
,
00002000
00003000
00020000
00000000
,
00000000
00000000
00000000
00030000
,
00001000
00001000
00000010
00000000
,
00000001
00000001
00000100
00000000
,
00001000
00001000
00010000
00000000
,
01000000
01000000
10000000
00000000
,
00100000
10000000
00100000
10000000
,
00100000
00010000
00100000
00010000
,
00001000
00010000
00001000
00010000
,
00001000
00000100
00000020
00000030
,
00001000
00000000
00000010
00000000
,
00000001
00000100
00001000
00000000
,
00010000
00000000
00001000
00000000
,
00010000
01000000
10000000
00000000
,
00010000
00000000
10000000
00000000
,
00100000
10000000
00010000
00000000
,
00100000
00000000
00010000
00000000
,
00001000
00000000
00000100
00000000
,
00000001
00000100
00001000
00010000
,
00001000
00010000
01000000
00000000
,
00100000
00010000
01000000
00100000
,
01000000
01000000
01000000
00000000
,
00002000
00003000
00020000
00030000
,
00000100
00001000
00000010
00010000
,
00002000
00003000
00000200
00000000
,
00000000
00000300
00000020
00000030
,
00000001
00000100
00000010
00001000
,
00020000
00000000
01030000
00000000
,
10000000
01000000
00100000
00010000
,
00002000
00000000
00003100
00000000
,
00000001
00000100
00000010
00001000
,
00020000
00000000
01030000
00000000
,
00200000
00000000
00000000
00300000
,
20000000
00000000
00000000
30000000
,
00010000
10000000
01000000
00000000
,
00010000
00001000
00000100
00000000
,
00000001
00000010
00001000
00000000
,
00010000
00010000
00001000
00001000
,
00011000
00000000
00000000
00000000
,
00000000
00000000
00000000
00000000
;
#NOTES:
     dance-double:
     :
     Medium:
     8:
     :
00000000
00000000
00000000
00000000
,
00000000
00000000
00000000
00000000
,
00000000
00000000
00000000
00000000
,
00000000
00000000
00000000
00000000
,
00000000
00000000
00000000
00000000
,
00200000
00310000
00002000
00013000
,
00200000
00310000
00002000
00013000
,
00000010
00001000
00000100
00000000
00000010
00000001
00000100
00000000
,
00001000
00010000
00001000
00010000
00001000
00000000
01010000
00000000
,
00100000
00000000
00100000
00000000
10000000
00100000
01000000
00000000
,
00010000
10000000
01000000
00010000
,
00001000
00000000
00001000
00000000
00010000
00001000
00000010
00000000
,
00000001
00001000
00000010
00001000
,
00000001
00000000
00000100
00000000
00000010
00001000
00000100
00000000
,
00000001
00000100
00001000
00010000
,
00100000
00000000
01000000
00000000
00100000
10000000
01000000
00000000
,
00100000
00000000
01000000
00000000
00010000
00001000
00010000
00001000
,
00010000
00000000
00000100
00000000
00000010
00000100
00001000
00000000
,
00000010
00000000
00001000
00000000
00000001
00000010
00000100
00000000
,
00001000
00000001
00000100
00001000
,
00010000
00001000
00022000
00033000
,
00100000
00000000
00000000
00100000
00000000
00000000
00100000
00000000
00020000
00000000
00000000
00000000
00030000
00000000
00000000
00000000
,
10000000
00000000
00000000
10000000
00000000
00000000
10000000
00000000
00100000
00000000
00000000
00000000
01100000
00000000
00000000
00000000
,
10000000
01000000
00010000
00001000
,
00010000
00001000
00000100
00000001
,
00000010
00000001
00001000
00000000
00000010
00001000
00000001
00000000
,
00000110
00000000
00000000
00001000
,
00000011
00000000
00001100
00000000
00000001
00000100
00001000
00000000
,
00010000
00100000
10000000
00000000
20020000
00000000
30030000
00000000
,
10100000
00000000
01010000
00000000
10000000
01000000
00010000
00000000
,
00001000
00000010
00000001
00000000
00002002
00000000
00003003
00000000
,
00000110
00000000
00001001
00000000
00000001
00000100
00001000
00000000
,
00010000
01000000
10000000
00000000
20020000
00000000
30030000
00000000
,
00100000
10000000
00100000
00010000
,
10000000
01000000
00100000
00000000
20020000
00000000
30030000
00000000
,
10100000
00000000
01010000
00000000
10000000
01000000
00010000
00000000
,
00001000
00000010
00000001
00000000
00002002
00000000
00003003
00000000
,
00000010
00000000
00001000
00000000
00000001
00000010
00000000
00001100
,
00000000
00011000
00000000
00220000
00000000
00000000
00330000
00000000
,
20000000
00000000
30000000
00010000
02000000
00000000
03000000
00000000
,
00010000
00100000
10000000
01000000
,
00020000
00000000
00030000
00001000
00020000
00000000
00000000
00000000
,
00000000
00000000
00000000
00030000
,
00001000
00000000
00010000
00000000
00000010
00001000
00000010
00000000
,
00010000
00000000
00001000
00000000
00100000
00010000
00100000
00000000
,
00001000
00000000
00010000
00000000
00000100
00001000
00000100
00000000
,
00020000
00031000
00000020
00001030
,
00010000
00000000
00001000
00000000
00010000
01000000
00100000
00000000
,
00001000
00000000
00010000
00000000
00001000
00000100
00000010
00000000
,
00010000
00000000
00001000
00000000
00010000
01000000
00100000
00000000
,
00001000
00010000
00022000
00033000
,
00002000
00100000
00023000
00100000
,
00032000
00100000
00013000
00000000
,
00020000
00000010
00032000
00000010
,
00023000
00000010
00031000
00000000
,
00002000
01000000
00023000
01000000
,
00032000
01000000
00013000
00000000
,
00000010
00000000
00000000
00001000
00000001
00000000
00000000
00000100
,
00000010
00001000
00000200
00000300
,
00000011
00000000
00001100
00000000
00000001
00000100
00001000
00000000
,
00010000
00100000
10000000
00000000
20020000
00000000
30030000
00000000
,
00100000
00000000
00010000
00000000
10000000
00100000
00000000
01010000
,
00000000
00011000
00000000
00002020
00000000
00000000
00003030
00000000
,
00000002
00000000
00000003
00001000
00000200
00000000
00000300
00000000
,
00001000
00000010
00000001
00000100
,
00002000
00000000
00003000
00010000
00002000
00000000
00000000
00000000
,
00000000
00003000
02000000
03000000
,
00010000
00000000
10000000
00000000
01000000
00100000
00010000
00000000
,
10000000
01000000
00010000
00001000
,
00100000
00000000
00001000
00000000
00010000
00001000
00000100
00000000
,
00000001
00000010
00001000
00000010
,
00000001
00000000
00000100
00000000
00000010
00001000
00000100
00000000
,
00000010
00001000
00010000
00001000
,
00020000
00000010
00032000
00100000
,
00023000
00000100
00032000
01000000
,
00013000
00000000
00001000
00000000
00010000
01000000
10000000
00000000
,
00100000
00000000
10000000
00000000
00010000
00100000
01000000
00000000
,
00010000
00001000
00010000
00000000
00001000
00000100
00001000
00000000
,
00000100
00000000
00000001
00000000
00000010
00000001
00001000
00000001
,
00000010
00000000
00000000
00000000
,
00000000
00000000
00000000
00000000
;
#NOTES:
     dance-double:
     :
     Hard:
     12:
     :
00000000
00000000
00000000
00000000
,
00000000
00000000
00000000
00000000
,
00000000
00000000
00000000
00000000
,
00000000
00000000
00000000
00000000
,
00000000
00000000
00000000
00000000
,
00021000
00030010
01002000
00013000
,
00210000
00301000
00010200
00001300
,
00000010
00000001
00000100
00000000
00000010
00001000
00000100
00000000
,
00000010
00000000
00000001
00000000
00000100
00000000
00001000
00000000
00010000
00000000
00000000
00100000
01000000
00000000
00100000
00000000
,
10000000
00000000
01100000
00000000
00010000
10000000
01000000
10000000
,
00020000
10000000
00100000
00031000
,
00000100
00000000
00000110
00000000
00001000
00000001
00000010
00000001
,
00002000
00000001
00000010
00013000
,
01000000
00000000
10100000
00000000
01000000
10000000
00100000
10000000
,
00020000
10000000
01000000
00031000
,
00000010
00000000
00000101
00000000
00000010
00000001
00000100
00000001
,
00000010
00000000
00001000
00000000
00000001
00000100
00001000
00010000
,
00001000
00100000
00010000
00000000
00100000
00001000
00010000
00000000
,
00000010
00001000
00000100
00000000
00010000
00001000
01000000
00000000
,
01020000
10000000
00100000
00032000
,
00000100
00000001
00000020
00003030
,
00000001
00000000
00000000
00000100
00000000
00000000
00001000
00000000
00011000
00000000
00000000
00000000
00001000
00000000
00010000
00000000
,
00100000
00000000
00000000
10000000
00000000
00000000
01000000
00000000
00100000
00000000
00000000
00000000
10010000
00000000
00000000
00000000
,
00102000
00010000
00203000
00010000
,
00302000
00010000
00203000
00310000
,
00001000
00000100
00000010
00000001
00000100
00000010
00001000
00000001
,
00000100
00000000
00000000
00001000
00000000
00000000
00010000
00000000
00000000
01000000
00000000
00000000
10000000
00000000
00000000
00000000
,
00100000
10000000
00010000
10000000
01000000
00100000
00001000
00010000
,
00001000
00000100
00000010
00000000
00002002
00000000
00003003
00000000
,
00000010
00000001
00001000
00000001
00000100
00001000
00010000
00001000
,
00010000
01000000
10000000
00000000
02020000
00000000
03030000
00000000
,
00100000
00001000
00010000
00100000
00010000
00001000
00100000
00001000
,
00010000
00001000
00000010
00000001
00002000
00000000
00003000
00000000
,
00000120
00000000
00010030
00001000
00021000
00000000
00030100
00001000
,
00001100
00000000
00000000
00000010
00000000
00000000
00001000
00000000
00020000
00000000
00000000
00000000
00030000
00000000
00000000
00000000
,
00000010
00001000
00000001
00001000
00000010
00001000
00010000
01000000
,
00100000
10000000
00010000
00000000
02200000
00000000
03300000
00000000
,
10000000
00100000
00010000
00100000
10000000
00010000
00000000
00101000
,
00000000
00010100
00000000
00002002
00000000
00000000
00003003
00000000
,
00000110
00000000
00000001
00000100
00000020
00000000
00000030
00000000
,
00000001
00001000
00010000
10000000
,
00200000
00000000
00000000
01000000
02000000
00000000
00000000
00000000
,
00000000
00000000
00000000
03300000
,
10000000
00000000
00000000
01000000
00000000
00000000
01000000
00000000
00000000
00100000
00000000
00000000
00010000
00000000
00001000
00000000
,
00010000
00000000
00000000
00001000
00000000
00000000
00001000
00000000
00000000
00000100
00000000
00000000
00000010
00000000
00000001
00000000
,
00000100
00000000
00000000
00000010
00000000
00000000
00000010
00000000
00000000
00001000
00000000
00000000
00010000
00000000
00001000
00000000
,
00010000
00000000
00000000
01000000
00000000
00000000
00100000
00000000
10000000
00000000
00000000
00000000
00010000
00000000
00000000
00000000
,
10000000
00000000
00000000
01000000
00000000
00000000
00010000
00000000
00000000
00001000
00000000
00000000
00000010
00000000
00000010
00000000
,
00000001
00000000
00000000
00000100
00000000
00000000
00001000
00000000
00000000
00010000
00000000
00000000
00100000
00000000
00100000
00000000
,
10000000
00000000
00000000
01000000
00000000
00000000
00010000
00000000
00000000
00001000
00000000
00000000
00000010
00000000
00000010
00000000
,
00000001
00000000
00000000
00000010
00000000
00000000
00000100
00000000
00002200
00000000
00000000
00000000
00003300
00000000
00000000
00000000
,
00010000
00001000
00000100
00000020
00000000
00000130
00001000
00020000
,
00000000
01030000
10000000
00000000
02020000
00000000
03030000
00000000
,
00001000
00010000
00100000
02000000
00000000
03100000
00010000
00002000
,
00000000
00003010
00000001
00000000
00002020
00000000
00003030
00000000
,
00010000
00001000
00000010
00000200
00000000
00000310
00001000
00020000
,
00000000
00130000
01000000
00100000
20020000
00000000
30030000
00000000
,
00100000
00000000
00000000
00001000
00010000
00000000
00000000
00000010
,
00000100
00000000
00000000
00000010
00000000
00000000
00010000
00000000
00001000
00000000
00000000
00000000
00011000
00000000
00000000
00000000
,
00100000
00010000
10000000
00010000
00100000
00010000
00001000
00000100
,
00000010
00000001
00001000
00000000
00000220
00000000
00000330
00000000
,
00000001
00000010
00001000
00000010
00000001
00001000
00000000
00010010
,
00000000
01001000
00000000
20020000
00000000
00000000
30030000
00000000
,
01100000
00000000
10000000
01000000
00200000
00000000
00300000
00000000
,
10000000
00010000
00001000
00000001
,
00000020
00000000
00000000
00000100
00000200
00000000
00000000
00000000
,
00000000
00000330
00002000
00000000
,
00003001
00000000
00000100
00001000
00010000
00001000
00010000
00000000
,
00021000
00030010
01002000
00013000
,
00001000
00000000
00100000
01000000
10000000
01000000
00100000
00000000
,
00012000
00103000
00020100
00031000
,
00010000
00000000
00000010
00000100
00000001
00000100
00000010
00000000
,
00021000
00030100
00102000
00013000
,
00001000
00010000
01000000
10000000
,
00100000
00000000
00000000
00000000
00010000
00000000
00000000
00000000
00001000
00000000
00000000
00010000
00001000
00000000
00010000
00000000
,
00000010
00001000
00000100
00000000
00000010
00000001
00000100
00000000
,
00000010
00010000
00001000
00000000
00100000
00010000
10000000
00000000
,
00100000
10000000
01000000
00010000
00001000
00000100
00000001
00000010
,
00000001
00000000
00000000
00000001
00000000
00000000
00001000
00000000
00000000
00000010
00000100
00000000
00000001
00000000
00001000
00000000
,
00000001
00000000
00000000
00000000
,
00000000
00000000
00000000
00000000
;
#NOTES:
     dance-double:
     :
     Challenge:
     14:
     :
00000000
00000000
00000000
00000000
,
00000000
00000000
00000000
00000000
,
00000000
00000000
00000000
00000000
,
00000000
00000000
00000000
00000000
,
00000000
00000000
00000000
00000000
,
10000000
00100000
10000000
00100000
01000000
00001000
01000000
00001000
,
00010000
00000010
00010000
00000010
00000100
00000001
00000100
00000001
,
00000010
00000100
00000010
00000100
00000010
00000100
00000010
00000100
00001000
00000001
00001000
00000001
00001000
00000001
00001000
00000001
,
00000100
00000000
00000010
00000000
00001000
00000000
00010000
00000000
01000000
00000000
00000000
00100000
10000000
00000000
00010000
00000000
,
01000000
00000000
10100000
00000000
10000000
01000000
00010000
00001000
,
00010000
00000000
00000010
00001000
00000010
00000000
00010000
00001000
00010000
00000000
00000100
00001000
00000100
00000000
00000010
00000000
,
00000001
00000000
00001100
00000000
00000001
00000010
00001000
00010000
,
00001000
00000000
00100000
00010000
00100000
00000000
00001000
00010000
00001000
00000000
01000000
00010000
01000000
00000000
00100000
00000000
,
10000000
00000000
10010000
00000000
10000000
01000000
00100000
00010000
,
00001000
00000000
00010000
00001000
00010000
00000000
00001000
00000100
00001000
00000000
00000100
00000010
00000100
00000000
00000010
00000000
,
00000001
00000000
00000110
00000000
00000001
00000100
00000010
00001000
,
00010000
00000000
01000000
00000000
00100000
00100000
00100000
00000000
,
10000000
00100000
01000000
00010000
10000000
00100000
00010000
00001000
,
00000100
00000001
00000010
00000100
00000010
00001000
00010000
01000000
,
20000000
30020000
00032000
00023000
,
10030000
00000000
00000000
01000000
00100000
00000000
00010000
00000000
20020000
00000000
00000000
00000000
30030000
00000000
00000000
00000000
,
10000000
00000000
00100000
01000000
00100000
00000000
01000000
00000000
00010000
00000000
00000000
00000000
00001000
00000000
00000001
00000000
,
00000100
00000000
00000010
00001000
00000010
00000000
00000100
00000000
00000001
00000000
00000000
00000000
00001100
00000000
00000000
00000000
,
00000001
00000000
00000010
00000000
00000001
00000010
00000000
00000001
00001000
00000000
00000100
00000000
00001000
00000100
00000000
00001000
,
00000010
00000000
00010000
00000000
00001000
00010000
00000000
00001000
01000000
00000000
00010000
00000000
01000000
00010000
00000000
01000000
,
00100000
01000000
00100000
01000000
00100000
01000000
00100000
01000000
00010000
10000000
00010000
10000000
00010000
10000000
00010000
10000000
,
01000000
00000000
00000000
10000000
00000000
00000000
00100000
00000000
00000000
00010000
00000000
00000000
01100000
00000000
00000000
00000000
,
10000000
00000000
01000000
10000000
01000000
00000000
00010000
00000000
00001000
00000000
00010000
00001000
00010000
00000000
00001000
00000000
,
00000100
00000000
00000001
00000100
00000001
00000000
00001000
00000000
00000020
00000000
00000000
00000000
00000030
00000000
00000000
00000000
,
00000001
00000000
00000100
00000001
00000100
00000000
00001000
00000000
00010000
00000000
00001000
00010000
00001000
00000000
00010000
00000000
,
01000000
00000000
10000000
01000000
10000000
00000000
00010000
00000000
00200000
00000000
00000000
00000000
00300000
00000000
00000000
00000000
,
00001000
00000000
00100000
01000000
00100000
00000000
00001000
00000000
00010000
00000000
00000010
00000100
00000010
00000000
00010000
00000000
,
00001000
00000000
00100000
01000000
00100000
00000000
00001000
00000000
00020000
00000000
00000000
00000000
00030000
00000000
00000000
00000000
,
00002000
00000000
00003010
00000001
00002000
00000000
00003010
00000100
,
00000001
00000000
00001000
00000100
00001000
00000000
00000010
00000000
00002000
00000000
00000000
00000000
00003000
00000000
00000000
00000000
,
00000001
00000000
00000010
00000001
00000010
00000000
00001000
00000000
00010000
00000000
00001000
00010000
00001000
00000000
00010000
00000000
,
00100000
00000000
10000000
00100000
10000000
00000000
00010000
00000000
02000000
00000000
00000000
00000000
03000000
00000000
00000000
00000000
,
10000000
01000000
00010000
00001000
00000001
00000100
00000000
00001010
,
00000000
00000101
00000000
00002020
00000000
00000000
00003030
00000000
,
00001001
00000000
00000100
00002000
00020000
00000000
00033000
00000000
,
00000010
00000000
00000000
00000010
00001000
00000000
00000000
00001000
00010000
00000000
00000000
00010000
01000000
00000000
00000000
01000000
,
00200000
00000000
00000000
01000000
02000000
00000000
00000000
00000000
,
00000000
00000000
00000000
03300000
,
00020000
00100000
20030000
00100000
,
32000000
03020000
20030000
30020000
,
00032000
00100000
00023000
00100000
,
00032000
00003020
00000032
00001003
,
00000110
00000000
00000000
00000001
00000100
00000000
00000010
00000000
00010000
00001000
00010000
00000000
00001000
00000000
00000000
00000000
,
00011000
00000000
00000000
01000000
10000000
00000000
00010000
00000000
10000000
00010000
10000000
00000000
00100000
00000000
00000000
00000000
,
01100000
00000000
00000000
00100000
00010000
00000000
00001000
00000000
00010000
00001000
00010000
00000000
00000100
00000000
00001000
00000000
,
00000001
00000000
00000000
00000010
00000000
00000000
00000100
00000000
00000220
00000000
00000000
00000000
00000330
00000000
00000000
00000000
,
00001000
00000010
00000100
00002000
00000000
00103000
01000000
00020000
,
00000000
00030010
00000100
00000000
00002002
00000000
00003003
00000000
,
00001000
00000100
00000010
00002000
00000000
01003000
00100000
00020000
,
00000000
00030100
00000010
00000000
00002002
00000000
00003003
00000000
,
00000001
00000100
00010000
00002000
00000000
00103000
10000000
00020000
,
00000000
00130000
01000000
10000000
00020000
00000000
00030000
00000000
,
00001000
00000000
00000000
00000010
00001000
00000000
00000000
00000100
,
00001000
00000000
00000000
00010000
00000000
00000000
00100000
00000000
01000000
00000000
00000000
00000000
10010000
00000000
00000000
00000000
,
10000000
00000000
00100000
10000000
00100000
00000000
00010000
00000000
00001000
00000000
00010000
00001000
00010000
00000000
00001000
00000000
,
00000010
00000000
00000001
00000010
00000001
00000000
00001000
00000000
00000200
00000000
00000000
00000000
00000300
00000000
00000000
00000000
,
00000001
00000100
00001000
00010000
10000000
01000000
00000000
00110000
,
00000000
11000000
00000000
00220000
00000000
00000000
00330000
00000000
,
10010000
00000000
01000000
00020000
00002000
00000000
00033000
00000000
,
00100000
00000000
00000000
00100000
00010000
00000000
00000000
00010000
00001000
00000000
00000000
00001000
00000100
00000000
00000000
00000100
,
00000020
00000000
00000000
00000100
00000200
00000000
00000000
00000000
,
00000000
00000030
00002000
00000300
,
00003001
00000100
00010000
00001000
00100000
00010000
00001000
00000000
,
00102000
01003000
01200000
10300000
,
10000000
01000000
00001000
00010000
00000010
00001000
00010000
00000000
,
00020010
00030100
00000120
00000031
,
00000001
00000010
00010000
00001000
01000000
00010000
00001000
00000000
,
01002000
00103000
02100000
13000000
,
00020000
01000000
10000000
00100000
,
00032000
00000000
00000000
00000000
00000100
00000000
00000000
00000000
00003001
00000000
00000000
00000010
00000100
00000000
00000010
00000000
,
00001000
00000001
00000100
00001000
00010000
01000000
10000000
00100000
,
00010000
00100000
10000000
01000000
00010000
00001000
00000100
00000001
,
00001000
00000100
00001000
00000100
00001000
00000100
00001000
00000100
00000010
00000001
00000010
00000001
00000010
00000001
00000010
00000001
,
00001000
00000000
00000000
00001010
00000000
00000000
00011000
00000000
00000000
00100000
00010000
00000000
01000000
00000000
00100000
10000000
,
00100000
00000000
00000000
00000000
,
00000000
00000000
00000000
00000000
;
