
//----- song ID: shia -----//
#TITLE:幸せになれる隠しコマンドがあるらしい;
#ARTIST:うたたP feat. 結月ゆかり;
#TITLETRANSLIT:Shiawase ni nareru kakushi command ga arurashii;
#ARTISTTRANSLIT:UtataP feat. Yuzuki Yukari;
#BANNER:Shiawase ni nareru kakushi command ga arurashii.png;
#BACKGROUND:Shiawase ni nareru kakushi command ga arurashii-bg.png;
#CDTITLE:./CDTitles/SDVX III GRAVITY WARS.png;
#MUSIC:Shiawase ni nareru kakushi command ga arurashii.ogg;
#SAMPLESTART:86.24;
#SAMPLELENGTH:15;
#BPMS:0=142;
#NOTES:
     dance-single:
     :
     Beginner:
     2:
     :
0000
0000
0000
0000
,
0000
0000
0000
0000
,
0000
0000
0000
0000
,
0000
0000
0000
0000
,
0000
0000
0000
0000
,
0001
0000
0010
0000
,
0001
0000
0001
0000
,
0010
0000
0100
0000
,
1000
0000
1000
0000
,
0001
0000
0010
0000
,
0001
0000
0001
0000
,
0010
0000
0100
0000
,
0000
0001
0000
0001
,
0001
0000
0010
0000
,
0001
0000
0001
0000
,
0010
0000
0100
0000
,
0020
0000
0000
0030
,
0000
0000
0000
0000
,
0001
0000
0010
0000
,
0001
0000
0001
0001
,
0000
0010
0000
0100
,
0000
0001
0000
0001
,
0001
0000
0010
0000
,
0001
0000
0001
0001
,
0000
0010
0000
0100
,
0000
0000
0000
0000
,
0001
0100
0000
0000
,
0000
0000
0000
0000
,
0010
0000
0100
0000
,
1000
0000
0001
0000
,
0001
0000
0010
0000
,
0001
0000
1000
0000
,
0000
0010
0000
0100
,
0000
0000
0000
0000
,
0000
0000
0000
0000
,
0000
1000
0000
0001
,
0000
1000
0000
0001
,
0000
1000
0000
0001
,
0000
1000
0000
0001
,
0000
0010
0000
0001
,
0000
0010
0000
0001
,
0000
0010
0000
0001
,
0000
0000
0000
0000
,
0001
0000
1000
0000
,
0001
0000
1000
0000
,
0001
0001
0001
0000
,
0010
0000
1000
0000
,
0100
0100
0100
0000
,
0010
0010
0010
0000
,
0001
0000
0001
0000
,
0220
0000
0000
0330
,
0000
0000
0000
0000
,
0001
0000
0000
0000
,
1000
0000
0000
0000
,
0001
0000
0000
0000
,
0010
0000
0010
0000
,
0010
0010
0010
0000
,
0001
0000
0001
0000
,
0010
0010
0010
0000
,
0001
0000
1000
0000
,
0010
0010
0010
0000
,
0100
0000
0001
0000
,
0010
0010
0010
0000
,
1000
0000
1000
0000
,
0001
0001
0001
0000
,
1000
0000
0001
0000
,
2000
0000
3000
0000
,
0001
0000
0010
0000
,
0001
0000
0001
0000
,
0000
0010
0000
0100
,
0000
0001
0000
0001
,
0001
0000
0010
0000
,
0001
0000
0001
0000
,
0000
0010
0000
0100
,
0000
0001
0000
0001
,
0002
0003
0000
0000
,
0000
0000
0000
0000
;
#NOTES:
     dance-single:
     :
     Easy:
     6:
     :
0000
0000
0000
0000
,
0000
0000
0000
0000
,
0000
0000
0000
0000
,
0000
0000
0000
0000
,
0000
0000
0000
0000
,
0001
0100
0010
0001
,
0001
0100
0001
0001
,
0010
0010
0100
0100
,
1000
0001
1000
0001
,
0001
0100
0010
0001
,
0001
0100
0001
0001
,
0010
0010
0100
0100
,
1000
0001
1000
0001
,
0001
0100
0010
0001
,
0001
0100
0001
0001
,
0010
0010
0100
0100
,
0020
0000
0000
0030
,
0000
0000
0000
0000
,
0001
0100
0010
0001
,
0001
0100
0001
0001
,
0010
0010
0100
0100
,
1000
0001
1000
0001
,
0001
0100
0010
0001
,
0001
0100
0001
0001
,
0010
0010
0100
0100
,
1000
0001
1000
0001
,
0001
0100
0100
0001
,
0010
1000
1000
0001
,
0010
0010
0100
0001
,
1000
1000
0001
0001
,
0001
0100
0010
0001
,
0001
0010
1000
0001
,
0010
0010
0100
0100
,
2002
0000
0000
3003
,
0000
0000
0000
0000
,
0001
1000
0001
1000
,
0001
0010
1000
0010
,
0001
0100
1000
0100
,
0001
0001
1000
1000
,
0001
0100
1000
0100
,
0001
0010
1000
0010
,
0001
0100
1000
0100
,
1001
0110
1001
0110
,
1000
0001
1000
0001
,
0001
0100
1000
1000
,
1000
1000
0001
0001
,
0010
0100
1000
1000
,
0001
0001
0010
0100
,
1001
0110
0001
1000
,
0001
0010
0001
1000
,
0220
0000
0000
0330
,
0000
0000
0000
0000
,
0001
0000
0000
0000
,
1000
0000
0000
0000
,
0001
0000
0000
0000
,
0010
1000
0010
0001
,
0010
1000
0010
0001
,
0001
1000
0001
0001
,
0010
0100
0010
0000
,
0001
0100
0001
0001
,
1000
0100
1000
1000
,
0001
0100
1000
0100
,
0001
0001
1000
0010
,
1000
0100
1000
1000
,
0001
0100
0001
0001
,
1000
0100
0001
0100
,
2000
0000
3100
0000
,
0001
0100
0010
0001
,
0001
0100
0001
0001
,
0010
0010
0100
0100
,
1000
0001
1000
0001
,
0001
0100
0010
0001
,
0001
0100
0001
0001
,
0010
0010
0100
0100
,
1000
0001
1000
0001
,
2002
3003
0000
0000
,
0000
0000
0000
0000
;
#NOTES:
     dance-single:
     :
     Medium:
     10:
     :
0000
0000
0000
0000
,
0000
0000
0000
0000
,
0000
0000
0000
0000
,
0000
0000
0000
0000
,
0000
0000
0000
0000
,
0001
1000
0100
0000
0010
0000
0001
0000
,
0001
0000
0100
0000
0001
0010
0001
0000
,
0010
0100
0010
0000
0100
0010
0100
0000
,
1100
0101
1100
0101
,
0001
0010
0100
0000
0010
0000
0001
0000
,
0001
0000
0100
0000
0001
0100
0001
0000
,
0010
1000
0010
0000
0100
0010
0100
0000
,
1100
0101
1100
0101
,
0001
1000
0100
0000
0010
0000
0001
0000
,
0001
0000
0100
0000
0001
0010
0001
0000
,
0010
0100
0010
0000
0100
0010
0100
0000
,
0120
0000
0100
0100
0100
0000
0000
0000
,
0000
0000
0000
0030
,
0001
1000
0100
0000
0010
0000
0001
0000
,
0001
0000
0100
0000
0001
0010
0001
0000
,
0010
0100
0010
0000
0100
0010
0100
0000
,
1100
0101
1100
0101
,
0001
1000
0100
0000
0010
0000
0001
0000
,
0001
0000
0100
0000
0001
0010
0001
0000
,
0010
0100
0010
0000
0100
0010
0100
0000
,
1100
0101
0011
1010
,
0001
0100
1100
0011
,
0110
1100
1001
0011
,
0010
0010
0100
0011
,
1010
1100
0101
0011
,
0001
0010
0100
0000
0010
0000
0101
0000
,
0011
0000
0010
0000
1000
0010
0001
0000
,
0010
0100
0010
0000
0100
0010
0100
0000
,
2002
0000
0000
3003
,
0000
0000
0000
0000
,
0001
0010
0001
0000
1000
0000
0101
0000
,
0010
0000
0011
0000
0001
0100
1000
0000
,
1000
0100
0001
0010
,
1000
0000
0010
0000
0001
1000
0100
0000
,
1000
0010
1000
0000
0001
0000
1100
0000
,
0010
0000
1010
0000
1000
0100
0001
0000
,
0001
0100
1000
0010
,
0001
0100
1000
0100
,
0001
0010
0001
0010
,
0001
0100
0100
0001
1000
0010
1000
0001
,
1000
1000
0001
0001
,
0010
0010
0100
0100
1000
0001
1000
0001
,
1100
0011
1001
0110
,
1000
0000
0100
0000
0001
0100
1000
1000
,
0001
0010
0010
0000
0001
0000
1000
0000
,
0220
0000
0000
0330
,
1001
0000
0000
0000
0000
0000
0000
0100
,
0010
0000
0000
0000
,
0001
0000
0000
1000
0100
1000
0100
1000
,
0001
0000
0100
0010
,
1000
0001
0100
0000
0001
0000
1100
0000
,
0010
0100
0010
0000
0100
0000
0110
0000
,
0001
0000
1000
0100
0001
0000
0100
0000
,
1000
0000
0001
0000
1000
0100
1000
0000
,
1000
0001
0100
0000
0001
0000
1100
0000
,
0010
0100
0010
0000
0100
0000
0110
0000
,
0001
0000
1000
0100
0001
0000
0100
0000
,
1000
0000
0001
0000
1000
0100
1000
0000
,
0001
1000
0100
0000
1000
0000
0101
0000
,
0010
0100
0010
0000
0100
0000
0110
0000
,
1000
0000
0001
0100
1000
0000
0100
0000
,
0001
0000
1000
0000
0001
1000
0001
0000
,
0101
0100
0010
0011
,
0011
0100
0101
0101
,
0010
0100
0010
0000
0100
0010
0100
0000
,
1100
0101
1100
0101
,
0101
0100
0010
0011
,
0011
0100
0101
0101
,
0010
0100
0010
0000
0100
0010
0100
0000
,
1100
0101
1100
0101
,
2002
3003
0000
0000
,
0000
0000
0000
0000
;
#NOTES:
     dance-single:
     :
     Hard:
     13:
     :
0000
0000
0000
0000
,
0000
0000
0000
0000
,
0000
0000
0000
0000
,
0000
0000
0000
0000
,
0000
0000
0000
0000
,
0001
1000
0100
0000
0010
0000
0001
0000
,
0001
0000
0100
0000
0001
0010
0001
0000
,
0010
0100
0000
0000
0010
0100
0000
0000
0100
0010
0000
0000
0100
0010
0000
0000
,
1100
0101
1010
0101
,
0001
0010
0100
1000
0010
0100
0001
0010
,
0001
0010
0100
0010
0001
0100
0001
1000
,
0010
0100
0000
0000
0010
0100
0000
0000
0100
0010
0000
0000
0100
0010
0000
0000
,
1100
0101
1100
0101
,
0001
1000
0100
1000
0010
1000
0001
0010
,
0001
0010
0100
0010
0001
0100
0001
1000
,
0010
0100
0000
0000
0010
0100
0000
0000
0100
0010
0000
0000
0100
0010
0000
0000
,
0020
0001
0100
1000
,
0100
0001
0100
0130
,
0001
1000
0100
1000
0010
0100
0001
1000
,
0001
1000
0100
0010
0001
0100
0001
1000
,
0010
0001
0010
1000
0100
0010
0100
0000
,
1100
0101
1100
0101
,
0001
1000
0100
1000
0010
0100
0001
1000
,
0001
1000
0100
0010
0001
0100
0001
1000
,
0010
0001
0010
1000
0100
0010
0100
0000
,
1000
0000
0100
0001
0010
0010
0001
0100
,
1000
0100
1100
0011
,
0110
1100
1001
0011
,
0010
0100
0000
0000
0010
0100
0000
0000
0100
0010
0000
0000
0011
0000
0000
0000
,
1010
1100
0101
0011
,
0001
0010
0100
0000
0010
0000
0101
0000
,
0011
0000
0010
0000
1000
0010
0001
0000
,
0010
0100
0000
0000
0010
0100
0000
0000
0100
0010
0000
0000
0100
0010
0000
0000
,
2002
0000
0000
3003
,
0000
0000
0000
0000
,
1000
0100
1000
0000
0100
0010
0100
0000
0001
0010
0001
0000
1000
0000
0000
0000
,
0010
0100
0001
0000
1000
0100
1000
0000
0001
1000
0001
0000
1000
0000
0000
0000
,
0001
0010
0001
0000
0010
0100
0010
0000
0100
1000
0100
0000
1000
0100
1000
0000
,
0100
0010
0100
0000
1000
0001
0010
0000
0001
0010
0001
0000
1000
0000
0000
0000
,
0001
0100
0001
0000
0100
0010
0100
0000
1000
0010
1000
0000
0001
0000
0000
0000
,
0010
0100
1000
0000
0001
0100
0001
0000
1000
0001
1000
0000
0001
0000
0000
0000
,
1000
0010
1000
0000
0010
0100
0010
0000
0100
0001
0100
0000
0001
0100
0001
0000
,
0100
1000
0010
0001
0010
1000
0100
0001
,
1000
0100
1000
0000
0010
0100
0010
0000
1000
0001
1000
0000
0001
0000
0000
0000
,
0001
0100
0100
0001
1000
0010
1000
0001
,
1000
0100
1000
0000
0001
1000
0001
0000
1000
0100
1000
0000
0001
0000
0000
0000
,
0010
0010
0100
0100
1000
0001
1000
0001
,
1000
0100
0000
0000
0100
0010
0000
0000
0010
0001
0000
0000
0001
0100
0000
0000
,
1000
0100
0000
0000
1001
0000
0000
0000
0001
0000
0100
0000
1000
0000
1000
0000
,
0001
0010
0010
0000
0101
0000
1100
0000
,
0220
0000
0000
0330
,
0001
1000
0100
1000
0010
0001
0010
0100
,
0010
0000
0000
0000
0000
0000
1000
0000
0010
0000
0000
0100
0010
0000
0001
0000
,
0010
0000
0100
0000
0010
0000
1000
0000
0100
0000
0010
0000
0100
1000
0100
0000
,
0010
0000
0001
0000
0100
0001
0010
0001
,
1000
0001
0100
0001
0010
1000
0010
0100
,
0010
0001
0010
0001
0010
0100
0010
1000
,
0010
0100
0010
0001
0100
0010
0100
0001
,
0010
0000
0001
0000
1000
0000
0100
0000
1000
0100
1000
0100
1000
0000
0100
0000
,
1000
0001
0100
0001
0010
1000
0010
0100
,
0010
0001
1000
0001
0010
0100
0010
1000
,
0010
0000
0100
0000
0010
0000
0001
0000
0100
0000
0010
0000
0100
0001
0100
0000
,
0010
0000
0001
0000
1000
0000
0001
0000
0100
0000
0000
0100
0010
0000
1000
0000
,
0001
1000
0100
1000
0010
0001
0010
0100
,
0010
1000
0010
1000
0010
0100
0010
0001
,
0010
0100
0010
1000
0100
0010
0100
1000
,
0010
0000
1000
0000
0001
0000
0100
0000
0001
0100
0001
0100
0001
0000
0100
0000
,
0101
0100
0010
0011
,
0101
0100
0011
0101
,
0010
0100
0000
0000
0010
0100
0000
0000
0100
0010
0000
0000
0100
0010
0000
0000
,
1100
0011
1100
0011
,
0101
0100
0010
0011
,
0011
0100
0101
0101
,
0010
0100
0000
0000
0010
0100
0000
0000
0100
0010
0000
0000
0100
0010
0000
0000
,
1100
0011
1100
0110
,
1000
0001
0000
0010
0000
0000
0200
0020
0000
0000
0000
0000
0330
0000
0000
0000
,
0000
0000
0000
0000
;
#NOTES:
     dance-double:
     :
     Easy:
     7:
     :
00000000
00000000
00000000
00000000
,
00000000
00000000
00000000
00000000
,
00000000
00000000
00000000
00000000
,
00000000
00000000
00000000
00000000
,
00000000
00000000
00000000
00000000
,
00010000
01000000
00100000
00010000
,
00010000
00000100
00010000
00010000
,
00000010
00000010
00000100
00000100
,
00001000
00010000
00001000
00010000
,
00010000
01000000
00100000
00010000
,
00010000
01000000
00010000
00010000
,
00000010
00000010
00000100
00000100
,
00001000
00000001
00001000
00000001
,
00000001
00000100
00000010
00010000
,
00010000
00000100
00010000
00010000
,
00100000
00100000
01000000
01000000
,
00200000
00000000
00000000
00300000
,
00000000
00000000
00000000
00000000
,
00010000
01000000
00100000
00010000
,
00010000
00000100
00010000
00010000
,
00000010
00000010
00000100
00000100
,
00001000
00010000
00001000
00010000
,
00010000
01000000
00100000
00010000
,
00010000
01000000
00010000
00010000
,
00000010
00000010
00000100
00000100
,
00001000
00000100
00000001
00000010
,
00010000
00000100
00000100
00010000
,
00000010
00001000
00001000
00000001
,
00000010
00000010
00000100
00010000
,
00001000
00001000
00010000
00010000
,
00010000
01000000
00100000
00010000
,
00010000
00100000
00001000
00010000
,
00000010
00000010
00000100
00000100
,
00002002
00000000
00000000
00003003
,
00000000
00000000
00000000
00000000
,
00000001
00000100
00001000
00010000
,
00010000
00100000
10000000
00000000
,
10000000
01000000
00010000
00001000
,
00001000
00000010
00000001
00000000
,
00001000
00000001
00000100
00000010
,
00010000
00001000
00010000
00000000
,
00010000
00100000
10000000
01000000
,
00010000
01100000
10010000
01100000
,
10000000
01000000
00010000
00000000
,
00010100
00000101
00001010
00001001
,
00000010
00000100
00001000
00000000
,
00200000
01300000
10010000
10000000
,
10000000
01000000
00010000
00000000
,
00011000
00001100
00000101
00001000
,
00000001
00000010
00000001
00001000
,
00000220
00000000
00000000
00000330
,
00000002
00000000
00000003
00000000
,
00002000
00000000
00003000
00000000
,
00020000
00000000
00030000
00000000
,
20000000
00000000
30000000
00000000
,
00100000
10000000
01000000
00010000
,
00001000
00000010
00000001
00000000
,
00000010
00000001
00000100
00001000
,
00000200
00000000
00000301
00000000
,
00000100
00000001
00000100
00001000
,
00010000
00100000
10000000
00000000
,
01000000
10000000
01000000
00010000
,
02000000
00000000
13000000
00000000
,
00100000
10000000
01000000
00010000
,
00001000
00000010
00000001
00000000
,
00000010
00000001
00000100
00001000
,
00010000
00100000
02000000
00000000
,
03010000
01000000
00100000
00010000
,
00010000
00000100
00010000
00010000
,
00000010
00000010
00000100
00000100
,
00001000
00010000
00001000
00010000
,
00010000
01000000
00100000
00010000
,
00010000
01000000
00010000
00010000
,
00000010
00000010
00000100
00000100
,
00001000
00000001
00001000
00010000
,
00022000
00033000
00000000
00000000
,
00000000
00000000
00000000
00000000
;
#NOTES:
     dance-double:
     :
     Medium:
     11:
     :
00000000
00000000
00000000
00000000
,
00000000
00000000
00000000
00000000
,
00000000
00000000
00000000
00000000
,
00000000
00000000
00000000
00000000
,
00000000
00000000
00000000
00000000
,
00010000
10000000
01000000
00000000
00100000
00000000
00010000
00000000
,
00010000
00000010
00000100
00000000
00010000
00000000
00010000
00000000
,
00000010
00001000
00000010
00000000
00000100
00000001
00000100
00000000
,
00001000
00100000
00010000
00000000
00001000
00000100
00010000
00000000
,
00010000
01000000
01000000
00000000
00100000
00010000
00010000
00000000
,
00010000
10000000
01000000
00000000
00010000
00000000
00010000
00000000
,
00000010
00001000
00000010
00000000
00000100
00000001
00000100
00000000
,
00001000
00000100
00000001
00000100
00001000
00000100
00000001
00000000
,
00000001
00001000
00000100
00000000
00000010
00000100
00010000
00000000
,
00010000
00001000
00000100
00001000
00010000
00000000
00010000
00000000
,
00100000
10000000
00100000
00000000
01000000
00010000
01000000
00010000
,
00200000
00000000
00000000
00000000
,
00300000
00000000
00000000
00000000
,
00010000
10000000
01000000
00000000
00100000
00000000
00010000
00000000
,
00010000
00000010
00000100
00000000
00010000
00000000
00010000
00000000
,
00000010
00001000
00000010
00000000
00000100
00000001
00000100
00000000
,
00001000
00100000
00010000
00000000
00001000
00000100
00010000
00000000
,
00010000
01000000
01000000
00000000
00100000
00010000
00010000
00000000
,
00010000
10000000
01000000
00000000
00010000
00000000
00010000
00000000
,
00000010
00001000
00000010
00000000
00000100
00000001
00000100
00000010
,
00001000
00000000
00010000
01000000
10000000
00100000
00010000
00000000
,
00010000
10000000
01000000
00000000
01000000
00100000
00010000
00000000
,
00000010
00000100
00001000
00000000
00001000
00000010
00000001
00000000
,
00000010
00000100
00000010
00001000
00000100
00000000
00010000
00000000
,
00001000
00000010
00001000
00100000
00010000
01000000
00010000
00000000
,
00010000
10000000
01000000
00000000
00100000
00001000
00010000
00000000
,
00010000
00001000
00100000
00000000
00001000
00100000
00010000
00000000
,
00000010
00000100
00000010
00000001
00000100
00001000
00000100
00000000
,
00002002
00000000
00000000
00003003
,
00000000
00000000
00000000
00000000
,
00000011
00000101
00001100
00011000
,
00110000
10100000
10010000
01100000
,
11000000
01010000
10100000
01010000
,
00101000
00011000
00001010
00000011
,
00001100
00000101
00001010
00000011
,
00001010
00011000
00110000
00011000
,
00010010
00011000
00101000
00011000
,
00110000
01100000
10010000
01100000
,
10000000
00000000
01000000
00100000
00010000
00001000
00000100
00000000
,
00000001
00000100
00000100
00000001
00001000
00000010
00001000
00000001
,
00000110
00000000
00000001
00000010
00001000
00010000
00001000
00000000
,
00100000
00100000
01000000
01000000
10000000
00010000
10000000
10000000
,
01000000
01100000
00100000
00110000
,
00011000
00000000
00000110
00000000
00000001
00000100
00001000
00001000
,
00000001
00000100
00000010
00001000
00000001
00000000
00001000
00000000
,
00000220
00000000
00000000
00000330
,
00002002
00000000
00000000
00000000
00003003
00000000
00000000
00000020
,
00000200
00000000
00000330
00000000
,
00022000
00000000
00000000
00000000
00033000
00000000
00000000
02000000
,
00200000
00000000
03300000
00000000
,
20020000
00000000
00000000
00000000
30030000
00000000
00000000
00200000
,
02000000
00000000
03300000
00000000
,
00022000
00000000
00033000
00000000
,
00000110
00002000
00000002
00003003
,
00000000
00000001
00001000
00000010
00000100
00002000
00000000
00013000
,
00000000
00100000
10000000
00010000
01000000
00200000
00000000
10300000
,
00000000
01000000
00010000
00001000
00100000
00020000
00000000
00031000
,
00000000
00000100
00000010
00000001
00001000
00000002
00000000
00000103
,
00000000
00001000
00010000
00001000
00010000
00200000
00000000
01300000
,
00000000
10000000
01000000
00010000
00100000
02000000
00000000
13000000
,
00000000
01000000
00010000
00001000
00000010
00002000
00000000
00013000
,
00100000
01100000
10010000
01100000
,
00010000
10000000
01000000
00000000
00100000
00000000
00010000
00000000
,
00010000
00000010
00000100
00000000
00010000
00000000
00010000
00000000
,
00000010
00001000
00000010
00000000
00000100
00000001
00000100
00000000
,
00001000
00100000
00010000
00000000
00001000
00000100
00010000
00000000
,
00010000
01000000
01000000
00000000
00100000
00010000
00010000
00000000
,
00010000
10000000
01000000
00000000
00010000
00000000
00010000
00000000
,
00000010
00001000
00000010
00000000
00000100
00000001
00000100
00000000
,
00001000
00000100
00000001
00000100
00001000
00000000
00010000
00000000
,
00022000
00033000
00000000
00000000
,
00000000
00000000
00000000
00000000
;
#NOTES:
     dance-double:
     :
     Hard:
     13:
     :
00000000
00000000
00000000
00000000
,
00000000
00000000
00000000
00000000
,
00000000
00000000
00000000
00000000
,
00000000
00000000
00000000
00000000
,
00000000
00000000
00000000
00000000
,
00010000
10000000
01000000
10000000
00100000
01000000
00010000
00000000
,
00010000
00100000
01000000
00100000
00010000
00001000
00010000
00000000
,
00100000
00001000
00100000
00001000
00000100
00000010
00000100
00000010
,
00001000
00100000
00010000
00000010
00001000
00000100
00010000
00000000
,
00010000
00100000
01000000
00001000
00100000
01000000
00010000
00000000
,
00010000
00001000
01000000
00100000
00010000
00001000
00010000
00000000
,
00000010
00001000
00000010
00001000
00000100
00000001
00000100
00000001
,
00001000
00000010
00000001
00000010
00001000
00100000
00010000
00000000
,
00010000
00000010
00000100
00001000
00000010
00000100
00010000
00000000
,
00010000
00001000
00000100
00000010
00010000
00001000
00010000
00000000
,
00000010
00010000
00100000
00010000
00000100
00010000
01000000
00010000
,
00200000
00000000
00000000
00300000
,
00000000
00000000
00000000
00000000
,
00010000
10000000
01000000
10000000
00100000
01000000
00010000
00000000
,
00010000
00100000
01000000
00100000
00010000
00001000
00010000
00000000
,
00100000
00001000
00100000
00001000
00000100
00000010
00000100
00000010
,
00001000
00100000
00010000
00000010
00001000
00000100
00010000
00000000
,
00010000
00100000
01000000
00001000
00100000
01000000
00010000
00000000
,
00010000
00001000
01000000
00100000
00010000
00001000
00010000
00000000
,
00000010
00001000
00000010
00001000
00000100
00000001
00000100
00000001
,
00001000
00100000
00010000
01000000
10000000
00100000
00010000
00000000
,
00010000
10000000
01000000
00100000
01000000
10000000
00010000
00000000
,
00100000
00010000
00001000
00000100
00001000
00000010
00000001
00000000
,
00000010
00001000
00000010
00001000
00000100
00000010
00010000
00100000
,
00001000
00000100
00001000
00100000
00010000
00001000
00010000
00000000
,
00010000
10000000
01000000
00000000
00100000
00001000
00010000
00000000
,
00010000
00001000
00100000
00010000
00001000
00000100
00010000
00000000
,
00100000
00010000
00000010
00010000
01000000
00010000
00000100
00000010
,
00002002
00000000
00000000
00003003
,
00000000
00000000
00000000
00000000
,
00000001
00000100
00000001
00000000
00000100
00000000
00001000
00000000
00010000
00001000
00010000
00000000
00001000
00000000
00000000
00000000
,
00010000
00100000
00010000
00000000
00100000
00000000
01000000
00000000
00010000
10000000
00010000
00000000
10000000
00000000
00000000
00000000
,
01000000
10000000
01000000
00000000
00010000
00000000
01000000
00000000
00010000
00001000
00010000
00000000
00001000
00000000
00000010
00000000
,
00000001
00000010
00000001
00000000
00001000
00000000
00000001
00000000
00000100
00000010
00000100
00000000
00000110
00000000
00000000
00000000
,
00001000
00000100
00001000
00000000
00000001
00000000
00000010
00000000
00001000
00000010
00001000
00000000
00010000
00000000
00001000
00000000
,
01000000
00100000
01000000
00000000
00010000
10000000
00010000
00000000
01000000
00000000
00100000
00000000
10010000
00000000
00000000
00000000
,
00010000
10000000
01000000
00000000
10000000
00010000
01000000
00000000
00100000
10000000
01000000
00000000
00100000
00010000
10000000
00000000
,
10010000
01100000
10010000
01100000
,
10000000
01000000
10000000
00000000
01000000
00000000
00100000
00000000
00010000
00001000
00010000
00000000
00001000
00000000
00000100
00000000
,
00000001
00000000
00000100
00000010
00000100
00001000
00000001
00000000
00001000
00000000
00000010
00000000
00001000
00000000
00000001
00000000
,
00000010
00000001
00000100
00000000
00001000
00000000
00010000
00000000
00100000
10000000
00010000
00000000
01000000
00000000
00010000
00000000
,
00100000
00100000
01000000
01000000
10000000
00010000
10000000
10000000
,
10000000
01000000
00000000
00000000
01000000
00010000
00000000
00000000
00010000
00001000
00000000
00000000
00001000
00010000
00000000
00000000
,
00011000
00000000
00000000
00000000
00000110
00000000
00000000
00000000
00000001
00000000
00000100
00000000
00001000
00000100
00001000
00000100
,
00000001
00000000
00001000
00000001
00000010
00000000
00000100
00001000
00000001
00000000
00000100
00000001
00001000
00000000
00000010
00000000
,
00000220
00000000
00000000
00000330
,
00000002
00000000
00000000
00000000
00000103
00000000
00000000
00000100
,
00002000
00000000
00000000
00000000
00000000
00000000
00010000
00000000
00013000
00000000
00000000
00001000
00010000
00000000
00010000
00000000
,
00200000
00000000
00000000
01000000
01300000
00010000
10000000
00010000
,
20000000
30010000
01100000
10010000
,
20000000
00000000
01000000
00000000
31000000
00000000
01000000
00010000
,
00002000
00000000
00010000
00000000
00013000
00000000
00001000
00010000
,
00002000
00000000
00000010
00000000
00003010
00000001
00000010
00000100
,
00002000
00003001
00000110
00001001
,
00000001
00000100
00001000
00010000
00100000
10000000
01000000
00100000
,
00010000
10000000
01000000
00010000
00001000
00000010
00000001
00001000
,
00000001
00000010
00001000
00010000
01000000
10000000
00100000
00010000
,
10000000
01000000
00010000
01000000
00100000
10000000
00010000
01000000
,
10000000
01000000
00010000
00001000
00000010
00000001
00001000
00000100
,
00000001
00000010
00001000
00010000
01000000
10000000
01000000
00100000
,
10000000
00100000
00010000
00001000
00000100
00000001
00000100
00001000
,
00000010
00000000
00000100
00000000
00001000
00000000
00010000
00000000
00100000
10000000
00100000
10000000
00100000
00000000
01000000
00000000
,
00010000
10000000
01000000
10000000
00100000
01000000
00010000
00000000
,
00010000
00100000
01000000
00100000
00010000
00001000
00010000
00000000
,
00100000
00001000
00100000
00001000
00000100
00000010
00000100
00000010
,
00001000
00100000
00010000
00000010
00001000
00000100
00010000
00000000
,
00010000
00100000
01000000
00001000
00100000
01000000
00010000
00000000
,
00010000
00001000
01000000
00100000
00010000
00001000
00010000
00000000
,
00000010
00001000
00000010
00001000
00000100
00000001
00000100
00000001
,
00001000
00000010
00000001
00000010
00001000
00100000
00010000
00000000
,
00022000
00033000
00000000
00000000
,
00000000
00000000
00000000
00000000
;
