
//----- song ID: shre -----//
#TITLE:しゃかりきリレーション;
#ARTIST:ときめきアイドル project 結城秋葉;
#TITLETRANSLIT:Shakariki relation;
#ARTISTTRANSLIT:Tokimeki Idol project Akiha Yuki;
#BANNER:Shakariki relation.png;
#BACKGROUND:Shakariki relation-bg.png;
#CDTITLE:./CDTitles/DDR A.png;
#MUSIC:Shakariki relation.ogg;
#SAMPLESTART:53.538;
#SAMPLELENGTH:15;
#DISPLAYBPM:167;
#BPMS:0=167.2,4=167;
#NOTES:
     dance-single:
     :
     Beginner:
     3:
     :
0000
0000
0000
0000
,
0000
0000
0000
0000
,
0000
0000
0000
0000
,
0000
0000
0000
0000
,
0000
0000
0000
0000
,
0000
0000
0000
0000
,
0001
0000
0000
0000
,
1000
0000
0000
0000
,
0001
0000
0000
0000
,
1000
0000
0000
0000
,
1001
0000
0000
0000
,
0000
0000
0000
0000
,
0010
0000
0000
0000
,
0010
0000
0000
0000
,
1000
0000
0000
0000
,
1000
0000
0000
0000
,
0001
0000
0000
0000
,
0001
0000
0000
0000
,
0100
0000
0000
0000
,
0000
0000
0000
0000
,
0001
0000
0001
0000
,
0001
0000
0000
0000
,
1000
0000
1000
0000
,
1000
0000
0000
0000
,
0010
0000
0010
0000
,
0010
0000
0000
0000
,
0100
0000
0100
0000
,
0100
0000
0000
0000
,
0001
0000
0000
0000
,
1000
0000
0000
0000
,
0001
0000
0000
0000
,
1000
0000
0000
0000
,
0010
0000
0010
0000
,
0100
0000
0100
0000
,
0001
0000
0001
0000
,
1000
0000
1000
0000
,
0001
0000
0000
0000
,
0000
0000
0000
0000
,
0001
0001
0001
0000
,
1000
0000
0001
0000
,
1000
1000
1000
0000
,
0001
0000
1000
0000
,
0010
0000
0000
0000
,
0010
0000
0000
0000
,
1000
0000
0001
0000
,
1001
0000
0000
0000
,
1000
1000
1000
0000
,
0001
0000
1000
0000
,
0001
0001
0001
0000
,
1000
0000
0001
0000
,
0010
0000
0000
0000
,
0010
0000
0000
0000
,
0100
0000
0100
0000
,
0100
0000
0000
0000
,
1001
0000
0000
0000
,
0000
0000
0000
0000
,
0001
0000
0010
0000
,
1000
0000
1000
0000
,
0001
0000
0001
0000
,
0000
0000
0000
0000
,
0010
0010
0000
0000
,
0100
0000
0000
0000
,
1000
1000
0000
0000
,
0001
0000
0000
0000
,
1000
0000
0000
0000
,
0001
0000
0000
0000
,
0010
0000
0000
0000
,
0100
0000
0000
0000
,
1000
1000
1000
0000
,
0001
0000
1000
0000
,
0001
0001
0001
0000
,
1000
0000
0001
0000
,
0010
0000
0010
0000
,
0100
0000
0100
0000
,
1000
0000
1000
0000
,
0001
0000
0001
0000
,
1001
0000
0000
0000
,
0000
0000
0000
0000
,
1000
0000
1000
0000
,
0001
0000
0001
0000
,
0010
0000
0000
0000
,
0010
0010
0000
0000
,
0000
0000
0000
0000
;
#NOTES:
     dance-single:
     :
     Easy:
     6:
     :
0000
0000
0000
0000
,
0000
0000
0000
0000
,
0000
0000
0000
0000
,
0000
0000
0000
0000
,
0000
0000
0000
0000
,
0000
0000
0000
0000
,
1000
0001
0010
0000
,
0001
1000
0010
0000
,
1000
0001
0010
0000
,
0100
0000
0100
0000
,
1001
0000
0000
0000
,
0000
0000
0000
0000
,
0010
0010
0010
0000
,
0001
0001
0001
0000
,
0100
0100
0100
0000
,
1000
1000
1000
0000
,
0010
0010
0001
0000
,
0001
0001
0100
0000
,
0100
0100
1000
0000
,
0000
0000
0000
0000
,
0001
1000
0001
0000
,
0010
0001
0010
0000
,
0100
1000
0100
0000
,
1000
0000
0001
0000
,
0010
1000
0010
0000
,
0100
0001
0100
0000
,
0010
0100
0010
0000
,
1000
0000
0001
0000
,
2002
0000
3003
0000
,
2002
0000
3003
0000
,
0010
0010
1000
1000
,
0001
0000
1000
0000
,
0001
0001
0010
0010
,
0100
0100
1000
1000
,
0001
0010
1000
0100
,
1000
0010
0001
0000
,
1001
0000
0000
0000
,
0000
0010
0010
0010
,
1000
0100
1000
0000
,
0001
0001
1000
1000
,
0010
0100
0010
0000
,
0100
0001
0100
0000
,
2000
0100
3001
0000
,
0002
0100
1003
0000
,
0010
1000
0001
1000
,
0001
0000
0100
0100
,
0010
0100
0010
0000
,
1000
1000
0100
0100
,
0001
0100
0001
0000
,
1000
0001
1000
0000
,
0001
0000
0001
0000
,
1000
0000
1000
0000
,
0001
0000
0010
0000
,
1000
0000
0100
0000
,
2002
0000
0000
0000
,
3003
0000
0000
0000
,
0010
1000
0001
0000
,
0010
0000
0010
0000
,
0200
0000
0000
0000
,
0300
0000
0000
0000
,
0010
1000
0100
0000
,
0010
0000
0010
0000
,
0010
0001
0100
0000
,
0010
0000
0010
0000
,
2000
0000
0000
3000
,
0002
0000
0000
0003
,
0010
0000
0100
0000
,
1000
0000
0001
0001
,
1000
0100
1000
0000
,
0001
0001
0010
0010
,
1000
0010
1000
0000
,
0001
1000
0001
0000
,
1000
0000
1000
0000
,
0001
0000
0001
0000
,
1000
0000
0010
0000
,
0001
0000
0100
0000
,
2002
0000
0000
0000
,
0000
0000
3003
0000
,
0001
0010
0100
0000
,
1000
0010
0100
0000
,
0001
0000
1000
0000
,
0010
0010
0000
0000
,
0000
0000
0000
0000
;
#NOTES:
     dance-single:
     :
     Medium:
     9:
     :
0000
0000
0000
0000
,
0000
0000
0000
0000
,
0000
0000
0000
0000
,
0000
0000
0000
0000
,
0000
0000
0000
0000
,
0000
0000
0000
0000
,
0001
0000
1000
0010
0000
0100
0010
0000
,
1000
0000
0001
0010
0000
0100
0010
0000
,
1000
0000
0001
0010
0000
1000
0010
0000
,
0000
0001
0000
0000
0000
1000
0000
0000
,
0010
0010
0010
0010
,
0010
0000
0010
0000
0010
0100
0100
0100
,
0010
0010
1000
1000
,
0100
0100
0001
0001
,
0010
0010
1000
1000
,
0100
0100
1001
0110
,
1001
0001
0100
0100
,
1001
1000
0010
0010
,
1001
0001
0100
0100
,
0000
0001
0010
0000
0001
0000
0100
0000
,
1000
0010
1000
0000
0001
0000
0001
0000
,
0010
0100
0010
0000
0100
0000
0100
0000
,
1000
0001
1000
0000
0010
0000
0010
0000
,
0100
0001
1000
0000
0110
0000
1001
0000
,
0010
1000
0001
0000
0010
0000
0010
0000
,
0100
1000
0001
0000
0100
0000
0100
0000
,
0010
1000
0100
0000
0010
0000
0010
0001
,
0000
1000
0001
0000
1000
0000
0001
0000
,
0010
2200
0000
3300
,
0010
0202
0000
0303
,
0010
1001
0100
1001
,
0001
0100
0000
0000
1000
0100
0000
0000
,
0001
0100
0001
0000
1000
0100
1000
0000
,
0001
0010
0001
0000
1000
0010
1000
0000
,
0001
0010
1000
0100
,
0002
0010
1000
0103
,
1000
0001
1000
0020
0000
0000
0000
0000
,
0030
0100
0100
0100
,
0010
1000
0100
1000
0010
0000
0010
0000
,
0100
0001
0100
0000
0001
1000
0001
0000
,
0010
0001
0100
0001
0010
0000
0010
0000
,
0100
1000
0100
0000
1000
0001
1000
0000
,
0002
0100
1000
0013
,
2000
0100
0001
3010
,
0100
0000
0001
0000
1000
0001
1000
0010
,
0000
1000
1000
0100
,
0010
0001
0100
0001
0010
0000
0010
0000
,
0100
1000
0100
0000
1000
0001
1000
0000
,
0010
1000
0100
1000
0010
0000
0010
0000
,
0100
0001
0100
0000
0001
1000
0001
0000
,
1000
0000
1000
0100
0000
0100
0000
0010
,
0001
0010
0001
0020
0000
0000
0130
0000
,
0010
0010
0010
0100
0100
0100
,
2000
0000
0002
3003
,
0220
0000
0000
0330
,
0001
0000
1000
0010
0000
1000
0100
0000
,
1000
0000
0001
0010
0000
0001
0100
0000
,
0000
1000
0000
0000
0001
0000
0000
0110
,
0000
1000
0000
0110
0000
0001
0000
2000
,
0000
0000
0000
3000
,
0010
0000
0101
0000
1000
0000
0010
0100
,
0000
1000
0100
0001
,
0010
0000
1100
0000
0001
0000
0010
0100
,
0000
0001
0100
1000
,
0002
0000
0000
0000
,
2000
0000
0000
3003
,
0020
0000
0030
0000
0200
0000
0000
0310
,
0000
1000
0001
1000
,
0010
1000
0100
1000
0010
0000
0010
0000
,
0100
0001
0100
0000
0001
1000
0001
0000
,
0010
0001
0100
0001
0010
0000
0010
0000
,
0100
1000
0100
0000
1000
0001
1000
0000
,
0001
0000
0001
0100
0000
0100
0000
0010
,
1000
0010
1000
0020
0000
0000
0130
0000
,
0010
0010
0010
0100
0100
0100
,
0002
0000
2000
3003
,
0220
0000
0000
0000
,
0000
0000
0000
0330
,
1000
0000
0010
0100
0000
0010
1000
0000
,
0001
0000
0010
0100
0000
0010
0001
0000
,
1000
0000
1000
0000
0001
0100
0000
0010
,
0100
0100
0010
0100
0000
0000
0000
0000
,
0000
0000
0000
0000
;
#NOTES:
     dance-single:
     :
     Hard:
     11:
     :
0000
0000
0000
0000
,
0000
0000
0000
0000
,
0000
0000
0000
0000
,
0000
0000
0000
0000
,
0000
0000
0000
0000
,
0000
0000
0000
0000
,
1000
0100
0010
0001
0000
1000
0001
1000
,
0001
0100
0010
1000
0000
0001
1000
0001
,
0010
0001
0100
0001
0000
1000
0010
0100
,
0000
0101
0000
0000
1000
1100
0000
0000
,
1002
0010
0010
0010
,
0010
0000
0010
0000
0013
0100
0100
0010
,
0100
0100
1000
1000
,
0010
0010
0001
0001
,
0100
0100
1000
1000
,
0010
0010
0011
0110
,
1100
1000
0010
0010
,
1001
0001
0100
0100
,
1001
1000
0010
0001
,
0000
1000
0010
1000
0001
0100
0010
1000
,
0001
0010
0001
1000
0000
0010
0000
1000
,
0100
0010
0100
0000
0001
0100
1000
0000
,
0001
0100
0010
0200
0000
0000
0310
0000
,
1000
0100
0001
0000
0110
0000
1001
0000
,
0010
0001
1000
0010
0000
0100
0001
1000
,
0100
0010
0100
0000
1000
0100
0010
0000
,
0001
0000
1000
0000
0010
1000
0100
0010
,
0000
0001
1000
0000
0101
0000
1100
0000
,
0002
0000
0000
0000
0103
0000
0000
0000
0010
0000
0000
1000
0000
0000
0001
0000
,
0010
0000
1100
0000
0001
0100
1000
0000
,
1000
0000
0101
0000
0010
1000
0001
0000
,
0010
0110
0000
0000
1000
1001
0000
0000
,
0100
0010
0001
0010
0000
1000
0001
1000
,
0001
0100
0010
1000
0000
0001
0100
0000
,
1000
0010
0001
0100
,
1000
0100
0010
0000
0001
0100
0010
0000
,
1000
0001
1000
0200
0000
0000
0000
0000
,
0300
0010
0010
0010
,
0001
0010
0100
1000
0100
1000
0001
0100
,
0000
0100
0001
1000
0000
0100
1000
0000
,
0010
1000
0001
1000
0001
0010
0001
1000
,
0000
1000
0010
0100
0001
1000
0001
0000
,
2100
0000
0001
0000
3010
0100
0010
0000
,
0102
0000
1000
0000
0013
0100
0010
0000
,
0001
0000
1000
0100
0000
1000
0010
0100
,
0000
0001
1000
1001
,
1000
0010
0100
0001
0100
0001
1000
0100
,
0000
0100
1000
0001
0000
0100
0001
0000
,
0010
0001
1000
0001
1000
0010
1000
0001
,
0000
0001
0010
0100
1000
0001
1000
0000
,
0001
0000
0101
1000
0000
1100
0000
0010
,
0001
0100
0010
1000
0000
1000
0001
1000
,
0010
1000
1010
0100
0001
0101
,
1000
1100
0001
0101
,
2002
0000
0000
3003
,
1000
0100
0010
0001
0000
1000
0001
1000
,
0010
1000
0100
1000
0000
0001
0010
0100
,
0000
1000
0010
1000
0001
0010
0001
1000
,
0100
0001
0100
1000
0100
0001
0100
2000
,
0000
0001
0001
3001
,
0010
0000
1001
0000
0001
0100
0010
1000
,
0000
1000
0100
0010
0000
0001
1000
0000
,
0010
0000
1001
0000
1000
0100
0010
0001
,
0000
0001
0100
0010
1000
0001
1000
0001
,
0200
0000
0000
0000
,
0020
0000
0000
0330
,
2000
0000
0000
0000
0002
0000
3003
0010
,
0000
0001
1000
0100
1000
0000
1000
0000
,
0001
0010
0100
1000
0100
1000
0001
0100
,
0001
0000
0001
1000
0100
1000
0100
0000
,
0010
0001
1000
0001
1000
0010
1000
0001
,
1000
0000
1000
0010
0100
0010
1000
0000
,
1000
0000
1100
0001
0000
0101
0000
0010
,
1000
0100
0010
0001
0000
0001
1000
0001
,
0010
0001
0011
0100
1000
1100
,
0001
0101
1000
1100
,
2002
0000
0000
0000
,
0000
0000
0000
3003
,
0001
0100
0010
1000
0000
0001
1000
0001
,
1000
0100
0010
0001
0000
1000
0001
0000
,
1000
1000
0100
0010
0100
1000
0000
0001
,
0100
0010
0100
0001
0000
0000
0000
0000
,
0000
0000
0000
0000
;
#NOTES:
     dance-double:
     :
     Easy:
     6:
     :
00000000
00000000
00000000
00000000
,
00000000
00000000
00000000
00000000
,
00000000
00000000
00000000
00000000
,
00000000
00000000
00000000
00000000
,
00000000
00000000
00000000
00000000
,
00000000
00000000
00000000
00000000
,
00100000
10000000
01000000
00000000
,
00100000
00001000
00010000
00000000
,
00000010
00001000
00000001
00000000
,
00000010
00000000
00000010
00000000
,
00001001
00000000
00000000
00000000
,
00000000
00000000
00000000
00000000
,
00000100
00000100
00000100
00000000
,
00001000
00001000
00001000
00000000
,
00010000
00010000
00010000
00000000
,
00100000
00100000
00100000
00000000
,
10000000
10000000
01000000
00000000
,
00010000
00010000
00001000
00000000
,
00000100
00000100
00000001
00000000
,
00000000
00000000
00000000
00000000
,
00000010
00000001
00001000
00000000
,
00000010
00000100
00001000
00000000
,
00010000
00001000
00010000
00000000
,
00100000
10000000
00010000
00000000
,
00100000
00010000
01000000
00000000
,
00100000
10000000
01000000
00000000
,
00010000
00001000
00010000
00000000
,
00000010
00000000
00001000
00000000
,
00000220
00000000
00000330
00000000
,
00002002
00000000
00003003
00000000
,
00000010
00000010
00010000
00010000
,
00001000
00000000
00010000
00000000
,
00001000
00001000
00010000
00010000
,
01000000
01000000
10000000
10000000
,
00010000
01000000
00100000
10000000
,
01000000
00010000
00001000
00000000
,
00011000
00000000
00000000
00000000
,
00000000
00000010
00000010
00000010
,
00001000
00000100
00000010
00000000
,
00000001
00000100
00000010
00000000
,
00010000
00001000
00010000
00000000
,
00001000
00100000
00010000
00000000
,
20000000
00000000
31000000
01000000
,
00020000
00000000
01030000
01000000
,
00100000
10000000
00010000
01000000
,
00001000
00000000
00010000
00010000
,
00000100
00001000
00000010
00000000
,
00000100
00000010
00000100
00000000
,
00000010
00001000
00000100
00000000
,
00000010
00000001
00000100
00000000
,
00001000
00000000
00010000
00000000
,
00001000
00000000
00010000
00000000
,
00100000
00000000
10000000
00000000
,
01000000
00000000
00100000
00000000
,
20020000
00000000
00000000
00000000
,
30030000
00000000
00000000
00000000
,
00100000
10000000
00010000
00000000
,
00100000
00000000
00001000
00000000
,
00020000
00000000
00000000
00000000
,
00030000
00000000
00000000
00000000
,
00001000
00010000
00000100
00000000
,
00000020
00000000
00000030
00000000
,
00000001
00000100
00000010
00000000
,
00000200
00000000
00000300
00000000
,
00002000
00000000
00000000
00003000
,
00020000
00000000
00000000
00030000
,
00100000
00000000
10000000
00000000
,
01000000
00000000
00100000
00100000
,
00010000
10000000
01000000
00000000
,
00010000
00001000
00010000
00000000
,
00001000
00000010
00000001
00000000
,
00001000
00000001
00000100
00000000
,
00000010
00000000
00000010
00000000
,
00001000
00000000
00001000
00000000
,
00000001
00000000
00000100
00000000
,
00001000
00000000
00010000
00000000
,
00022000
00000000
00000000
00000000
,
00000000
00000000
00033000
00000000
,
00100000
00010000
01000000
00000000
,
00100000
10000000
01000000
00000000
,
00010000
00000000
00001000
00000000
,
00010000
00010000
00000000
00000000
,
00000000
00000000
00000000
00000000
;
#NOTES:
     dance-double:
     :
     Medium:
     9:
     :
00000000
00000000
00000000
00000000
,
00000000
00000000
00000000
00000000
,
00000000
00000000
00000000
00000000
,
00000000
00000000
00000000
00000000
,
00000000
00000000
00000000
00000000
,
00000000
00000000
00000000
00000000
,
00000010
00000000
00000001
00000100
00000000
00000010
00001000
00000000
,
00000100
00000000
00010000
00001000
00000000
01000000
00010000
00000000
,
10000000
00000000
00100000
01000000
00000000
00010000
10000000
00000000
,
00000000
01000000
00000000
00000000
00000000
00010000
00000000
00000000
,
00001000
00001000
00001000
00001000
,
00001000
00000000
00001000
00000000
00001000
00010000
00001000
00010000
,
00001000
00001000
00000010
00000010
,
00000001
00000001
00000100
00000100
,
00001000
00001000
00010000
00010000
,
00100000
00100000
10010000
01100000
,
10010000
01000000
00001000
00010000
,
00011000
00000100
00010000
00001000
,
00011000
00100000
00010000
01000000
,
00000000
00010000
10000000
00000000
01000000
00000000
00010000
00000000
,
00001000
00010000
00001000
00000000
00000010
00000000
00000010
00000000
,
00000001
00001000
00000001
00000000
00000100
00000000
00000100
00000000
,
00001000
00010000
00001000
00000000
00010000
00000000
00010000
00000000
,
00100000
01000000
00100000
00000000
10010000
00000000
01100000
00000000
,
00010000
10000000
01000000
00000000
00100000
00000000
00100000
00000000
,
00001000
00010000
00000010
00000000
00001000
00000000
00001000
00000000
,
00000100
00000010
00000001
00000000
00001000
00000000
00001000
00000010
,
00000000
00000100
00000010
00000000
00010000
00000000
00001000
00000000
,
00100000
00220000
00000000
00330000
,
00001000
00022000
00000000
00033000
,
00000010
00001010
00010000
00011000
,
01000000
00010000
00000000
00000000
10000000
01000000
00000000
00000000
,
00100000
00010000
00100000
00000000
00001000
00010000
00001000
00000000
,
00000010
00001000
00000010
00000000
00000100
00000001
00000100
00000000
,
00001000
00000010
00000001
00000100
,
00001000
00010000
00100000
10000000
,
00010000
00100000
00010000
20000000
00000000
00000000
00000000
00000000
,
30000000
00100000
00100000
00100000
,
01000000
00100000
10000000
00100000
01000000
00000000
01000000
00000000
,
00001000
00010000
00001000
00000000
00010000
00000100
00001000
00000000
,
00000100
00000010
00000001
00000010
00000100
00000000
00000100
00000000
,
00010000
00001000
00010000
00000000
00001000
01000000
00010000
00000000
,
10000000
01000000
00100000
00010000
,
01000000
00001000
00010000
00000010
,
00000100
00000000
00000001
00000000
00001000
00000010
00001000
00000001
,
00000000
00000010
00000010
00001000
,
00000010
00000100
00000001
00000100
00000010
00000000
00000010
00000000
,
00010000
00001000
00010000
00000000
00001000
00100000
00010000
00000000
,
00100000
01000000
10000000
01000000
00100000
00000000
00100000
00000000
,
00001000
00010000
00001000
00000000
00010000
00000010
00001000
00000000
,
00000001
00000000
00000001
00000100
00000000
00000100
00000000
00001000
,
00010000
00001000
00010000
00002000
00000000
00000000
00013000
00000000
,
00100000
00100000
00100000
01000000
01000000
01000000
,
00020000
00000000
20000000
30030000
,
02200000
00000000
00000000
03300000
,
10000000
00000000
01000000
00100000
00000000
00010000
00100000
00000000
,
00001000
00000000
00010000
00000010
00000000
00001000
00000010
00000000
,
00000000
00000001
00000000
00000000
00001000
00000000
00000000
00000001
,
00000000
00000100
00000000
00001000
00000000
00010000
00000000
00002000
,
00000000
00000000
00000000
00003000
,
00010000
00000000
00110000
00000000
01000000
00000000
10000000
01000000
,
00000000
00010000
01000000
10000000
,
00100000
00000000
01010000
00000000
00001000
00000000
00010000
00001000
,
00000000
00001000
00000010
00000001
,
00002000
00000000
00000000
00000000
,
00000002
00000000
00000000
00003003
,
00000200
00000000
00000300
00000000
00000020
00000000
00000000
00000130
,
00000000
00001000
00010000
00001000
,
00100000
01000000
10000000
01000000
00100000
00000000
00100000
00000000
,
00001000
00010000
00001000
00000000
00010000
00000010
00001000
00000000
,
00000010
00000100
00000001
00000100
00000010
00000000
00000010
00000000
,
00010000
00001000
00010000
00000000
00001000
00100000
00010000
00000000
,
10000000
00000000
10000000
01000000
00000000
01000000
00000000
00010000
,
00001000
00010000
00001000
00020000
00000000
00000000
00031000
00000000
,
00000010
00000010
00000010
00000100
00000100
00000100
,
00002000
00000000
00000002
00003003
,
00000220
00000000
00000000
00000000
,
00000000
00000000
00000000
00000330
,
00000010
00000000
00000001
00000100
00000000
00000010
00001000
00000000
,
00000100
00000000
00010000
00001000
00000000
01000000
00010000
00000000
,
00100000
00000000
00100000
00000000
00001000
00010000
00000000
00000010
,
00010000
00001000
00010000
00001000
00000000
00000000
00000000
00000000
,
00000000
00000000
00000000
00000000
;
#NOTES:
     dance-double:
     :
     Hard:
     12:
     :
00000000
00000000
00000000
00000000
,
00000000
00000000
00000000
00000000
,
00000000
00000000
00000000
00000000
,
00000000
00000000
00000000
00000000
,
00000000
00000000
00000000
00000000
,
00000000
00000000
00000000
00000000
,
00100000
00001000
00010000
00000010
00000000
00000100
00001000
00010000
,
00000010
00010000
00001000
00100000
00000000
01000000
00010000
00001000
,
01000000
00001000
00010000
00000100
00000000
00000010
00001000
00010000
,
00000000
00110000
00000000
00000000
01000000
11000000
00000000
00000000
,
10020000
01000000
01000000
01000000
,
01000000
00000000
01000000
00000000
01030000
00001000
00010000
00001000
,
00010000
00010000
00001000
00001000
,
00000010
00000010
00000001
00000001
,
00000100
00000100
00001000
00001000
,
00010000
00010000
00110000
01100000
,
11000000
10000000
00100000
00100000
,
00110000
00010000
00001000
00001000
,
00001100
00000100
00000001
00000001
,
00000000
00000010
00000001
00000100
00000010
00010000
00001000
01000000
,
00100000
10000000
00010000
10000000
00000000
01000000
00000000
00100000
,
00010000
01000000
00100000
00000000
00010000
00001000
00010000
00000000
,
00000010
00001000
00000001
00000020
00000000
00000000
00000130
00000000
,
00010000
00001000
00001100
00011000
,
00100000
00010000
10000000
00100000
00000000
01000000
00010000
10000000
,
01000000
00010000
00001000
00000000
00000010
00000001
00001000
00000000
,
00000010
00000000
00000100
00000000
00010000
00001000
00000010
00000001
,
00000000
00001000
00000010
00000000
00000101
00000000
00001100
00000000
,
00020000
00000000
00000000
00000000
00031000
00000000
00000000
00000000
00100000
00000000
00000000
10000000
00000000
00000000
00010000
00000000
,
00100000
00000000
00011000
00000000
00000010
00000001
00001000
00000000
,
00000100
00000000
00011000
00000000
00100000
00010000
01000000
00000000
,
00100000
01100000
00000000
00000000
10000000
10010000
00000000
00000000
,
01000000
00100000
00001000
00010000
00000000
00000010
00001000
00000001
,
00000010
00000100
00010000
00001000
00000000
00100000
00010000
00000000
,
10000000
00100000
00010000
00001000
,
00000010
00000001
00000100
00000000
00000010
00001000
00000100
00000000
,
00010000
00001000
00100000
00020000
00000000
00000000
00000000
00000000
,
00030000
01000000
01000000
01000000
,
00100000
10000000
01000000
10000000
00010000
01000000
00001000
00010000
,
00000000
00001000
00000010
00000001
00000000
00000100
00000001
00000000
,
00000010
00000001
00000100
00000001
00001000
00000100
00010000
00001000
,
00000000
00010000
00100000
10000000
00000000
01000000
10000000
00000000
,
12000000
00000000
03010000
00000000
00001000
00000010
00000001
00000000
,
00000201
00000000
00001300
00000000
00010000
00100000
10000000
00000000
,
00010000
00000000
10000000
00100000
00000000
01000000
00010000
00100000
,
00000000
01000000
00010000
00001000
,
00010000
00000010
00001000
00000010
00010000
00001000
00000100
00000001
,
00000000
00001000
00000100
00010000
00000000
00001000
00010000
00000000
,
00001000
00100000
00010000
00100000
00001000
00010000
01000000
10000000
,
00000000
00010000
01000000
00001000
00000000
00010000
00001000
00000000
,
01000000
00000000
01010000
00001000
00000000
00011000
00000000
00000100
,
00001000
00000001
00000100
00000010
00000000
00001000
00000100
00001000
,
00000001
00000100
00001000
00010000
01000000
10000000
,
00010000
11000000
00100000
01010000
,
20020000
00000000
00000000
30030000
,
00100000
00001000
00010000
00000010
00000000
00000100
00001000
00010000
,
00000100
00010000
00001000
01000000
00000000
00100000
00010000
00001000
,
00000000
00100000
00010000
00001000
00000100
00000010
00000001
00001000
,
00000100
00010000
00001000
00100000
00010000
01000000
00100000
20000000
,
00000000
00010000
00010000
30010000
,
00100000
00000000
10010000
00000000
00010000
01000000
00100000
10000000
,
00000000
01000000
00010000
00001000
00000000
00000010
00000100
00000000
,
00000010
00000000
00001001
00000000
00001000
00000100
00000010
00000001
,
00000000
00000100
00001000
00010000
00000000
00100000
01000000
00100000
,
02000000
00000000
00000000
00000000
,
00200000
00000000
00000000
03300000
,
20000000
00000000
00000000
00000000
00020000
00000000
30030000
00100000
,
00000000
10000000
01000000
00100000
00001000
00000000
00010000
00001000
,
00010000
00000010
00001000
00000010
00010000
00001000
00000100
00000001
,
00001000
00000000
00000100
00010000
00001000
00010000
00000010
00010000
,
00001000
00100000
00010000
00100000
00001000
00010000
01000000
10000000
,
00010000
00000000
01000000
00001000
00010000
00001000
00100000
00001000
,
00010000
00000000
01010000
00001000
00000000
00011000
00000000
00000010
,
00001000
00000001
00000010
00000100
00000000
00001000
00000100
00001000
,
00000001
00000100
00001000
00010000
01000000
10000000
,
00010000
11000000
00100000
01010000
,
20020000
00000000
00000000
00000000
,
00000000
00000000
00000000
30030000
,
00100000
00001000
00010000
00000010
00000000
00000100
00001000
00010000
,
00000010
00010000
00001000
00100000
00000000
01000000
00010000
00001000
,
00000010
00000010
00000100
00000010
00000001
00000100
00000000
00001000
,
00010000
00100000
01000000
00100000
00000000
00000000
00000000
00000000
,
00000000
00000000
00000000
00000000
;
