
//----- song ID: seph -----//
#TITLE:Sephirot;
#ARTIST:SHIKI;
#BANNER:Sephirot.png;
#BACKGROUND:Sephirot-bg.png;
#CDTITLE:./CDTitles/DDR A.png;
#MUSIC:Sephirot.ogg;
#SAMPLESTART:51.444;
#SAMPLELENGTH:15;
#BPMS:0=154;
#NOTES:
     dance-single:
     :
     Beginner:
     3:
     :
0000
0000
0000
0000
,
0000
0000
0000
0000
,
0000
0000
0000
0000
,
0000
0000
0000
0000
,
0000
0000
0000
0000
,
1000
0000
0000
0000
,
1000
0000
0000
0000
,
0001
0000
0000
0000
,
0010
0000
0010
0000
,
1000
0000
0000
0000
,
0001
0000
0000
0000
,
1000
0000
0000
0000
,
0010
0010
0010
0000
,
0010
0000
0000
0000
,
0100
0000
0000
0000
,
1000
0000
1000
0000
,
0001
0000
0001
0000
,
1000
0000
0000
0000
,
0001
0000
0000
0000
,
1000
0000
0000
0000
,
0010
0010
0010
0000
,
0010
0000
0000
0000
,
0001
0001
0001
0000
,
1000
0000
0000
0000
,
0010
0000
0000
0000
,
1000
0000
1000
0000
,
1000
0000
0000
0000
,
0001
0000
0001
0000
,
0010
0010
0010
0000
,
1000
0000
1000
0000
,
1000
0000
0000
0000
,
0001
0000
0001
0000
,
0020
0030
0000
0000
,
1001
0000
0000
0000
,
2000
0000
3000
0000
,
0020
0000
0030
0000
,
0200
0000
0300
0000
,
0001
0000
0001
0000
,
1000
0000
1000
0000
,
0020
0000
0030
0000
,
1000
0000
0000
0000
,
0001
0000
0001
0000
,
1000
0000
1000
0000
,
0020
0000
0030
0000
,
2000
0000
3000
0000
,
0001
0000
0001
0000
,
0010
0000
0010
0000
,
0100
0000
0100
0000
,
1000
0000
1000
0000
,
0002
0000
0000
0000
,
0000
0000
0000
0003
,
0000
0000
0000
0000
,
0000
0000
0000
0000
,
0010
0000
0000
0000
,
0010
0000
0000
0000
,
0001
0000
0000
0000
,
1000
0000
0000
0000
,
0100
0000
0000
0000
,
0010
0000
0010
0000
,
0010
0000
0000
0000
,
0001
0001
0001
0000
,
2000
0000
3000
0000
,
0001
0000
0001
0000
,
1000
0000
1000
0000
,
0010
0000
0010
0000
,
1000
1000
1000
0000
,
1000
0000
0001
0000
,
0010
0000
0001
0000
,
1000
0000
0010
0000
,
0100
0000
0000
0000
,
1001
0000
0000
0000
,
0001
0000
0001
0000
,
1000
0000
0010
0000
,
1000
0000
1000
0000
,
0001
0000
0010
0000
,
0001
0000
0001
0000
,
1000
0000
0100
0000
,
0001
0000
0010
0010
,
0000
0000
0000
0000
;
#NOTES:
     dance-single:
     :
     Easy:
     6:
     :
0000
0000
0000
0000
,
0000
0000
0000
0000
,
0000
0000
0000
0000
,
0000
0000
0000
0000
,
0000
0000
0000
0000
,
0002
0000
0000
0003
,
0002
0000
0000
0003
,
2000
0000
0000
3000
,
0200
0300
0100
1000
,
0001
0000
0001
0100
,
0001
0000
1000
0000
,
0010
0000
1000
1000
,
0001
0010
0001
0000
,
1000
0000
0001
1000
,
0010
0010
0100
0000
,
0002
0000
0013
0000
,
2000
0000
3010
0000
,
0001
0000
0001
0100
,
0001
0000
1000
0000
,
0100
0000
1000
1000
,
0001
0010
0100
0000
,
0001
0000
1000
0000
,
0001
0001
0100
0100
,
0010
0000
1000
0000
,
0001
1000
0100
0000
,
0010
0001
0010
0000
,
1000
0100
1000
0000
,
0010
0100
0001
0000
,
1001
1001
1001
0000
,
0010
1000
0010
0000
,
0001
0100
0001
0000
,
0010
0100
1000
0000
,
2002
0000
0000
3003
,
1000
0010
0100
0000
,
0002
1003
0010
0000
,
2000
3100
0002
0103
,
1000
0100
1000
0000
,
0001
0010
0001
0010
,
0100
1000
0100
1000
,
0002
0003
0200
0300
,
0020
0030
0000
1000
,
0100
1000
0001
0000
,
0100
1000
0001
1000
,
0200
0300
0020
0030
,
0002
0000
0003
0000
,
1000
0100
1000
0100
,
0001
0100
0001
0001
,
1000
0100
1000
0100
,
0001
0100
0001
0010
,
0200
0000
0000
0000
,
0000
0000
0000
0300
,
0000
0000
0000
0000
,
0000
0000
0000
0000
,
1000
0000
0000
0010
,
0100
0000
0000
0001
,
0010
0000
0000
0000
,
0100
0000
0000
0000
,
1000
0010
1000
0000
,
1001
0000
0110
0000
,
0001
0000
1000
0100
,
1000
1000
0010
0010
,
0100
0001
0010
0000
,
1000
0100
1000
0100
,
0010
0010
0001
0000
,
0010
0010
0100
0100
,
1000
0001
1000
0000
,
0010
0100
0001
0100
,
0010
0000
1000
0000
,
0100
0000
0100
0010
,
0001
0000
1000
0000
,
0001
0000
0100
0001
,
0100
0000
0010
1000
,
0001
0000
0100
0010
,
0100
0100
0001
1000
,
0001
0000
0010
0001
,
0010
0000
0100
1000
,
0001
0000
1000
0100
,
1000
0001
0100
0010
,
0000
0000
0000
0000
;
#NOTES:
     dance-single:
     :
     Medium:
     10:
     :
0000
0000
0000
0000
,
0000
0000
0000
0000
,
0000
0000
0000
0000
,
0000
0000
0000
0000
,
0000
0000
0000
0000
,
2000
0000
3010
0100
,
0002
0000
0013
0100
,
2000
0000
3001
0001
,
0100
0000
0010
1001
,
0001
0000
1000
0100
1000
0000
0001
0000
,
1000
0000
0100
0000
0010
0000
0100
1000
,
0100
0000
0010
0000
0001
0010
0000
0001
,
0010
0000
0100
1000
0000
0001
0100
0000
,
0010
0000
1000
0010
1000
0000
0100
0010
,
0100
0000
1000
0000
0001
1000
0000
0001
,
0100
0001
0010
1000
,
0010
0001
0100
1000
,
0100
0000
0001
0100
0001
0000
0010
0000
,
0001
0000
1000
0000
0100
0000
1000
0010
,
1000
0000
0100
0000
0010
0001
0000
0010
,
0001
0000
1000
0100
0000
1000
0001
0000
,
0010
0000
0001
0100
0001
0000
1000
0100
,
1000
0101
0011
1010
,
0100
0000
1000
0000
0100
1000
0010
0000
,
0100
0010
0001
0010
0100
0000
0000
0000
,
0001
0100
0001
0000
1000
0000
0010
0100
,
0001
0000
0010
0000
0100
0000
0010
0100
,
1000
0000
0001
0010
0001
0000
0010
0001
,
1000
0000
1010
0000
0101
0000
0010
1000
,
0100
1000
0100
0000
0010
0000
0100
1000
,
0001
0000
0010
0000
0001
0000
0100
0010
,
0100
0000
0001
1000
0100
0000
0010
0001
,
0200
0000
0000
0300
,
0010
1000
0001
1000
0100
0000
0100
0000
,
0020
0000
0031
0000
1000
0100
1000
0100
,
0020
0000
0031
0000
1000
0010
0100
0000
,
0001
0000
0101
0000
1100
0000
0010
0001
,
0010
0000
0001
0100
0001
0000
1000
0100
,
1000
0000
0010
1000
0010
0000
0100
0001
,
0100
0000
0010
0000
1000
0001
0100
0000
,
0001
0110
1001
0110
,
0001
0100
0001
0100
0010
0000
0100
0000
,
0001
1000
0100
0000
0100
1000
0001
0000
,
0200
0000
0310
0000
0010
0100
0001
0000
,
0010
0100
1100
0101
,
1000
0100
1000
0100
0010
0000
0001
0000
,
1000
0100
1000
0001
0100
0100
0010
0000
,
1000
0100
1000
0100
0010
0000
0001
0000
,
1000
0001
1000
0010
0100
0000
0001
0010
,
0200
0000
0000
0000
,
0000
0000
0000
0300
,
0000
0000
0000
0000
,
0000
0000
0000
0000
,
0010
0000
0000
0001
0000
0000
1000
0000
,
0100
0000
0000
0000
0000
0000
1000
0001
,
0100
0000
0000
0000
0000
0010
0000
1000
,
0010
0000
0100
0010
0000
1000
0000
0000
,
1001
0000
0000
0001
0000
0000
0010
0001
,
0010
0100
1000
0100
,
0010
0001
0100
0000
0001
0100
0001
0100
,
0010
1010
0101
1001
,
0100
1000
0001
0010
0001
0000
0000
0000
,
1000
0000
1001
0000
0010
0001
0010
0100
,
1000
0000
0100
0000
1000
0100
1000
0000
,
0010
0001
0010
0000
0100
1000
0100
0010
,
0001
0000
0011
0000
0001
0100
0001
0000
,
1000
0000
1100
0000
0101
0000
0010
0001
,
0010
0000
0101
0000
1100
0000
1000
0010
,
1000
0000
0001
0000
0100
0010
0001
0010
,
0100
0000
0001
0010
0200
0000
0300
0000
,
1000
0000
0100
0000
0010
0000
0100
1000
,
0010
0000
0100
0000
0001
0100
0001
0010
,
0100
0000
1000
0000
0001
0000
1000
0100
,
1000
0000
0010
0000
1000
0100
0010
0001
,
1000
0000
0001
0000
0100
0000
0010
0100
,
0001
0000
1000
0000
0010
1000
0001
0010
,
0001
0000
1000
0000
0100
0000
0010
0100
,
1000
0000
0010
0000
0100
0001
0010
0100
,
0000
0000
0000
0000
;
#NOTES:
     dance-single:
     :
     Hard:
     12:
     :
0000
0000
0000
0000
,
0000
0000
0000
0000
,
0000
0000
0000
0000
,
0000
0000
0000
0000
,
0000
0000
0000
0000
,
1001
0000
0100
0000
1000
0100
1000
0000
,
1001
0000
0100
0000
0010
1000
0001
0000
,
1100
0000
0001
0000
0010
0001
0100
0000
,
1001
0000
0000
0000
0000
0000
0000
0000
0100
0000
0000
1000
0100
0000
0010
0000
,
0001
0000
0010
0001
0010
0100
0010
0001
,
0010
0000
1100
0000
0011
0000
0010
0001
,
0100
0010
1000
0000
0001
1000
0000
0010
,
0100
0000
0001
0010
0000
0100
1000
0000
,
0001
0000
1000
0001
0100
0010
0100
1000
,
0100
0000
0010
0100
0001
1000
0000
0100
,
1000
0000
0000
0000
0100
0000
0000
0010
0001
0000
0010
0000
0100
0000
0000
0000
,
1000
0000
0000
0000
0010
0000
0000
0100
0001
0000
0100
0000
0010
0000
0000
0000
,
1000
0000
0010
1000
0010
0100
0010
1000
,
0100
0000
0011
0000
1100
0000
0100
0010
,
0001
1000
0010
0000
0100
0001
0000
1000
,
0100
0000
0010
0001
0000
0100
0010
0000
,
1000
0000
0100
0010
0001
0100
0001
0010
,
0100
0000
0000
0100
1000
0000
0000
1000
0010
0000
0000
0010
1000
0000
0100
0000
,
1000
0001
0010
0001
0010
0100
1000
0100
,
0010
0001
0010
0100
1000
0000
0000
0000
,
0001
0100
0001
0100
0010
0000
0010
0100
,
0001
0100
1000
0100
0010
0100
0001
0010
,
0100
1000
0100
1000
0010
0000
0100
0001
,
0010
0000
0000
0000
1001
0000
0000
0000
0001
0100
0000
0001
0100
0000
0010
0000
,
1000
0100
1000
0100
0010
0000
0010
0100
,
1000
0100
0001
0100
0010
0100
1000
0010
,
0100
0001
0100
0001
0010
0000
0001
0010
,
1100
0000
0000
0000
,
0010
0001
0100
1000
0100
0010
1000
0100
,
0010
0000
0100
0000
1000
0001
0100
0010
,
1000
0100
1000
0000
0001
0100
0001
0000
,
1000
0100
0010
0001
0010
0100
1000
0000
,
0101
0000
1100
0000
0010
0001
0100
0001
,
0010
0000
0101
0000
0010
1000
0100
1000
,
0010
0000
1000
0000
0001
0100
1000
0100
,
0010
0100
0001
1000
0100
0100
0010
0010
,
0001
0010
0001
1000
0010
0100
1000
0100
,
0010
1000
0100
0010
0001
0010
0100
0010
,
0001
0100
0001
0000
1000
0100
1000
0000
,
0010
0100
0010
1000
0001
0100
0010
0000
,
1010
1000
0100
0010
0001
0010
0100
1000
,
1001
0001
0100
0001
0010
0001
1000
0100
,
0110
0010
0001
0100
0001
0100
1000
0100
,
0110
0100
0001
1000
0100
0010
0100
1000
,
0002
0000
0000
0000
,
0000
0000
0000
0003
,
0000
0000
0000
0000
,
0000
0000
0000
0000
,
1000
0100
0010
0001
0000
0000
0010
0000
,
0001
0100
0010
1000
0000
0000
0001
1000
,
0100
1000
0001
0010
0000
0001
0000
1000
,
0010
1000
0001
0100
0000
0010
0000
0000
,
1000
0100
0010
0001
0000
0000
1000
0010
,
1000
0000
0000
0000
1100
0000
0000
0000
0101
0000
0000
0010
0000
0000
0001
0000
,
1000
0001
0100
1000
0100
0010
0001
0010
,
1000
0001
1000
0001
0010
0100
0010
0100
,
1000
0100
0010
0100
0001
0100
1000
0010
,
1000
0000
0000
0000
0010
0000
0000
0100
0001
0000
1000
0000
0001
0000
0100
0000
,
0001
0000
0000
1000
0100
0000
0000
1000
0001
0000
0010
0000
0100
0000
1000
0000
,
0001
0100
0001
0100
1000
0100
0001
0010
,
0001
0000
0000
0001
0010
0000
0100
0000
1000
0000
0010
0000
0001
0000
0010
0000
,
1000
0001
1000
0100
1000
0001
0100
0001
,
1000
0000
0000
0001
0010
0000
0100
0000
1000
0000
0010
0000
0001
0000
0010
0000
,
2000
0000
3100
0010
0001
1000
0010
0100
,
0001
0000
0000
0000
1000
0000
0001
0100
0002
0000
0000
0000
0003
0000
0000
0000
,
1000
0000
0001
0000
1000
0000
0100
0000
1000
0000
0000
0001
0000
0000
0010
0000
,
0100
0000
1000
0000
0100
0000
0010
0000
0100
1000
0100
0000
1000
0000
0001
0000
,
0100
0000
0010
0000
0100
0000
0001
0000
0010
0000
0000
0001
0000
0000
0100
0000
,
0001
0000
1000
0000
0100
0000
1000
0000
0001
0100
0001
0000
1000
0000
1000
0000
,
0001
0000
0010
0000
0001
0000
1000
0000
0100
0000
0000
0010
0000
0000
0001
0000
,
1000
0000
0010
0000
0100
0000
0010
0000
1000
0100
1000
0000
0010
0000
0100
0000
,
0001
0000
0010
0000
0001
0000
0100
0000
0010
0000
0000
1000
0000
0000
0100
0000
,
1000
0000
0001
0000
0100
0000
0010
0000
0100
0001
0100
0000
0001
0000
1000
0000
,
0000
0000
0000
0000
;
#NOTES:
     dance-double:
     :
     Easy:
     5:
     :
00000000
00000000
00000000
00000000
,
00000000
00000000
00000000
00000000
,
00000000
00000000
00000000
00000000
,
00000000
00000000
00000000
00000000
,
00000000
00000000
00000000
00000000
,
20000000
00000000
00000000
30000000
,
02000000
00000000
00000000
03000000
,
00020000
00000000
00000000
00030000
,
00002000
00003000
00010000
00001000
,
00010000
00000000
00001000
00000000
,
00100000
00000000
00001000
00000000
,
00010000
00000000
00000100
00000000
,
00000010
00000100
00001000
00000000
,
00000010
00000000
00000100
00001000
,
00010000
00000000
00100000
00000000
,
00020000
00000000
00031000
00000000
,
00002000
00000000
00013000
00000000
,
01000000
00000000
00100000
00000000
,
00001000
00000000
00010000
00000000
,
00000010
00000000
00000100
00000000
,
00001000
00010000
00001000
00000000
,
00010000
00000000
00100000
00000000
,
10000000
10000000
01000000
01000000
,
00010000
00000000
00001000
00000000
,
00100000
00001000
00010000
00000000
,
00001000
00001000
00010000
00000000
,
00000100
00000100
00000010
00000000
,
00000001
00000000
00000100
00000000
,
00001000
00010000
00011000
00000000
,
00010000
00010000
00001000
00000000
,
00100000
00100000
01000000
00000000
,
10000000
00000000
00100000
00000000
,
00010000
00000000
00000000
00000000
,
00001000
00010000
00001000
00000000
,
00002000
00000000
00003010
00000000
,
00000002
00000003
00000100
00001000
,
00010000
00000000
00001000
00000000
,
00010000
00001000
00100000
00000000
,
00010000
00001000
01000000
00000000
,
00020000
00030000
00002000
00003000
,
00000100
00000000
00000000
00000001
,
00000100
00000001
00000100
00000000
,
00000010
00000100
00001000
00010000
,
00002000
00003000
00020000
00030000
,
00001000
00000000
00000000
00000000
,
00010000
00001000
00010000
00000000
,
00100000
00010000
00100000
00100000
,
00001000
00010000
00001000
00000000
,
00000010
00001000
00000010
00000100
,
00000002
00000000
00000000
00000000
,
00000000
00000000
00000000
00000003
,
00000000
00000000
00000000
00000000
,
00000000
00000000
00000000
00000000
,
00000001
00000000
00000000
00000100
,
00001000
00000000
00000000
00010000
,
00001000
00000000
00000000
00000000
,
01000000
00000000
00100000
00000000
,
01000000
00100000
00010000
00000000
,
00011000
00000000
00011000
00000000
,
00001000
00000000
00000010
00000000
,
00000001
00000001
00000100
00000100
,
00001000
00010000
00001000
00000000
,
00010000
00010000
00001000
00000000
,
00000010
00000010
00000100
00000000
,
00001000
00000001
00001000
00000001
,
00000100
00001000
00010000
00000000
,
00001000
00010000
00100000
00010000
,
00001000
00000000
00010000
00000000
,
00001000
00000000
00000100
00000010
,
00000100
00000000
00000001
00000000
,
00000100
00000000
00001000
00001000
,
00010000
00000000
00100000
10000000
,
01000000
00000000
01000000
01000000
,
00010000
00000000
00001000
00010000
,
00001000
00000000
00010000
00010000
,
00001000
00000000
00000010
00000001
,
00000100
00000000
00000100
00000100
,
00001000
00000000
00010000
00001000
,
00000000
00000000
00000000
00000000
;
#NOTES:
     dance-double:
     :
     Medium:
     9:
     :
00000000
00000000
00000000
00000000
,
00000000
00000000
00000000
00000000
,
00000000
00000000
00000000
00000000
,
00000000
00000000
00000000
00000000
,
00000000
00000000
00000000
00000000
,
00000020
00000000
00000031
00000100
,
00002000
00000000
00013000
01000000
,
20000000
00000000
30100000
00010000
,
00001000
00000000
00010000
00011000
,
00001000
00000000
00100000
00001000
00010000
00000000
00001000
00000000
,
00000010
00000000
00000001
00000000
00000100
00000000
00001000
00010000
,
00001000
00100000
01000000
00010000
,
00001000
01000000
00100000
00010000
,
00001000
00000000
00000010
00000100
00000010
00000000
00000001
00000100
,
00000001
00000000
00000100
00000000
00001000
00010000
00000000
00001000
,
00010000
00100000
10000000
00100000
,
00010000
00001000
00000010
00001000
,
00010000
00000000
01000000
00100000
01000000
00000000
00010000
00000000
,
00001000
00000000
00010000
00000000
00001000
00000000
00000100
00000010
,
00000100
00000001
00000100
00001000
,
00010000
01000000
10000000
00100000
,
00010000
00000000
00001000
00010000
00001000
00000000
00000010
00010000
,
00001000
00011000
00001100
00000110
,
00000001
00000010
00001000
00010000
,
00100000
00010000
00001000
00000000
00010000
00000000
00000000
00000000
,
00001000
00010000
00000100
00000000
00000010
00000000
00001000
00000000
,
00010000
00000000
00100000
00000000
00010000
00000000
00001000
00000100
,
00000010
00000000
00000100
00000001
00000100
00000000
00001000
00010000
,
00001000
00011000
00110000
01100000
,
10000000
01000000
00010000
00000000
00001000
00000000
00010000
00000000
,
00100000
00000000
00010000
00000000
00001000
00000000
00000010
00000100
,
00000010
00000000
00000001
00001000
00000010
00000000
00000100
00001000
,
00020000
00000000
00030000
00000000
,
00100000
00001000
00010000
00001000
00100000
00000000
01000000
00000000
,
02000000
00000000
03010000
00000000
00001000
00010000
00001000
00010000
,
02000000
00000000
13000000
00000000
01000000
00010000
00001000
00000000
,
00010000
00000000
00011000
00000000
00001010
00000000
00000100
00000010
,
00000100
00000000
00000001
00000100
00000001
00000000
00000100
00000000
,
00001000
00000000
00001000
00010000
00001000
00000000
00100000
00010000
,
00100000
00000000
01000000
00000000
10000000
01000000
00010000
00000000
,
00001000
00011000
01010000
01100000
,
00010000
00001000
00010000
00001000
00100000
00000000
00001000
00000000
,
00010000
00000010
00001000
00000000
00001000
00000010
00000100
00000000
,
00002000
00000000
00013000
00000000
00100000
01000000
00010000
00000000
,
00100000
01000000
01010000
00011000
,
00000010
00010000
00001000
00010000
00000010
00000000
00000100
00000000
,
00000001
00000000
00000001
00000100
00001000
00000000
00001000
00000000
,
00100000
00001000
00010000
00001000
00100000
00000000
01000000
00000000
,
10000000
00000000
10000000
01000000
00010000
00000000
00001000
00010000
,
00002000
00000000
00000000
00000000
,
00000000
00000000
00000000
00003000
,
00000000
00000000
00000000
00000000
,
00000000
00000000
00000000
00000000
,
00100000
00000000
00000000
10000000
00000000
00000000
01000000
00000000
,
00010000
00000000
00000000
00000000
00000000
00000000
00001000
00010000
,
00001000
00000000
00000000
00000000
00000000
00000100
00000000
00000001
,
00000010
00000000
00001000
00010000
00000000
00100000
00000000
00000000
,
10000000
00000000
00000000
00100000
00000000
00000000
00010000
00001000
,
00010000
01000000
00010000
00001000
,
00000010
00000000
00001000
00000000
00010000
00001000
00010000
00001000
,
00100000
00101000
00011000
00001010
,
00000001
00000100
00000010
00000100
00000001
00000000
00000000
00000000
,
00000100
00000000
00001000
00000000
00100000
00001000
00010000
00000000
,
01000000
10000000
00100000
00010000
,
00001000
00010000
00001000
00000000
00000100
00000000
00000100
00000001
,
00000010
00000000
00001000
00000000
00010000
00001000
00010000
00000000
,
00001000
00000000
00101000
00000000
00011000
00000000
00000100
00001000
,
00000100
00000000
00011000
00000000
01010000
00000000
00100000
01000000
,
00100000
00000000
00010000
00000000
00001000
00010000
00001000
00010000
,
00000100
00000000
00000010
00001000
00020000
00000000
00030000
00000000
,
00001000
00000000
00000010
00000000
00000001
00000000
00000100
00001000
,
00010000
00000000
01000000
00000000
10000000
00000000
00100000
00010000
,
00001000
00000000
00010000
00000000
00100000
00000000
10000000
01000000
,
00010000
00000000
00001000
00000000
00000010
00001000
00010000
00000000
,
00001000
00000000
00000100
00000000
00000001
00000000
00000010
00001000
,
00010000
00000000
00100000
00000000
00010000
00000000
00001000
00010000
,
00000100
00000000
00000010
00000000
00001000
00000000
00100000
00001000
,
00010000
00000000
00001000
00000000
00010000
00000010
00000100
00001000
,
00000000
00000000
00000000
00000000
;
#NOTES:
     dance-double:
     :
     Hard:
     13:
     :
00000000
00000000
00000000
00000000
,
00000000
00000000
00000000
00000000
,
00000000
00000000
00000000
00000000
,
00000000
00000000
00000000
00000000
,
00000000
00000000
00000000
00000000
,
00000001
00000000
00000010
00000000
00000100
00010000
00001000
00000000
,
00010000
00000000
00100000
00000000
10000000
00100000
01000000
00000000
,
00001000
00000000
00010000
00000000
00000100
00000010
00001000
00000000
,
00010000
00000000
00000000
00000000
00000000
00000000
00000000
00000000
00100000
00000000
00000000
01000000
00010000
00000000
10000000
00000000
,
01000000
00000000
10000000
01000000
00010000
00001000
00010000
01000000
,
00010000
00000000
00011000
00000000
00001010
00000000
00000100
00000001
,
00000010
00000001
00000100
00000000
00001000
00010000
00000000
00001000
,
00100000
00000000
01000000
00100000
00000000
10000000
00100000
00000000
,
00010000
00000000
01000000
00100000
00010000
00100000
00010000
00001000
,
00010000
00000000
00001000
00000010
00001000
00010000
00000000
00000010
,
00000100
00000000
00000000
00000000
00000001
00000000
00000000
00000010
00000001
00000000
00000010
00000000
00001000
00000000
00000000
00000000
,
00010000
00000000
00000000
00000000
00100000
00000000
00000000
01000000
00010000
00000000
01000000
00000000
10000000
00000000
00000000
00000000
,
01000000
00000000
00100000
00010000
00001000
00010000
00000010
00001000
,
00000100
00000000
00000110
00000000
00001010
00000000
00001000
00010000
,
00100000
00010000
00001000
00000000
00010000
00001000
00000000
00000100
,
00000010
00000000
00000100
00001000
00000000
00000100
00000001
00000000
,
00000010
00000000
00001000
00000000
00010000
01000000
10000000
00000000
,
01000000
00000000
00000000
01000000
00010000
00000000
00000000
00010000
00001000
00000000
00000000
00001000
00000010
00000000
00000000
00000000
,
00000001
00000010
00001000
00010000
00100000
10000000
01000000
00010000
,
00001000
00000100
00000001
00000010
00001000
00000000
00000000
00000000
,
00010000
00001000
00010000
00000000
00000100
00000000
00000010
00001000
,
00010000
00001000
00000010
00000001
00000100
00001000
00010000
00000000
,
00100000
01000000
00100000
10000000
01000000
00000000
00010000
00001000
,
00010000
00000000
00000000
00000000
01100000
00000000
00000000
00000000
10000000
01000000
00000000
10000000
01000000
00000000
00100000
00000000
,
00001000
00010000
00001000
00000000
01000000
00000000
00100000
00010000
,
00001000
00010000
00100000
10000000
01000000
00010000
00001000
00000000
,
00010000
01000000
10000000
00100000
00010000
00000000
00001000
00000100
,
00000010
00000000
00000000
00000000
,
00000001
00000010
00000100
00000010
00000001
00000010
00001000
00010000
,
00200000
00000000
10300000
00000000
01000000
10000000
00100000
01000000
,
00001000
00010000
01000000
00000000
10000000
00010000
01000000
00000000
,
10000000
01000000
00100000
00010000
00100000
00010000
00001000
00000000
,
00011000
00000000
00001010
00000000
00001000
00000100
00000001
00000100
,
00001000
00000000
00011000
00000000
00010000
01000000
10000000
01000000
,
00010000
00000000
00001000
00000000
00010000
00100000
00010000
00001000
,
00000100
00001000
00010000
00001000
00100000
00001000
00010000
00000000
,
00000100
00000010
00000100
00000010
00000001
00000010
00001000
00010000
,
00100000
01000000
00100000
01000000
10000000
01000000
00010000
00100000
,
00001000
01000000
00010000
00000000
00010000
01000000
00001000
00000000
,
00010000
00001000
00000010
00001000
00010000
00001000
00000010
00000000
,
00000002
00000000
00000103
00001000
00010000
00100000
01000000
00010000
,
20000000
00000000
31000000
00010000
00001000
00000010
00000001
00000100
,
00002000
00000000
00013000
01000000
10000000
00100000
00010000
00001000
,
00020000
00000000
00031000
00000100
00000001
00000010
00001000
00000010
,
00000002
00000000
00000000
00000000
,
00000000
00000000
00000000
00000003
,
00000000
00000000
00000000
00000000
,
00000000
00000000
00000000
00000000
,
00000001
00000100
00001000
00010000
00000000
00000000
00010000
00000000
,
00001000
00010000
01000000
10000000
00000000
00000000
10000000
00100000
,
10000000
01000000
00010000
00001000
00000000
00001000
00000000
00000010
,
00000001
00000010
00001000
00010000
00000000
00100000
00000000
00000000
,
10000000
00100000
00010000
00001000
00000000
00000000
00000010
00000100
,
00000010
00000011
00001100
00011000
,
00100000
00010000
00100000
01000000
10000000
01000000
00100000
01000000
,
00010000
00001000
00010000
00001000
00000100
00000010
00000100
00000010
,
00000001
00000010
00000100
00001000
00010000
00000000
00000000
00000000
,
00001000
00000000
00000000
00000000
00000010
00000000
00000000
00000001
00000010
00000000
00000100
00000000
00001000
00000000
00010000
00000000
,
00100000
00000000
00001000
00000000
00010000
01000000
10000000
00100000
,
00010000
00001000
00010000
00001000
00010000
00100000
01000000
00100000
,
00010000
00000000
00000000
00010000
00001000
00000000
00010000
00000000
00000010
00000000
00001000
00000000
00000100
00000000
00000000
00000000
,
00000010
00000001
00000100
00001000
00010000
00001000
00000100
00001000
,
00010000
00100000
10000000
00010000
00100000
01000000
00010000
00001000
,
00000020
00000000
00000031
00000000
00000100
00001000
00010000
00100000
,
10000000
00000000
00000000
00000000
01000000
00000000
10000000
01000000
20000000
00000000
00000000
00000000
30000000
00000000
00000000
00000000
,
01000000
00000000
00010000
00000000
00001000
00000000
00010000
00000000
00001000
00000000
00000000
00000100
00000000
00000000
00000001
00000000
,
00000100
00001000
00010000
00000010
00010000
00001000
00010000
01000000
,
10000000
00000000
01000000
00000000
00100000
00000000
00001000
00000000
00010000
00000000
00000000
00100000
00000000
00000000
00010000
00000000
,
00001000
00000100
00000010
00000100
00000001
00000100
00001000
00010000
,
00001000
00000000
00000100
00000000
00000001
00000000
00000010
00000000
00000100
00000000
00000000
00000010
00000000
00000000
00001000
00000000
,
00010000
00001000
00100000
00010000
10000000
01000000
00010000
01000000
,
00100000
00000000
00001000
00000000
00010000
00000000
00001000
00000000
00100000
00000000
00000000
01000000
00000000
00000000
10000000
00000000
,
01000000
00010000
00001000
00010000
00001000
00000100
00000010
00000001
,
00000000
00000000
00000000
00000000
;
