
//----- song ID: senn -----//
#TITLE:千年ノ理;
#ARTIST:猫叉Master;
#TITLETRANSLIT:Sennen no kotowari;
#ARTISTTRANSLIT:Nekomata Master;
#BANNER:Sennen no kotowari.png;
#BACKGROUND:Sennen no kotowari-bg.png;
#CDTITLE:./CDTitles/BEMANI x Toho Project Ultimate MasterPieces (2015).png;
#MUSIC:Sennen no kotowari.ogg;
#SAMPLESTART:78.039;
#SAMPLELENGTH:15;
#BPMS:0=153;
#NOTES:
     dance-single:
     :
     Beginner:
     3:
     :
0000
0000
0000
0000
,
0000
0000
0000
0000
,
0000
0000
0000
0000
,
0000
0000
0000
0000
,
0000
0000
0000
0000
,
0000
0000
0000
0000
,
1000
0000
0000
0000
,
0001
0000
0000
0000
,
0100
0000
0000
0000
,
0010
0000
0000
0000
,
1000
0000
0001
0000
,
0100
0000
0010
0000
,
1000
0000
0100
0000
,
0010
0000
0001
0000
,
1000
0000
0010
0000
,
0001
0000
0010
0000
,
1000
0000
0100
0000
,
0001
0000
0100
0000
,
1001
0000
0000
0000
,
1001
0000
0000
0000
,
1001
0000
0000
0000
,
1001
0000
0000
0000
,
1000
0000
0100
0000
,
0010
0000
0001
0000
,
1000
0000
0001
0000
,
0100
0000
0010
0000
,
1000
0000
0010
0000
,
0100
0000
0100
0000
,
0001
0000
0010
0000
,
0100
0000
0100
0000
,
0010
0000
0001
0000
,
1000
0000
1000
0000
,
0001
0000
1000
0000
,
1001
0000
0000
0000
,
2000
0000
3000
0000
,
0002
0000
0003
0000
,
0200
0000
0300
0000
,
0020
0000
0030
0000
,
2000
0000
3000
0000
,
0200
0000
0300
0000
,
0020
0000
0030
0000
,
0002
0000
0003
0000
,
1000
0000
0001
0000
,
0020
0000
0030
0000
,
0001
0000
1000
0000
,
0020
0000
0030
0000
,
1000
0000
0100
0000
,
0001
0000
0010
0000
,
0001
0000
1000
0000
,
2002
0000
3003
0000
,
0100
0000
0001
0000
,
1000
0000
0010
0000
,
1000
0000
0100
0000
,
0010
0000
0100
0000
,
0001
0000
1000
0000
,
0010
0000
0100
0000
,
0001
0000
0010
0000
,
0100
0000
0001
0000
,
1000
1000
1000
0000
,
0001
0001
0001
0000
,
1000
0000
0100
0000
,
0001
0000
0100
0000
,
1000
1000
1000
0000
,
0001
0001
0001
0000
,
1000
0000
0001
0000
,
1000
0000
0010
0000
,
0100
0000
0001
0000
,
1000
0000
0001
0000
,
0100
0000
0001
0000
,
1000
0000
0010
0000
,
1000
0000
0001
0000
,
1000
0000
1000
0000
,
0010
0000
0010
0000
,
0001
0000
0001
0000
,
0010
0000
0010
0000
,
2002
0000
0000
0000
,
0000
0000
0000
0000
,
0000
0000
0000
0000
,
0000
0000
0000
0000
,
3003
0000
0000
0000
,
0000
0000
0000
0000
;
#NOTES:
     dance-single:
     :
     Easy:
     6:
     :
0000
0000
0000
0000
,
0000
0000
0000
0000
,
0000
0000
0000
0000
,
0000
0000
0000
0000
,
0000
0000
0000
0000
,
0000
0000
0000
0000
,
0001
0000
0010
0000
,
1000
0100
0010
0000
,
1001
0000
0110
0000
,
2002
0000
0000
3003
,
0100
0010
0100
0000
,
0001
0010
0001
0000
,
1000
0100
1000
0000
,
1001
0000
0110
0000
,
1000
0001
0100
0000
,
0010
1000
0001
0000
,
0100
0001
1000
0000
,
0200
0300
0002
0003
,
1000
0000
0001
0000
,
0100
0000
0010
0000
,
1000
0100
0010
0000
,
0001
0010
0100
0000
,
1001
0000
0110
0000
,
1001
0000
0110
0000
,
1000
0100
1000
0000
,
0001
0010
0001
0000
,
1000
0100
0010
0001
,
1000
0010
0100
0000
,
0001
0010
0100
1000
,
0001
0100
0010
0000
,
1000
0010
0100
0001
,
0010
0001
0100
0000
,
0001
0100
0010
1000
,
0100
1000
0010
0000
,
2000
3000
0002
0003
,
0200
0000
0000
0310
,
0200
0300
0002
0003
,
2000
0000
0000
3010
,
1000
0010
0100
0000
,
0001
0100
0010
0000
,
1001
0000
0110
0000
,
2002
0000
3003
0000
,
1000
0001
0100
0000
,
0010
1000
0100
0000
,
0001
0100
0010
0000
,
2002
0000
3003
0000
,
1000
0100
0001
0000
,
0001
0010
1000
0000
,
1000
0010
1000
0001
,
0100
0010
1000
0001
,
1000
0100
0010
0001
,
0200
0000
0000
0001
0301
0000
0000
0000
,
1000
0001
0100
0010
,
2000
0000
3001
0000
,
0001
0010
0100
1000
,
0020
0000
0000
1000
1030
0000
0000
0000
,
0001
0010
0001
0000
,
1000
0100
1000
0000
,
1000
0010
0100
0001
,
2000
0000
0000
0010
3010
0000
0000
0000
,
0001
0100
0010
0000
,
1000
0010
0100
0000
,
0001
1000
0010
0100
,
0002
0000
0000
0010
0013
0000
0000
0000
,
0001
0010
1000
0010
,
1000
0100
1000
0000
,
0001
0010
0001
0000
,
1000
0010
0100
0001
,
1000
0100
0010
0000
,
0100
0010
0001
0000
,
1000
0100
0010
0001
,
1000
0000
0000
1000
0000
0000
0100
0000
,
0000
0100
0000
0000
0001
0000
0000
0001
,
0000
0000
0010
0000
0000
0010
0000
0000
,
1000
0000
0000
1000
0000
0000
0001
0000
,
2002
0000
0000
0000
,
0000
0000
0000
0000
,
0000
0000
0000
0000
,
0000
0000
0000
0000
,
3003
0000
0000
0000
,
0000
0000
0000
0000
;
#NOTES:
     dance-single:
     :
     Medium:
     9:
     :
0000
0000
0000
0000
,
0000
0000
0000
0000
,
0000
0000
0000
0000
,
0000
0000
0000
0000
,
0000
0000
0000
0000
,
0000
0000
0000
0000
,
1000
0100
0010
0001
,
1000
0001
0100
0010
,
1000
0000
0100
0000
0001
0010
0001
0000
,
2000
0000
3020
0000
,
1030
0100
0010
0001
,
1000
0001
0010
0100
,
1000
0100
0001
0010
,
1000
0100
0001
0100
,
0001
0000
1000
0000
0010
0000
0100
0001
,
1000
0000
0010
0000
0100
0000
0001
1000
,
0010
0100
0001
1000
,
0001
0010
0001
0000
1000
0010
1000
0000
,
0001
0000
0010
0000
0001
0010
0001
0000
,
1000
0000
0100
0000
1000
0100
1000
0000
,
0001
0010
0100
1000
,
0001
0000
1000
0000
0010
0100
0001
0000
,
1001
0010
0100
1000
,
1001
0100
0010
0001
,
1010
0100
0001
0010
,
1010
0100
0001
0010
,
1000
0100
1000
0000
0001
0000
0010
0000
,
0001
0010
0001
0000
1000
0000
0100
0000
,
0001
0010
0100
0000
1000
0000
0010
0000
,
1000
0100
0010
0000
0001
0000
0100
0000
,
1000
0100
1000
0000
0001
0010
0001
0000
,
0100
0010
0100
0000
0010
0100
0010
0000
,
1000
0100
0010
0000
0100
0010
0001
0000
,
1100
0110
0011
1001
,
0201
0000
0310
0100
,
2002
0000
0000
3003
,
0210
0000
0301
0010
,
2001
0010
0001
0010
,
3001
0010
0100
1100
,
1000
0100
0010
0011
,
0001
0100
0001
0000
1000
0000
0010
0000
,
1000
0100
1000
0000
0001
0000
0100
0000
,
1000
0100
0010
0000
0001
0000
0010
0000
,
0001
0010
0100
0000
1000
0000
0100
0000
,
1000
0010
1000
0000
0010
0000
0100
0000
,
0001
0010
0001
0000
0010
0000
0100
0000
,
1000
0000
0100
0000
0001
0010
0100
0000
,
1000
0010
0100
0001
,
2002
3003
0220
0330
,
2100
0010
0001
0010
,
3001
0000
0010
0000
1000
0100
1000
0000
,
0011
0000
0000
1000
0100
0000
0001
0000
,
0001
0000
1000
0000
0100
0001
0010
0001
,
1000
0000
0001
0000
0100
0010
0100
0000
,
1000
0000
0100
0000
0001
0010
0001
0000
,
1100
0000
0000
0001
0100
0000
0010
0000
,
1001
0100
0010
1000
,
0011
0010
0100
1100
,
0001
0100
0010
0000
0100
0010
1000
0000
,
0002
0000
0003
1000
0100
0000
0001
0000
,
0100
0000
0001
0000
0100
0010
0100
0000
,
0001
0010
0001
0000
1000
0010
1000
0000
,
0001
0000
0010
0000
1000
0100
0010
0000
,
0002
0000
0003
1000
0100
0000
0010
0000
,
0001
0100
0001
0000
1000
0100
1000
0000
,
0011
0010
1000
0001
,
1000
0000
0010
0000
0100
0010
0100
0000
,
0101
1000
0010
0001
,
1000
0100
1000
0000
0011
0000
0110
0000
,
0001
0010
0001
0000
1010
0000
0110
0000
,
1000
0001
0100
0000
0001
1000
0100
0000
,
1000
0000
0000
0001
0000
0000
0100
0000
,
0000
0010
0000
0000
1001
0000
0000
0110
,
0000
0000
1100
0000
0000
0011
0000
0000
,
1001
0000
0000
1010
0000
0000
0101
0000
,
2002
0000
0000
0000
,
0000
0000
0000
0000
,
0000
0000
0000
0000
,
0000
0000
0000
0000
,
3003
0000
0000
0000
,
0000
0000
0000
0000
;
#NOTES:
     dance-single:
     :
     Hard:
     12:
     :
0000
0000
0000
0000
,
0000
0000
0000
0000
,
0000
0000
0000
0000
,
0000
0000
0000
0000
,
0000
0000
0000
0000
,
0000
0000
0000
0000
,
1000
0000
0100
0000
0001
0010
0001
0000
,
1000
0000
0010
0000
0100
0001
0100
0000
,
1001
0010
0100
1000
,
0011
0000
0010
0000
1000
0100
1000
0000
,
0001
0010
0001
0000
1100
0000
0110
0000
,
1000
0100
1000
0000
0011
0000
0110
0000
,
1000
0010
0100
0000
0001
0100
0010
0000
,
1000
0100
0010
0001
1000
0001
0100
0010
,
1000
0000
0100
0000
0001
0010
0001
0000
,
1000
0100
0010
0000
0100
0010
0001
0000
,
1100
0110
0011
1001
,
1000
0000
0000
0001
0010
0000
0100
0000
1000
0000
0001
0000
0100
0000
0000
0000
,
1000
0000
0001
1000
0010
0100
0001
0000
,
0010
0000
1000
0001
0100
0010
1000
0000
,
0001
0000
1000
0010
0001
0010
1000
0000
,
1000
0100
0001
0000
0001
0010
1000
0010
,
0001
0000
1000
0100
0010
0001
0010
0000
,
1001
0000
0010
0100
1000
0100
0010
0000
,
1000
0100
0010
0001
1000
0001
0100
0010
,
1100
0110
0011
1001
,
1000
0010
0100
0001
1000
0100
0010
0000
,
0001
0100
0010
1000
0001
0010
0100
0010
,
0001
1000
0010
0100
0001
0010
0100
0000
,
1001
0110
0101
1010
,
1000
0010
0001
0010
1000
0100
0010
0000
,
0001
0100
1000
0100
0001
0010
0100
0000
,
1000
0100
0001
0000
1000
0010
0001
0000
,
0110
1001
0011
1100
,
2001
0000
0000
3010
0100
0000
0001
0000
,
2100
0000
0001
0000
3010
0100
0010
1000
,
0102
0000
0000
0013
0100
0000
0001
1000
,
0102
0000
1000
0000
0010
0000
1003
0100
,
0020
0000
0000
0031
0200
0000
0310
1000
,
0010
0000
1000
0100
0010
0000
0001
0010
,
0101
0000
1000
0100
1010
0000
0001
0010
,
2002
3003
0220
0330
,
1001
0000
0110
0000
1000
0100
0010
0001
,
1000
0001
0100
0000
0001
1000
0010
0100
,
1001
0000
0110
0000
0001
0010
0100
1000
,
0001
0100
1000
0100
0001
0000
0010
0100
,
1001
0000
0110
0000
1000
0001
0100
0010
,
1000
0000
0000
0001
0010
0000
0100
0000
1000
0000
0000
0000
0001
0000
0100
0000
,
0010
0000
1000
0010
0100
0000
1000
0100
,
0022
0000
0000
0000
0033
0000
0100
1000
,
0101
0000
1100
0000
1000
0100
0010
0001
,
1000
0000
0010
0001
0010
0000
1001
0000
,
0110
0000
0011
0000
1000
0010
0100
0001
,
1000
0100
0010
0100
1000
0010
0100
0010
,
1001
0000
0110
0000
1000
0010
0001
0010
,
1000
0110
0011
1001
,
1000
0010
0100
0001
1000
0100
0010
0001
,
1000
0100
0010
0000
1001
0000
0110
0000
,
1100
0000
0011
0000
1000
0001
0100
0010
,
1000
0100
0010
0001
0010
0000
1001
0000
,
0101
0000
1010
0000
1000
0001
0100
0010
,
1000
0010
0001
0010
1000
0100
0001
0100
,
0010
0000
1001
0000
0100
0010
0001
0010
,
1000
0000
0101
0000
1010
0000
0001
0010
,
0100
0010
1000
0010
0100
0010
0001
0010
,
0001
0100
0010
0000
0100
0010
0001
0010
,
1000
0001
0010
0000
1000
0001
0100
0010
,
1000
0100
0001
0000
1000
0010
0001
0000
,
1001
0000
0110
0000
1000
0100
0010
0100
,
1000
0000
0011
0000
1000
0001
0100
0010
,
1000
0100
0010
0001
1000
0010
0001
0010
,
1000
0000
0000
0101
0000
0000
0010
0000
0000
1100
0000
0000
0001
0000
0000
0011
,
0000
0000
1000
0000
0000
1010
0000
0000
0100
0000
0000
0011
0000
0000
0100
0000
,
0000
1010
0000
0000
0001
0000
0000
0110
0000
0000
1000
0000
0000
0110
0000
0000
,
0010
0000
0000
1001
0000
0000
0100
0000
0000
1001
0000
0000
0110
0000
0000
0000
,
2002
0000
0000
0000
,
0000
0000
0000
0000
,
0000
0000
0000
0000
,
0000
0000
0000
0000
,
3003
0000
0000
0000
,
0000
0000
0000
0000
;
#NOTES:
     dance-double:
     :
     Easy:
     6:
     :
00000000
00000000
00000000
00000000
,
00000000
00000000
00000000
00000000
,
00000000
00000000
00000000
00000000
,
00000000
00000000
00000000
00000000
,
00000000
00000000
00000000
00000000
,
00000000
00000000
00000000
00000000
,
10000000
00000000
01000000
00000000
,
00100000
00000000
00010000
00000000
,
00001000
00000000
00000100
00000000
,
00001001
00000000
00000110
00000000
,
00001000
00000000
00010000
00000000
,
00001000
00010000
00001000
00000000
,
01000000
00000000
00100000
00000000
,
01000000
00100000
01000000
00000000
,
00100000
00000000
00001000
00000000
,
00100000
00001000
00100000
00000000
,
00000100
00000000
00010000
00000000
,
00000100
00010000
00000100
00010000
,
00000010
00000000
00000100
00000000
,
00001000
00000000
00010000
00000000
,
00100000
00000000
00001000
00000000
,
00010000
00000000
00000100
00000000
,
00001000
00000000
00000001
00000000
,
00000100
00000000
00000010
00000000
,
00001000
00000000
00000100
00000000
,
00010000
00000000
00001000
00000000
,
00100000
00000000
00010000
00000000
,
00100000
00010000
00100000
00000000
,
00000100
00000000
00001000
00000000
,
00000100
00001000
00000100
00000000
,
00100000
00001000
00010000
00000000
,
00000100
00010000
00001000
00000000
,
01000000
00100000
00010000
00000000
,
00000010
00000100
00001000
00000000
,
00020000
00030000
00002000
00003000
,
00020000
00000000
00000000
00030000
,
00000200
00000300
00002000
00003000
,
00000002
00000000
00000000
00000003
,
00002000
00003000
00000200
00000300
,
00020000
00030000
00002000
00003000
,
00200000
00300000
00020000
00030000
,
20000000
00000000
00000000
30000000
,
00010000
00000000
01000000
00000000
,
00001000
00100000
00001000
00000000
,
00010000
00000000
00000100
00000000
,
00000010
00000001
00001000
00000000
,
00000001
00000010
00000100
00000000
,
00001000
00000010
00010000
00000000
,
00001000
01000000
00010000
00100000
,
20020000
00000000
30030000
00000000
,
10000000
01000000
00100000
00000000
,
00002000
00003000
00020000
00030000
,
00000010
00000000
00000100
00000000
,
00001000
00000010
00001000
00000100
,
00010000
00001000
00100000
00000000
,
02000000
03000000
00200000
00300000
,
00001000
00000000
00010000
00000000
,
00010000
00001000
00010000
00001000
,
00100000
00010000
00001000
00000100
,
00002000
00003000
00000002
00000003
,
00000100
00001000
00010000
00000000
,
00001000
00100000
00010000
00000000
,
10000000
00010000
00100000
01000000
,
00020000
00030000
00002000
00003000
,
00000010
00000100
00000010
00000010
,
00000001
00000000
00000100
00000000
,
00001000
00000000
00010000
00000000
,
01000000
00000000
10000000
00100000
,
10000000
00000000
01000000
00000000
,
00010000
00000000
00001000
00000000
,
00000100
00000001
00000010
00000000
,
00000001
00000000
00000000
00000001
00000000
00000000
00000100
00000000
,
00000000
00000100
00000000
00000000
00001000
00000000
00000000
00001000
,
00000000
00000000
00010000
00000000
00000000
00010000
00000000
00000000
,
00100000
00000000
00000000
00100000
00000000
00000000
10000000
00000000
,
20020000
00000000
00000000
00000000
,
00000000
00000000
00000000
00000000
,
00000000
00000000
00000000
00000000
,
00000000
00000000
00000000
00000000
,
30030000
00000000
00000000
00000000
,
00000000
00000000
00000000
00000000
;
#NOTES:
     dance-double:
     :
     Medium:
     9:
     :
00000000
00000000
00000000
00000000
,
00000000
00000000
00000000
00000000
,
00000000
00000000
00000000
00000000
,
00000000
00000000
00000000
00000000
,
00000000
00000000
00000000
00000000
,
00000000
00000000
00000000
00000000
,
10000000
01000000
00100000
00010000
,
00001000
00000000
00000100
00000000
00000010
00000001
00000100
00000000
,
00000010
00001000
00000100
00010000
,
00001000
00100000
00010000
01000000
,
00010000
00000000
10000000
00000000
00100000
01000000
00100000
00000000
,
00010000
00000000
00001000
00000000
00010000
00001000
00010000
00000000
,
00000010
00000000
00001000
00000000
00000010
00000100
00000010
00000000
,
00000100
00001000
00010000
00000000
00001000
00010000
00100000
00000000
,
10000000
01000000
00100000
00010000
,
00001000
00000100
00000010
00000001
,
00001000
00000001
00000100
00000010
,
00010000
00001000
00100000
00010000
,
20000000
00000000
00000000
30000000
00000000
00010000
00100000
00001000
,
00000000
00010000
00000100
00001000
,
00000001
00000010
00000100
00001000
,
00010000
00100000
01000000
10000000
,
00100000
00000000
01000000
00000000
00010000
00100000
00000000
00000000
,
00000010
00000000
00000100
00000000
00001000
00000100
00000000
00000000
,
00010000
00000000
00001000
00000000
00010000
00001000
00000000
00000000
,
00000100
00001000
00010000
00100000
,
10000000
00100000
01000000
00110000
,
00001000
00000010
00000100
00000011
,
00000100
00000001
00001000
00000010
,
00010000
00001000
00100000
00010000
,
01100000
00100000
00010000
00001000
,
00000110
00000100
00001000
00010000
,
00001000
00000100
00000010
00000100
,
00001000
00010000
00100000
00010000
,
00002000
00000000
00003020
00000000
,
00000230
00000000
00000000
00000000
00000000
00000000
00010300
00001000
,
00200000
00000000
00320000
00000000
,
20030000
00000000
00000000
00000000
00000000
00000000
31000000
00100000
,
00010000
00000000
01000000
00000000
00001000
00010000
00001000
00000000
,
00100000
00001000
00011000
00001000
,
01000000
00100000
00010000
00001000
,
00000010
00000100
00010000
00001000
,
01000000
00010000
00100000
00001000
,
00010000
00000010
00001000
00000000
00000010
00010000
00001000
00000000
,
00000010
00000001
00000100
00000010
,
00000100
00000010
00001000
00000000
00000100
00010000
00001000
00000000
,
01000000
00010000
10000000
00100000
,
01000000
00010000
00100000
00001000
,
00010000
00000000
00000100
00000000
00001000
00000100
00001000
00000000
,
00000001
00000010
00000100
00001000
,
00011000
00000000
01000000
00000000
00010000
01000000
00010000
00000000
,
00100000
00010000
00001000
00000100
,
00001001
00000010
00000100
00001000
,
00010000
00100000
01000000
10000000
,
01100000
00000000
00010000
00000000
00001000
00010000
00001000
00000000
,
00010000
00000100
00001000
00000010
,
00001000
00000000
00000100
00000000
00010000
00001000
00010000
00000000
,
00001000
00100000
00010000
01000000
,
00011000
00000000
00000100
00000000
00001000
00000010
00001000
00000000
,
00000001
00000010
00000100
00001000
,
00010000
00000000
01000000
00000000
00010000
01000000
00010000
00000000
,
00011000
00001010
00000101
00001001
,
00000010
00000000
00001000
00000000
00000010
00001000
00000100
00000000
,
00010000
00001000
00100000
00010000
,
01000000
00000000
00010000
00000000
00100000
00001000
00010000
00000000
,
00000010
00000100
00001000
00000100
,
00001000
00010000
00001000
00000100
,
00010000
00100000
01000000
00100000
,
01000000
00010000
00100000
00001000
,
00010000
00000100
00001000
00000010
,
00000100
00000001
00001000
00000010
,
00001010
00000000
00000000
00010100
00000000
00000000
00011000
00000000
,
00000000
01010000
00000000
00000000
10010000
00000000
00000000
00101000
,
00000000
00000000
00010100
00000000
00000000
00011000
00000000
00000000
,
01010000
00000000
00000000
00101000
00000000
00000000
00010010
00000000
,
00022000
00000000
00000000
00000000
,
00000000
00000000
00000000
00000000
,
00000000
00000000
00000000
00000000
,
00000000
00000000
00000000
00000000
,
00033000
00000000
00000000
00000000
,
00000000
00000000
00000000
00000000
;
#NOTES:
     dance-double:
     :
     Hard:
     12:
     :
00000000
00000000
00000000
00000000
,
00000000
00000000
00000000
00000000
,
00000000
00000000
00000000
00000000
,
00000000
00000000
00000000
00000000
,
00000000
00000000
00000000
00000000
,
00000000
00000000
00000000
00000000
,
10000000
01000000
00100000
00000000
00010000
00100000
00010000
00000000
,
00010000
00001000
00010000
00000000
00001000
00000100
00000010
00000000
,
00000001
00000100
00000010
00001000
00000100
00010000
00001000
00000000
,
01010000
00000000
00011000
00000000
00000010
00001000
00000001
00000010
,
00000100
00000000
00001000
00000010
00000100
00000001
00001000
00000000
,
00000100
00010000
00001000
00000000
00100000
00000000
00001000
00000000
,
10000000
00000000
00010000
01000000
00100000
10000000
00010000
00000000
,
00100000
00001000
00010000
00000000
00000100
00010000
00001000
00000000
,
00100000
00001000
00010000
00000100
00001000
00000001
00000010
00000000
,
00000110
00001100
00011000
00110000
,
10000000
01000000
00100000
00010000
00100000
00010000
00001000
00000100
,
00001000
00000001
00000100
00000000
00000010
00001000
00000100
00000000
,
00011000
00000000
01010000
00000000
00100000
00010000
01000000
00000000
,
00011000
00000000
00001100
00000000
00000010
00010000
00001000
00000000
,
00010000
00100000
10000000
01000000
00010000
00000000
00011000
00000000
,
00001000
00000010
00000001
00000100
00001000
00000000
00011000
00000000
,
00100000
01000000
00100000
00000000
00010000
00001000
00000100
00000000
,
00000010
00000001
00000100
00000000
00000010
00001000
00000100
00000000
,
00000001
00000100
00001000
00010000
00001000
00000000
00010000
00000000
,
00001000
00010000
01000000
10000000
00100000
00000000
00010000
00000000
,
10000000
00100000
01000000
00000000
00010000
00100000
00001000
00000000
,
00010000
00000100
00001000
00000000
00000010
00000100
00000001
00000000
,
00001000
00000001
00000100
00000000
00001000
00010000
00100000
00000000
,
10000000
01000000
00100000
00010000
00100000
00010000
00001000
00000100
,
00000010
00001001
00000110
00011000
,
01010000
10100000
01010000
00011000
,
00000010
00000100
00010000
00001000
,
10000000
00000000
00100000
01000000
00010000
00100000
00001000
00010000
,
00000020
00000000
00000000
00000130
00000001
00000000
00001000
00000100
,
00020000
00000000
00001000
00000000
00030100
00010000
00001000
01000000
,
00200000
00000000
00000000
01300000
00010000
00000000
00100000
00010000
,
00002000
00000000
00000100
00000000
00000001
00000000
00003010
00000100
,
00001000
00000000
00100000
00001000
00010000
00000000
00100000
00010000
,
00001000
00010000
00000100
00000010
00000001
00000000
00000001
00001000
,
00000100
00000000
00010000
00001000
00100000
00010000
01000000
00100000
,
01000000
00000000
00100000
00000000
10010000
00000000
00100000
00010000
,
00001000
00000000
00000010
00000000
00000100
00000001
00001000
00000010
,
00000100
00000001
00000010
00000100
00001000
00000000
00000010
00010000
,
00001000
00000000
01000000
00000000
00100000
10000000
00010000
01000000
,
00100000
10000000
01000000
00100000
00010000
00000000
00100000
00001000
,
00010000
00000000
00000100
00001000
00000010
00000000
00000001
00000100
,
00000010
00000000
00001000
00000100
00010000
00000000
00001000
01000000
,
00100000
00000000
00010000
00001000
00000100
00000010
00000100
00001000
,
00010000
00000000
00011000
00000000
00001100
00000000
00000100
00000010
,
00000001
00000000
00000010
00000000
00001000
00000001
00000100
00000010
,
00002000
00000000
00000000
00003001
00000010
00000000
00001000
00000100
,
00010000
00000000
00001000
00000000
00100000
00010000
01000000
00100000
,
10000000
00000000
00100000
00000000
01000000
00010000
00100000
00010000
,
10000000
00000000
00100000
00000000
01000000
00010000
00100000
00001000
,
00020000
00000000
00000000
00031000
00100000
00000000
00001000
00010000
,
00000100
00000000
00001000
00000000
00000001
00000010
00000100
00001000
,
00010000
00100000
01000000
10000000
01000000
00000000
01010000
00000000
,
00011000
00000000
00000110
00000000
00000100
00010000
00001000
00100000
,
00020000
00000000
00000000
10030000
01000000
00000000
00010000
00100000
,
00001000
00000000
00010010
00000000
00000100
00001000
00010000
00100000
,
00010000
00000000
01100000
00000000
10000000
00100000
01000000
00100000
,
10010000
00000000
01100000
00000000
00100000
00010000
00001000
00000100
,
00001000
00000000
00000000
00000001
00000010
00000000
00000100
00001000
,
00010000
00100000
01000000
10000000
00100000
01000000
00010000
00100000
,
00001000
00000000
00010000
00000100
00001000
00000010
00000100
00000000
,
00010000
00000000
00001000
00100000
00010000
01000000
00100000
00000000
,
10000000
01000000
00100000
00000000
00100000
00001000
00010000
00000100
,
00001000
00000000
00000010
00000000
00000100
00000010
00001000
00000000
,
00000100
00001000
00010000
00000000
00100000
01000000
10000000
00000000
,
00001000
00010000
00000100
00001000
00000010
00000100
00000001
00000100
,
00000010
00000000
00000000
00001000
00000000
00000000
00000010
00000000
00000000
00000100
00000000
00000000
00000010
00000000
00000000
00001000
,
00000000
00000000
00000100
00000000
00000000
00010000
00000000
00000000
00001000
00000000
00000000
00100000
00000000
00000000
00010000
00000000
,
00000000
01000000
00000000
00000000
00100000
00000000
00000000
10000000
00000000
00000000
00010000
00000000
00000000
00100000
00000000
00000000
,
00001000
00000000
00000000
00010000
00000000
00000000
00000100
00000000
00010000
00000000
00001000
00000000
00010000
00000000
00000000
00000000
,
00022000
00000000
00000000
00000000
,
00000000
00000000
00000000
00000000
,
00000000
00000000
00000000
00000000
,
00000000
00000000
00000000
00000000
,
00033000
00000000
00000000
00000000
,
00000000
00000000
00000000
00000000
;
