
//----- song ID: seik -----//
#TITLE:星座が恋した瞬間を。;
#ARTIST:BEMANI Sound Team "DJ TOTTO feat.MarL";
#TITLETRANSLIT:Seiza ga koishita shunkan wo.;
#BANNER:Seiza ga koishita shunkan wo.png;
#BACKGROUND:Seiza ga koishita shunkan wo-bg.png;
#CDTITLE:./CDTitles/DDR A.png;
#MUSIC:Seiza ga koishita shunkan wo.ogg;
#SAMPLESTART:54.187;
#SAMPLELENGTH:15;
#BPMS:0=186;
#NOTES:
     dance-single:
     :
     Beginner:
     2:
     :
0000
0000
0000
0000
,
0000
0000
0000
0000
,
0000
0000
0000
0000
,
0000
0000
0000
0000
,
0000
0000
0000
0000
,
1000
0000
0000
0000
,
0001
0000
0000
0000
,
0100
0000
0000
0000
,
0010
0000
0100
0000
,
0001
0000
0000
0000
,
0001
0000
0000
0000
,
1000
0000
0000
0000
,
1000
0000
0000
0000
,
0010
0000
0000
0000
,
0010
0000
0000
0000
,
0100
0000
0000
0000
,
0100
0000
0000
0000
,
0010
0000
0000
0000
,
1000
0000
0000
0000
,
0001
0000
0000
0000
,
1000
0000
0000
0000
,
0001
0000
0000
0000
,
0010
0000
0000
0000
,
0010
0000
0000
0000
,
0100
0000
0000
0000
,
0100
0000
0000
0000
,
0001
0000
0000
0000
,
1000
0000
0000
0000
,
0001
0000
0000
0000
,
1000
0000
0000
0000
,
0010
0000
0000
0000
,
0010
0000
0000
0000
,
0100
0000
0000
0000
,
0100
0000
0000
0000
,
0001
0000
0000
0000
,
0100
0000
0000
0000
,
0010
0000
0000
0000
,
1000
0000
0000
0000
,
0001
0000
0000
0000
,
0010
0000
0000
0000
,
0100
0000
0010
0000
,
0100
0000
0000
0000
,
0010
0000
0010
0000
,
0100
0000
0100
0000
,
0001
0000
0000
0000
,
1000
0000
0000
0000
,
0010
0000
0010
0000
,
0100
0000
0100
0000
,
1000
0000
0000
0000
,
0001
0000
0000
0000
,
0010
0000
0010
0000
,
0100
0000
0100
0000
,
0001
0000
0000
0000
,
1000
0000
0000
0000
,
0010
0000
0100
0000
,
0010
0000
0100
0000
,
1000
0000
0000
0000
,
0001
0000
0100
0000
,
0010
0000
0000
0000
,
0010
0000
0000
0000
,
0100
0000
0000
0000
,
0100
0000
0000
0000
,
0001
0000
0000
0000
,
0001
0000
0000
0000
,
1000
0000
0000
0000
,
1000
0000
0000
0000
,
0010
0000
0000
0000
,
1000
0000
0000
0000
,
0001
0000
0000
0000
,
1000
0000
0000
0000
,
0001
0000
0000
0000
,
0100
0000
0000
0000
,
0010
0000
0000
0000
,
1000
0000
0000
0000
,
0001
0000
0000
0000
,
0100
0000
0100
0000
,
0010
0000
0010
0000
,
1000
0000
0000
0000
,
0001
0000
0000
0000
,
0010
0000
0010
0000
,
0100
0000
0100
0000
,
1000
0000
1000
0000
,
0001
0000
0001
0000
,
1000
0000
0001
0000
,
1001
0000
0000
0000
,
1000
0000
0000
0000
,
0001
0000
0000
0000
,
0100
0000
0000
0000
,
0010
0000
0000
0000
,
1000
0000
0000
0000
,
0001
0000
0000
0000
,
0100
0000
0000
0000
,
0010
0000
0010
0000
,
0000
0000
0000
0000
;
#NOTES:
     dance-single:
     :
     Easy:
     7:
     :
0000
0000
0000
0000
,
0000
0000
0000
0000
,
0000
0000
0000
0000
,
0000
0000
0000
0000
,
0000
0000
0000
0000
,
1000
0000
0000
0001
0000
0000
0100
0000
,
0010
0000
1000
0000
,
0001
0010
0100
1000
,
0010
0000
0000
0000
0100
0001
0100
0000
,
0010
1000
0010
0000
,
0100
0001
0100
0000
,
0010
1000
0010
0000
,
1000
0100
0010
0001
,
1000
0010
1000
0000
,
0001
0100
0001
0000
,
1000
0010
1000
0100
,
0001
0001
1000
1000
,
0010
0000
0000
0000
,
0100
0000
0001
0100
,
1000
0000
1000
0100
,
0001
0001
1000
1000
,
0010
0000
0000
0010
,
2000
0000
0001
0001
,
3100
0000
0010
0100
,
0001
0000
1000
0000
,
0010
0000
0000
0000
,
0100
0000
1000
0100
,
0001
0000
0001
0100
,
1000
1000
0001
0001
,
0010
0000
0000
0010
,
0002
0000
1000
1000
,
0103
0000
0010
0100
,
1000
0000
0001
0000
,
0010
0000
0000
0000
,
1001
0000
1100
0000
,
0010
0010
0010
0000
,
1001
0000
0101
0000
,
0010
0010
0010
0000
,
1000
0001
0100
0000
,
0001
1000
0100
0010
,
0001
0000
1000
0000
0100
0000
0001
1000
,
0001
0000
0200
0000
,
0310
0010
0010
0010
,
0100
0100
0100
0100
,
0001
1000
0010
0100
,
0001
1000
0100
0010
,
0001
0001
0001
0001
,
1000
1000
1000
1000
,
0010
0100
0001
1000
,
0110
0000
1001
0000
,
0001
0100
0001
0010
,
1000
0100
1000
0010
,
0100
0000
0100
0000
,
0010
0000
0010
0000
,
1000
0001
1000
0100
,
0001
1000
0001
0000
,
1000
0100
0010
0001
,
1001
0000
0100
0100
,
0001
0010
0001
0000
,
1000
0100
1000
0000
,
0001
0100
0001
0000
,
1000
0010
1000
0000
,
0001
0010
0100
1000
,
0001
1000
0010
0100
,
0001
0010
0100
1000
,
0001
0000
0001
0000
1000
0000
0100
0100
,
0000
0000
0000
0000
,
0010
0000
0000
0000
,
0100
0000
0000
0000
,
0001
0000
0000
0000
,
1000
0000
0000
0000
,
0010
0010
0010
0010
,
0010
0010
0010
0100
,
1000
0010
0100
0001
,
0010
0000
0100
0000
,
1000
0001
1000
0100
,
0001
1000
0001
0100
,
1000
0100
0010
0001
,
0100
0010
1000
0100
,
1000
1000
0001
0001
,
0100
0000
1000
0001
1000
0000
0000
0000
,
0001
0010
0100
1000
,
0001
0000
0000
0000
0010
0100
0010
0000
,
1000
0100
0010
0001
,
0010
0000
1000
0001
1000
0000
0000
0000
,
0100
0000
0001
0000
,
1000
0000
0100
0000
,
0010
0000
0001
0000
,
1000
0000
0010
0000
,
0100
0000
0001
0000
,
1000
0000
0010
0000
,
1000
0100
0010
0001
,
0100
0000
0100
0000
0001
0001
1000
1000
,
0000
0000
0000
0000
;
#NOTES:
     dance-single:
     :
     Medium:
     9:
     :
0000
0000
0000
0000
,
0000
0000
0000
0000
,
0000
0000
0000
0000
,
0000
0000
0000
0000
,
0000
0000
0000
0000
,
0001
0000
0000
1000
0000
0000
0010
0000
,
1000
0000
0001
0010
0001
0000
0000
0000
,
1000
0010
0100
0001
,
1001
0000
0000
0100
0010
0100
0010
0000
,
1000
0000
0001
0000
0100
0010
0000
0010
,
0000
1000
0001
0000
0100
0000
0010
0000
,
1000
0000
0001
0000
0010
0100
0000
0100
,
0000
1000
0010
0000
0100
0000
0001
0000
,
0100
0000
0010
0000
1000
0001
0000
0001
,
0000
0100
0010
0000
1000
0000
0001
0000
,
0100
0000
0001
0000
0010
0001
0000
0001
,
0000
1000
0100
0000
0010
0000
0001
0000
,
0100
0000
0100
0000
,
0010
0000
1000
0000
0001
0100
0001
0000
,
0100
0000
0001
0000
1000
0100
1000
0000
,
0010
1000
0001
0100
,
0010
0000
0100
0010
,
2000
0001
0010
0100
,
3001
0000
0100
0010
,
1000
0000
0001
0100
0000
0100
0010
0200
,
0000
0000
0000
0300
,
0010
0000
0001
0000
1000
0100
1000
0000
,
0100
0000
1000
0000
0001
0100
0001
0000
,
0010
0001
1000
0100
,
0010
0000
0100
0010
,
0002
1000
0010
0100
,
1003
0000
0100
0010
,
0001
0000
1000
0100
0000
0100
0010
0200
,
0000
0000
0000
0300
,
0010
0000
0001
0000
,
0100
0000
0001
1000
0100
0000
0000
0000
,
0010
0000
1000
0000
,
0100
0000
1000
0001
0100
0000
0000
0000
,
0010
1001
0101
0000
,
0010
1001
1100
0010
,
0001
0000
1000
0100
0000
0100
1000
0001
,
1000
0000
0202
0303
,
0010
0000
0100
0001
1000
0000
0001
0000
,
0010
1000
1001
0000
,
0100
0000
0001
0000
1000
0100
1000
0000
,
0010
0010
1001
0000
,
0010
0000
0001
1000
0100
0000
0001
0000
,
0100
0001
1001
0000
,
0100
0001
1000
0010
,
0100
0000
0001
1000
0100
0000
0000
0000
,
0010
0000
0100
1000
0010
0000
0001
0000
,
0010
1000
1001
0000
,
0100
0000
0001
0000
1000
0100
1000
0000
,
0010
0010
1001
0000
,
0010
0000
1000
0100
1000
0001
0100
0000
,
0010
1000
0101
0000
,
1000
0010
1100
0101
,
0010
0000
0000
1000
0001
0100
0010
0000
,
1000
0100
0001
0010
,
0001
0100
1000
0010
,
0100
0001
1000
0010
,
1000
0001
0110
1001
,
0100
0001
1000
0010
,
0100
0001
1000
0100
,
0010
0000
0001
0000
,
1000
0001
1000
0001
0100
0010
0100
0010
,
0000
0000
0000
0000
,
1000
0000
1000
0000
,
0001
0000
0001
0000
,
0100
0000
0010
0000
,
1000
0100
0010
0000
,
0001
0000
0001
0000
,
1000
0000
1000
0000
,
0001
0100
0010
1000
,
0001
0000
1000
0100
1000
0000
0000
0000
,
0001
0000
1000
0001
0100
0000
0010
0000
,
1000
0000
0001
0100
0001
0000
0000
0000
,
0001
1000
0010
0100
,
1010
0110
0101
0000
,
1000
0000
0001
0100
0010
0000
1000
0010
,
0100
0101
1100
0000
,
0001
0100
0010
1000
,
1001
0000
0000
0000
0100
0010
0100
0000
,
0011
0110
1100
0101
,
1001
0000
0010
0100
0010
0000
0000
0000
,
1000
0000
0001
0000
0100
0010
0000
0010
,
0000
0100
0001
0000
0010
0000
0100
0000
,
1000
0000
0001
0000
0010
0100
0000
0100
,
0000
1000
0010
0000
0100
0000
0001
0000
,
0010
0000
0100
0000
1000
0010
0000
0010
,
0000
0100
0001
0000
1000
0000
0010
0000
,
0100
0000
0001
0000
0010
0001
0000
0001
,
0000
1000
0100
1000
0001
0100
0010
0100
,
0000
0000
0000
0000
;
#NOTES:
     dance-single:
     :
     Hard:
     12:
     :
0000
0000
0000
0000
,
0000
0000
0000
0000
,
0000
0000
0000
0000
,
0000
0000
0000
0000
,
0000
0000
0000
0000
,
1000
0000
0000
0001
0000
0000
0100
0000
,
0010
0000
1000
0100
0010
0000
0001
0000
,
1100
0110
0011
1010
,
1001
0000
0000
0010
1000
0100
0100
0000
,
1000
0001
1000
0100
1000
0010
0000
0020
,
0000
1030
0001
0100
0010
1000
0001
0000
,
1000
0100
1000
0001
1000
0010
0000
0020
,
0000
1030
0001
0010
0100
1000
0010
0000
,
1000
0001
0100
0001
0010
0001
0000
0002
,
0000
1003
0100
0001
0100
1000
0010
0000
,
0100
0001
0010
0001
1000
0100
1000
0010
,
0100
0001
0010
0000
0100
1000
0020
0000
,
0000
0000
0000
0130
,
0001
0000
1000
0000
0100
1000
0010
0000
,
0100
0000
0001
0000
1000
0001
0100
0000
,
0010
0000
1000
0001
0010
0001
1000
0010
,
0100
0001
1000
0110
,
0002
0000
1000
0000
0103
0010
1000
0001
,
0000
0100
1100
0101
,
0010
0000
1000
0100
0000
0001
0100
2000
,
0000
0000
3010
0100
,
0001
0000
1000
0000
0100
1000
0001
0000
,
0100
0000
0010
0000
1000
0100
0010
0000
,
0001
0000
1000
0100
0010
0001
0100
0010
,
0100
0001
1000
0110
,
2000
0000
0001
0000
3100
0010
0001
0100
,
0000
0010
0101
1100
,
0010
0000
0001
0100
0000
1000
0100
0002
,
0000
0000
0000
0003
,
1000
1000
0000
0100
0010
0000
0001
0001
,
0100
0000
0001
0100
0010
0000
0000
0000
,
0001
0001
0000
0100
0010
0000
1000
1000
,
0100
0000
1000
0001
0010
0000
0000
0000
,
1000
0001
0010
0001
1000
0000
0000
0000
,
0001
1000
0010
1000
0001
0000
0100
0000
,
0010
0000
0010
0010
0000
0010
1000
0100
,
0010
0000
2002
3003
,
0001
0010
0001
1000
0100
1000
0001
0010
,
0001
0000
0100
1000
0010
0000
0000
0100
,
0001
0000
1000
0000
0001
0100
0010
0000
,
1100
1001
0101
0000
,
0100
0001
0100
0010
1000
0010
0100
0001
,
0100
0000
1000
0100
0010
0000
0000
0001
,
1000
0010
0100
0001
,
1100
0110
0101
0000
,
1000
0001
0100
0010
1000
0100
0010
0001
,
0100
0000
0010
0001
0100
0000
0000
0010
,
1000
0000
0001
0000
0100
0001
0100
0010
,
1000
0101
1100
0000
,
0001
0010
0100
1000
0010
0100
0001
1000
,
0010
0010
0100
0001
1000
0000
0000
0000
,
0001
0000
1000
0000
0010
0000
0001
0100
,
0100
0000
0000
0010
1000
0100
0100
0000
,
0011
0000
1000
0000
0001
0100
0010
0000
,
1100
0000
0001
0000
0100
0010
1000
0000
,
0001
0010
0100
0000
1000
0010
0100
0000
,
0001
0000
0100
0010
0100
0000
1001
0000
,
1000
0001
0100
0010
1000
0100
0010
0000
,
0001
0100
0010
1000
0100
0010
0001
1000
,
0010
0010
1000
1000
0001
0001
0100
0100
,
0010
1000
0010
0100
0001
1000
0100
0100
,
0000
0000
0000
0000
,
1000
0100
0000
0100
,
0001
0100
0000
0100
,
0000
1000
0000
0001
,
0010
0010
0010
0000
,
1000
1000
1000
1000
,
0100
0100
0100
0100
,
0010
0001
0010
0000
0100
1000
0001
0000
,
0110
1100
0101
0000
,
1000
0100
1000
0001
0010
0001
1000
0100
,
1000
0000
0010
0001
0100
0000
0000
0001
,
1000
0100
0010
0001
0100
0010
0100
0001
,
0011
1100
0101
0000
,
0001
0100
0010
1000
0100
0001
0100
1000
,
0010
0100
0001
0010
0100
0000
0000
0000
,
1100
0011
1100
0110
,
0101
0000
1000
0000
0010
0100
0100
0000
,
1010
0000
0101
0000
1010
0000
0110
0001
,
0100
0010
1000
0100
0100
0000
0000
0000
,
1000
0001
0100
0001
0010
0001
0000
0002
,
0000
1003
0100
0010
0001
0100
0010
1000
,
0001
0010
0001
0100
0001
1000
0000
2000
,
0000
3001
0100
0010
1000
0100
0010
0001
,
0100
0010
0100
0001
0100
0010
0000
0020
,
0000
1030
0100
0001
0100
1000
0010
0000
,
1000
0100
0010
0001
0100
0010
1000
0200
,
0000
0310
0100
0100
1000
0001
0100
0100
,
0000
0000
0000
0000
;
#NOTES:
     dance-double:
     :
     Easy:
     7:
     :
00000000
00000000
00000000
00000000
,
00000000
00000000
00000000
00000000
,
00000000
00000000
00000000
00000000
,
00000000
00000000
00000000
00000000
,
00000000
00000000
00000000
00000000
,
00001000
00000000
00000000
00100000
00000000
00000000
00010000
00000000
,
00100000
00000000
00100000
00000000
,
01000000
00000000
01000000
00000000
,
00010000
00000000
01000000
01000000
,
00010000
00100000
00001000
00000000
,
00010000
00000100
00001000
00000000
,
00000010
00000100
00000001
00000000
,
00001000
00000100
00000010
00000001
,
00001000
00000100
00010000
00000000
,
00001000
00100000
00010000
00000000
,
10000000
01000000
00100000
00000000
,
00010000
00000000
00010000
00000000
,
01000000
00000000
00000000
00000000
,
10000000
00000000
00010000
00010000
,
00100000
00000000
00001000
00001000
,
00010000
00000000
00000100
00000000
,
00002000
00000000
00000000
00003001
,
00000010
00000000
00000010
00000000
,
00000100
00000000
00000000
00000000
,
00001000
00000000
00000010
00000000
,
00000100
00000000
00000000
00000000
,
00000001
00000000
00001000
00001000
,
00000010
00000000
00010000
00010000
,
00001000
00000000
01000000
00000000
,
00020000
00000000
00000000
10030000
,
00100000
00000000
00100000
00000000
,
01000000
00000000
00100000
00010000
,
10000000
00000000
01000000
00000000
,
01000000
00000000
00000000
00000000
,
01010000
00000000
00101000
00000000
,
00010000
00010000
00001000
00000000
,
00001100
00000000
00010010
00000000
,
00001000
00001000
00010000
00000000
,
01000000
00000000
00000000
10000000
,
00010000
00000000
00000000
01000000
,
00100000
00000000
10000000
00000000
,
01100000
00000000
10010000
00000000
,
00100000
00100000
00100000
00100000
,
01000000
00010000
00001000
00000000
,
00000100
00000010
00001000
00000010
,
00000100
00000100
00000100
00000000
,
00000010
00000010
00000010
00000010
,
00000100
00001000
00010000
00000000
,
01000000
10000000
00010000
00100000
,
01000000
01000000
01000000
00000000
,
10000000
00000000
00010000
00000000
,
00110000
00110000
00101000
00000000
,
00010000
00000000
00000100
00000000
,
00001000
00000100
00000010
00000000
,
00000001
00000000
00001000
00000000
,
00001010
00001010
00010010
00000000
,
00001000
00010000
01000000
10000000
,
10010000
00000000
01000000
01000000
,
00100000
00000000
01000000
00000000
,
00001000
00000000
00010000
00000000
,
00000100
00000000
00001000
00000000
,
00000001
00000000
00000100
00000000
,
00000010
00000010
00001000
00001000
,
00000100
00000100
00010000
00010000
,
00001000
00001000
00100000
00100000
,
01000000
00000000
01000000
00000000
10000000
00000000
00010000
00010000
,
00000000
00000000
00000000
00000000
,
00100000
00000000
00000000
00000000
,
00100000
00000000
00000000
00000000
,
00100000
00000000
00000000
00000000
,
00100000
00000000
00000000
00000000
,
10000000
00000000
10000000
00000000
,
00100000
00000000
00100000
00000000
,
00010000
00000000
00001000
00000000
,
00000010
00000001
00000001
00000000
,
00000100
00000100
00000100
00000100
,
00000010
00001000
00010000
00000000
,
00100000
01000000
00010000
01000000
,
00100000
00100000
00100000
00000000
,
01000000
01000000
01000000
01000000
,
00100000
00010000
00001000
00000000
,
00000010
00000001
00001000
00000100
,
00000010
00000000
00000100
00000100
,
00010000
00001000
01000000
00100000
,
10000000
00000000
00010000
01000000
00010000
00000000
00000000
00000000
,
10000000
00000000
00010000
00000000
,
00100000
00000000
00001000
00000000
,
00010000
00000000
00000010
00000000
,
00000100
00000000
00000001
00000000
,
00001000
00000000
00000100
00000000
,
00010000
00000000
00001000
00000000
,
00100000
00000000
00001000
00000000
,
00010000
00000000
00010000
00000000
00001000
00001000
00010000
00010000
,
00000000
00000000
00000000
00000000
;
#NOTES:
     dance-double:
     :
     Medium:
     9:
     :
00000000
00000000
00000000
00000000
,
00000000
00000000
00000000
00000000
,
00000000
00000000
00000000
00000000
,
00000000
00000000
00000000
00000000
,
00000000
00000000
00000000
00000000
,
00001000
00000000
00000000
00100000
00000000
00000000
00010000
00000000
,
10000000
01000000
00100000
00000000
,
00001000
00010000
00000010
00000100
,
00001001
00000000
00000000
00000010
00000100
00000010
00000100
00000000
,
00000001
00000000
00001000
00000000
00000100
00000010
00000000
00001000
,
00000000
00010000
01000000
00000000
10000000
00000000
00100000
00000000
,
10000000
00000000
00010000
00000000
01000000
00100000
00000000
00010000
,
00000000
00001000
00000100
00000000
00000001
00000000
00000010
00000000
,
00000001
00000000
00000100
00000000
00000010
00001000
00000000
00000100
,
00000000
00010000
01000000
00000000
00100000
00000000
00010000
00000000
,
10000000
00000000
01000000
00000000
00100000
00001000
00000000
00010000
,
00000000
00000100
00000010
00000000
00000001
00000000
00001000
00000000
,
00000100
00000000
00000100
00000000
,
00000001
00000000
00001000
00000000
00000010
00001000
00000010
00000000
,
00010000
00000000
00001000
00000000
00100000
00010000
00100000
00000000
,
01000000
10000000
00010000
00100000
,
00001000
00000000
00010000
00100000
,
20000000
00010000
00100000
01000000
,
30010000
00000000
00100000
00001000
,
00010000
00000000
01000000
10000000
00000000
00010000
01000000
00200000
,
00000000
00000000
00000000
00300000
,
10000000
00000000
00010000
00000000
01000000
00010000
01000000
00000000
,
00001000
00000000
00010000
00000000
00000100
00001000
00000100
00000000
,
00000010
00000001
00001000
00000100
,
00010000
00000000
00001000
00000100
,
00000002
00001000
00000100
00000010
,
00001003
00000000
00000100
00010000
,
00001000
00000000
00000010
00000001
00000000
00001000
00000010
00000200
,
00000000
00000000
00000000
00000300
,
00000010
00000000
00001000
00000000
,
00000100
00000000
00010000
00001000
01000000
00000000
00000000
00000000
,
00100000
00000000
00010000
00000000
,
00100000
00000000
00001000
00010000
00000010
00000000
00000000
00000000
,
00001000
00010100
00011000
00000000
,
00010000
01001000
00011000
00000100
,
00001000
00000000
00000001
00000010
00000000
00000010
00001000
00010000
,
00001000
00000000
00022000
00033000
,
00001000
00000000
00010000
00001000
00100000
00000000
01000000
00000000
,
10000000
00100000
10010000
00000000
,
00100000
00001000
00010000
00000100
,
00001100
00001001
00000011
00000000
,
00000100
00000000
00001000
00000010
00000100
00000000
00001000
00000000
,
00010000
01000000
10010000
00000000
,
00100000
01000000
00010000
01000000
,
01100000
00110000
00011000
00000000
,
00001000
00000000
00010000
00001000
00100000
00000000
01000000
00000000
,
10000000
00010000
10010000
00000000
,
00100000
00001000
00010000
00000100
,
00011000
00110000
10010000
00000000
,
00100000
00000000
00001000
00010000
00000100
00000000
00001000
00000000
,
00000010
00000000
00000100
00000010
00001000
00000000
00000000
00000000
,
00000001
00000010
00000100
00010000
,
00001000
00000000
00000000
00010000
01000000
10000000
00010000
00000000
,
00100000
01000000
10000000
01000000
,
00010000
00001000
00000100
00000001
,
00000010
00000100
00001000
00000010
,
00000100
00001000
00010000
01000000
,
10000000
00010000
00100000
01000000
,
00010000
00001000
00000100
00000010
,
00001000
00000000
00000100
00000000
,
00010000
00001000
00010000
00001000
00100000
00010000
00100000
00010000
,
00000000
00000000
00000000
00000000
,
00100000
00000000
00000000
00000000
,
00100000
00000000
00000000
00000000
,
00000010
00000000
00000000
00000000
,
00000010
00000000
00000000
00000000
,
00010000
00000000
00010000
00000000
,
00001000
00000000
00001000
00000000
,
00010000
01000000
10000000
00010000
,
00100000
00000000
01000000
10000000
00100000
00000000
00000000
00000000
,
01000000
00000000
00001000
00010000
00000100
00000000
00010000
00000000
,
00000100
00000010
00001001
00000000
,
00000010
00001000
00000100
00010000
,
00011000
01010000
10010000
00000000
,
01000000
00000000
00010000
10000000
00010000
00000000
00100000
00000000
,
01010000
00101000
00011000
00000000
,
00010000
00000100
00000010
00000001
,
00001100
00000000
00000000
00000000
00010000
00001000
00001000
00000000
,
00010000
01000000
10000000
00010000
,
00100000
00000000
00001000
00010000
00010000
00000000
00000000
00000000
,
00000100
00000000
00001000
00000000
00000100
00000010
00000000
00001000
,
00000000
00010000
01000000
00000000
10000000
00000000
00100000
00000000
,
10000000
00000000
00010000
00000000
01000000
00100000
00000000
00010000
,
00000000
00001000
00000100
00000000
00000001
00000000
00000010
00000000
,
00000001
00000000
00000010
00000000
00000100
00001000
00000000
00000100
,
00000000
00010000
00001000
00000000
00100000
00000000
00010000
00000000
,
10000000
00000000
01000000
00000000
00100000
00001000
00000000
00010000
,
00000000
00000100
00001000
00000100
00000010
00000001
00000100
00000010
,
00000000
00000000
00000000
00000000
;
#NOTES:
     dance-double:
     :
     Hard:
     12:
     :
00000000
00000000
00000000
00000000
,
00000000
00000000
00000000
00000000
,
00000000
00000000
00000000
00000000
,
00000000
00000000
00000000
00000000
,
00000000
00000000
00000000
00000000
,
00010000
00000000
00000000
00000100
00000000
00000000
00001000
00000000
,
00000001
00000000
00000100
00000010
00000100
00000000
00000000
00000000
,
00000101
00000110
00001010
00011000
,
01001000
00000000
00000000
00100000
10000000
01000000
01000000
00000000
,
10000000
00010000
10000000
00100000
10000000
01000000
00000000
02000000
,
00000000
03010000
00001000
00000000
00000100
00000000
00000010
00000000
,
00000001
00001000
00000001
00000100
00000001
00000010
00000000
00000020
,
00000000
00001030
00010000
00000000
01000000
00000000
00100000
00000000
,
00010000
10000000
00010000
01000000
00010000
00100000
00000000
00200000
,
00000000
00301000
00010000
00000000
00000010
00000000
00000100
00000000
,
00001000
00000001
00001000
00000010
00001000
00000100
00000000
00000200
,
00000000
00010300
00001000
00000000
00100000
00010000
02000000
00000000
,
00000000
00000000
00000000
03100000
,
10000000
00000000
00100000
00000000
01000000
00010000
00100000
00000000
,
00001000
00000000
00010000
00000000
00000100
00001000
00000001
00000000
,
00001000
00000000
00000010
00000100
00000001
00000000
00000010
00000100
,
00002000
00000000
00003001
00000100
,
00000020
00001000
00000130
00000010
,
00001000
00000000
00000100
00010000
,
00001000
00000000
00100000
00001000
00000000
00010000
00000100
00002000
,
00000000
00000000
00003001
00000100
,
00000001
00000000
00000100
00000000
00000010
00001000
00000100
00000000
,
00010000
00000000
00001000
00000000
00100000
00010000
10000000
00000000
,
00010000
00000000
01000000
00100000
10000000
00000000
01000000
00100000
,
00020000
00000000
10030000
00100000
,
02000000
00010000
03100000
01000000
,
00010000
00000000
00100000
00001000
,
00010000
00000000
00000100
00010000
00000000
00001000
00100000
00020000
,
00000000
00000000
10030000
00100000
,
01000000
00010000
00000000
00010000
00100000
00000000
00100000
00001000
,
00010000
00000000
00010000
00000100
00001000
00000000
00000000
00000000
,
00000100
00001000
00000000
00001000
00000010
00000000
00000010
00010000
,
00001000
00000000
00001000
01000000
00010000
00000000
00000000
00000000
,
01000000
00010000
00100000
00000000
00001000
00000000
00000000
00000000
,
00010000
00001000
00000100
00000000
00000001
00000000
00000100
00000000
,
00000010
00000000
00001000
00000100
00000000
00010000
00001000
01000000
,
00010000
00000000
20020000
30030000
,
00100000
00010000
00100000
00001000
00010000
00001000
00100000
00010000
,
00100000
00000000
01000000
10000000
00010000
00000000
00000000
00000000
,
01000000
00001000
00010000
00000100
,
00001100
00000110
00001001
00000000
,
00000100
00001000
00000100
00010000
00001000
00010000
00000100
00001000
,
00000100
00000000
00000010
00000001
00001000
00000000
00000000
00000000
,
00000010
00001000
00000100
00010000
,
00011000
00110000
01010000
00000000
,
01000000
00010000
00100000
00001000
00010000
00000100
00010000
00000010
,
00000100
00000000
00000001
00001000
00000100
00000000
00000000
00000000
,
00001000
00000100
00010000
00001000
,
00110000
00011000
00010100
00000000
,
00000100
00001000
00000010
00010000
00001000
01000000
00001000
00100000
,
01000000
00000000
10000000
00010000
01000000
00000000
00000000
00000000
,
00100000
10000000
00010000
00100000
,
00001000
00000000
00000000
00010000
00000100
00001000
00001000
00000000
,
00000011
00000000
00001000
00000000
00000100
00010000
00001000
00000000
,
01010000
00000000
00100000
00000000
00010000
10000000
01000000
00000000
,
00010000
00001000
00000100
00000000
00000001
00000010
00000001
00000000
,
00001000
00000000
00000010
00001000
00000100
00001000
00000010
00000000
,
00000100
00000001
00000010
00000000
00000100
00010000
00001000
00000000
,
00010000
01000000
10000000
00000000
00010000
01000000
00001000
00000000
,
00010000
00010000
00000100
00000100
00001000
00001000
00000010
00000010
,
00000100
00000001
00000100
00000010
00010000
00000100
00001000
00001000
,
00000000
00000000
00000000
00000000
,
00000001
00000100
00000000
00000100
,
00001000
00010000
00000000
00010000
,
01000000
00000000
10000000
00000000
,
00100000
00100000
00100000
00000000
,
01000000
01000000
01000000
01000000
,
00010000
00010000
00010000
00010000
,
00100000
00000000
00001000
00000000
00010000
00001000
00000100
00000000
,
00000110
00001100
00011000
00000000
,
00100000
00010000
00100000
00001000
00010000
00001000
00100000
00010000
,
00100000
00000000
01000000
10000000
00010000
00000000
00000000
00100000
,
01000000
00000000
00010000
00000000
00001000
00000100
00000001
00000000
,
00000011
00000110
00001100
00000000
,
00000001
00000100
00000010
00010000
00001000
00010000
01000000
10000000
,
00100000
01000000
00010000
10000000
00100000
00000000
01000000
00000000
,
00110000
00011000
00001010
00000101
,
00000110
00000000
00000000
00000000
00000001
00000100
00000100
00000000
,
00001100
00011000
01010000
01100000
,
11000000
00000000
00010000
01000000
01000000
00000000
00000000
00000000
,
10000000
00010000
10000000
00100000
10000000
01000000
00000000
02000000
,
00000000
03010000
00001000
00000000
00000100
00000000
00000010
00000000
,
00000001
00001000
00000001
00000100
00000001
00000010
00000000
00000020
,
00000000
00001030
00010000
00000000
01000000
00000000
00100000
00000000
,
00010000
10000000
00010000
01000000
00010000
00100000
00000000
00200000
,
00000000
00301000
00010000
00000000
00000010
00000000
00000100
00000000
,
00001000
00000001
00001000
00000010
00001000
00000100
00010000
00002000
,
00000000
00013000
01000000
10000000
00100000
10000000
01000000
01000000
,
00000000
00000000
00000000
00000000
;
