
//----- song ID: syur -----//
#TITLE:シュレーディンガーの猫;
#ARTIST:Cait Sith;
#TITLETRANSLIT:Schrodinger no neko;
#BANNER:Schrodinger no neko.png;
#BACKGROUND:Schrodinger no neko-bg.png;
#CDTITLE:./CDTitles/pnm 16 PARTY.png;
#MUSIC:Schrodinger no neko.ogg;
#SAMPLESTART:26.932;
#SAMPLELENGTH:15;
#BPMS:0=187;
#NOTES:
     dance-single:
     :
     Beginner:
     6:
     :
0000
0000
0000
0000
,
0000
0000
0000
0000
,
0000
0000
0000
0000
,
0000
0000
2000
0000
,
0000
3000
0000
1000
0000
0000
0000
0000
,
0000
0000
0002
0000
0000
0000
0000
0003
,
0000
0001
0000
0000
0000
0000
0000
0000
,
0001
0000
0000
0000
0001
0000
0000
0100
,
0000
0000
0000
0100
0000
0000
0000
0000
,
0010
0000
0010
0000
0000
0002
0000
0000
,
0000
0003
0000
0000
1000
0000
0000
0000
,
1000
0000
0000
0100
0000
0000
0000
0100
,
0000
0000
0010
0010
,
0000
2000
0000
0000
0000
3000
0000
0000
,
0001
0001
0001
0000
,
0000
0000
0000
0000
0000
0000
0000
0010
,
0000
0010
0000
0010
0000
0000
0000
0000
,
0000
0000
0000
1000
0000
1000
0000
1000
,
0000
0000
0000
0000
0000
0000
0000
0001
,
0000
0001
0000
0000
0010
0000
0001
0000
,
0010
0000
0100
0000
,
0001
0000
0001
0000
,
0001
0001
0001
0000
,
1000
0000
1000
0000
,
1000
1000
1000
0000
,
1001
0000
1001
0000
,
0010
0000
0010
0000
,
1001
0000
1001
0000
,
0100
0000
0100
0000
,
0001
0001
0010
0000
,
0010
0001
0100
0000
,
1000
1000
0010
1000
,
0000
0000
0000
0000
,
0000
0000
0000
0000
,
0000
0000
0000
0000
,
0000
0000
0000
0000
,
0000
0000
0000
0000
,
0000
0000
0000
0000
,
0000
0000
0000
0000
,
2000
0000
3000
0000
,
0020
0000
0030
0000
,
2000
0000
3000
0000
,
0002
0000
0003
0000
,
0010
0000
0100
0000
,
0001
0000
1000
0000
,
1001
0000
0000
0000
,
0000
0000
0000
0000
,
0000
0001
0001
0000
,
1000
1000
0000
0010
,
0010
0000
0100
0100
,
0000
0001
0001
0000
,
1000
1000
0010
0010
,
0010
1000
0000
1000
,
0100
0100
0100
1000
,
0010
1000
0000
0000
,
0000
0000
0000
0000
,
0000
0000
0001
0000
,
0010
0000
0001
0000
,
0100
0000
0001
0001
,
0010
0010
0001
0001
,
0001
0000
1001
0000
,
0010
0000
1001
0000
,
0100
0000
1000
1000
,
1000
0000
0010
0010
,
0010
0000
1000
0010
,
1000
0000
0100
1000
,
0010
0000
1000
0000
,
1000
0000
0001
0001
,
0001
0000
0010
0010
,
0010
0000
1000
1000
,
1000
0000
0010
0010
,
0010
0000
0000
0000
,
0002
0000
0003
0000
,
0001
0000
0001
0001
,
0010
0010
0001
0000
,
1000
0000
0010
0000
,
0100
0000
0001
0000
,
1000
0000
1000
1000
,
0010
0010
1000
0000
,
0001
0000
1000
0000
,
0001
0000
1001
0000
,
0000
0000
0000
0000
,
0000
0000
1000
1000
,
1000
0000
0001
0001
,
0001
0000
1001
0000
,
0000
0000
0000
0000
;
#NOTES:
     dance-single:
     :
     Easy:
     9:
     :
0000
0000
0000
0000
,
0000
0000
0000
0000
,
0000
0000
0000
0000
,
0000
0000
0000
0000
1000
0000
0000
1000
,
0000
1000
0000
0001
0000
0000
0001
0000
,
0001
0000
0100
0000
0000
0100
0000
0100
,
0000
0010
0000
0000
0010
0000
0010
0000
,
1000
0000
0010
0000
0100
0000
0000
0001
,
0000
0010
0000
0100
0000
1000
0000
1000
,
0100
0000
0010
0000
0001
2000
0000
0000
,
0000
3000
0000
0000
0001
0000
0100
0000
,
0010
0000
0000
1000
0000
0001
0000
0010
,
0000
0100
0000
0100
1000
0000
0100
0000
,
0010
0002
0000
0000
0000
0003
0000
0000
,
0001
0000
0010
0000
0100
0000
0000
0100
,
1000
0000
0001
0000
0100
0000
0000
0010
,
0000
1000
0000
0001
0000
0000
0001
0010
,
0000
0100
0000
1000
0000
0001
0000
1000
,
0000
0000
1000
0001
0000
0100
0000
0010
,
0000
1000
0000
0000
0001
0000
1000
0000
,
0100
0010
0001
0000
,
0002
0103
2000
3100
,
0002
0103
2000
3100
,
0002
0013
2000
3010
,
0002
0013
2000
3010
,
0001
0001
0001
0000
1000
1000
1000
0000
,
0001
0101
1000
1100
,
0001
0001
0001
0000
1000
1000
1000
0000
,
0001
0011
1000
1010
,
0001
0100
0001
0100
,
0010
1000
0010
1000
,
0001
0000
0010
0000
0100
0000
1000
0001
,
0000
0000
0000
0000
,
0000
0000
0000
0000
,
0000
0000
0000
0000
,
0000
0000
0000
0000
,
0000
0000
0000
0000
,
0000
0000
0000
0000
,
0000
0000
0000
0000
,
0101
0000
0110
0000
,
1010
0000
1001
0000
,
0011
0000
0110
0000
,
1100
0000
0110
0000
,
1001
0000
0110
0000
,
1001
0000
0110
0000
,
1001
0000
0000
0000
,
0000
0000
0000
0000
,
0001
0100
0010
0010
,
1000
0100
0100
0010
,
0001
0001
1000
0010
,
0010
0100
0001
0001
,
1000
0000
0100
0000
0010
0001
0010
0000
,
0100
1000
1000
0001
,
0100
0010
0100
0000
1000
0000
0100
0000
,
0001
0100
2002
0000
,
0000
3003
0000
0000
,
0000
0000
0000
0000
0001
0100
0010
0000
,
1000
0000
0100
0000
1000
0001
0010
0000
,
0001
0010
0002
0013
,
2000
3010
0002
0103
,
2000
0000
3100
0000
0001
0001
0000
0000
,
0100
0100
0000
0000
1001
1001
0000
0000
,
0110
0000
0001
0001
,
0100
0010
1000
1000
,
0010
0100
0001
0010
,
0100
1000
0001
0100
,
0010
1000
0001
1000
,
0010
0100
0001
1000
,
0001
0001
0001
1000
0010
1000
,
1000
0000
0010
0000
1000
0000
0000
0010
0000
0000
0100
0000
,
0010
0010
0010
0100
0010
0100
,
0100
0001
1000
0000
0000
0000
,
0002
0000
2003
0000
,
3020
0000
0130
0010
,
1000
0001
0010
0100
,
2000
0010
3020
0100
,
0230
0001
0302
1000
,
2003
0010
3001
0010
,
0100
1000
0002
0103
,
2000
3010
0002
0013
,
2000
3100
1001
0000
,
0000
0000
0000
0000
,
0000
0000
1000
1000
,
0001
0001
0101
1010
,
1001
0110
1001
0000
,
0000
0000
0000
0000
;
#NOTES:
     dance-single:
     :
     Medium:
     12:
     :
0000
0000
0000
0000
,
0000
0000
0000
0000
,
0000
0000
0000
0000
,
0000
0000
0000
0000
0010
0001
0010
0100
,
0000
0100
0000
1000
0010
1000
0001
0000
,
0001
0000
0100
0010
0100
0001
0000
0001
,
0000
1000
0100
1000
0001
0000
0001
0000
,
1000
0100
0010
0001
1000
0000
0010
0100
,
0001
0000
1000
0010
0100
0100
0000
0001
,
0010
0100
1000
0001
1000
0020
0000
0000
,
0000
0030
0000
0000
1000
0001
0100
0010
,
1000
0000
0001
0010
0100
0000
1000
0001
,
0100
0100
0000
0010
1000
0001
0100
0010
,
0100
0002
0000
0000
0000
0003
0000
0000
,
0101
0000
0110
0000
1010
0000
0000
0001
,
1000
0000
0100
0010
0001
0010
0000
0110
,
0000
0011
0000
1001
0000
0000
0001
0100
,
0010
1000
0000
1001
0000
0110
0000
1001
,
0000
0000
0001
0010
0100
1000
0000
0110
,
0000
0011
0000
0000
1000
0001
1000
0010
,
0100
0001
1000
0100
0020
0000
0030
0000
,
0001
0010
0100
0000
1000
0001
0010
0000
,
0011
1010
0011
1010
,
0001
0010
0100
1000
0010
0100
0001
0000
,
0101
1100
0101
1100
,
0001
0010
0100
0000
1000
0010
0100
0000
,
0001
0100
1000
0100
0001
0010
1000
0000
,
0010
0001
0010
0000
0100
1000
0100
0000
,
0010
0001
0010
0100
1000
0001
0100
0000
,
0101
1100
1010
0011
,
0001
0010
0100
1000
0010
0100
0001
0000
,
0110
0000
1001
0000
0001
0010
0100
1000
,
0000
0000
0000
0000
,
0001
1000
0010
0100
,
0001
0010
1000
0100
,
0010
0010
0001
0001
,
0010
0100
1000
0001
,
1000
1000
0010
0010
,
0100
0000
0001
0000
1000
0010
1000
0000
,
0110
0101
0011
1100
,
1001
0011
0110
1001
,
0101
1100
0101
1100
,
1010
0011
1010
0011
,
1001
0110
0011
1100
,
0110
1001
0110
1001
,
1001
0000
0001
0010
0200
0000
2300
0000
,
3002
0203
0320
1030
,
0001
0100
0010
0000
0110
0000
1000
0100
,
0010
0000
0110
0000
1000
0001
1000
0000
,
1001
0000
0010
0100
0010
0000
0110
0000
,
0001
0010
0100
1000
0100
0000
0010
0001
,
1000
0001
0010
0000
0002
0000
0203
0000
,
0310
1010
0110
1001
,
2000
3200
0310
0011
,
1001
0110
2002
0000
,
0000
3003
0000
0000
,
0000
0000
0000
0000
0001
0100
0010
0000
,
1000
0001
0100
0000
0010
1000
0001
0000
,
0010
0100
1000
0000
0011
0000
0110
0000
,
1100
1001
0101
0110
,
1010
0000
1001
0000
0001
0100
0101
0000
,
1000
0010
1010
0000
0100
0010
0110
0000
,
1001
0000
0000
0000
0000
0000
1000
0000
0001
1000
0000
0000
,
0010
0000
0010
0100
0000
0000
0001
0000
1000
0001
0000
0000
,
0010
0000
0010
0100
0000
0000
1000
0000
0001
1000
0000
0000
,
0100
0000
0010
0100
0000
0000
0010
0000
0001
0010
0000
0000
,
0100
0000
1000
0100
0000
0000
0010
0000
0001
1000
0000
0000
,
0010
0000
1000
0001
0000
0000
1100
0000
0000
0001
0000
0000
,
1000
0100
0010
0100
0010
0001
,
1000
0000
0001
0000
0100
0000
0000
0110
0000
0000
1000
0000
,
0001
0100
0010
1000
0001
0010
,
0100
1000
0001
0000
0000
0000
,
1000
0000
0100
0010
0000
0000
0001
0000
0010
0100
0000
0000
,
1000
0000
0010
0100
0000
0000
0001
0000
0001
1000
0000
1000
,
0010
0000
0010
0100
0000
0100
0001
0000
0010
0100
0000
0000
,
1000
0000
0001
1000
0000
0000
0010
0000
1000
0001
0000
0000
,
0010
0000
0001
1000
0000
0000
0100
0000
0010
0001
0000
0000
,
1000
0000
0001
1000
0000
0000
0010
0000
0010
0100
0000
0100
,
0001
0000
0001
1000
0000
1000
0001
0000
0001
0010
0000
0010
,
0100
0000
0100
1000
0000
1000
0001
0000
0001
0100
0000
0100
,
0010
0000
0010
1000
0000
1000
0001
0000
0000
0000
0000
0000
,
0000
0000
0000
0000
,
0000
0000
0000
0000
1000
0001
1000
0001
,
0010
0000
0100
1000
0001
0100
0010
1000
,
0001
0000
1000
0100
0110
0000
1001
0000
,
0000
0000
0000
0000
;
#NOTES:
     dance-single:
     :
     Hard:
     15:
     :
0000
0000
0000
0000
,
0000
0000
0000
0000
,
0000
0000
0000
0000
,
0000
0000
0000
0000
0010
0001
0001
0011
,
0000
0110
0000
1000
0100
0100
0110
0000
,
0011
0000
0001
0100
0100
0101
0000
1010
,
0000
1000
0010
0010
1010
0000
0101
0000
,
1000
0100
0010
0001
1000
0000
0010
0100
,
0001
1000
0100
0010
0001
1000
0000
0001
,
0010
0100
1000
0010
0200
0002
0000
0000
,
0000
0303
0000
0000
1000
0010
0100
0001
,
0010
0000
0100
1000
0001
1000
0100
0010
,
0001
1000
0000
0010
0100
0001
0100
0010
,
2000
0002
0000
0000
0000
3003
0000
0000
,
1000
0100
0010
0001
0100
0010
0000
0100
,
0001
0000
1000
0100
1000
0001
0000
0010
,
0100
1000
0100
0001
0100
0000
1000
0010
,
0100
0001
0000
1000
0010
0001
0010
1000
,
0100
0000
0010
0001
1000
0010
0000
0100
,
0001
1000
0010
0000
1000
0100
0001
0100
,
1000
0010
0001
0010
0200
0000
0310
0000
,
1000
0010
0100
0000
0001
0000
0100
0000
0010
0000
1000
0000
0100
0000
0010
0000
,
0001
0000
0010
0001
0010
0000
0100
1000
0100
0000
0010
0100
0010
0000
0001
0000
,
1000
0100
0010
0001
0010
0100
1000
0001
,
1000
0000
0010
0100
0010
0000
1000
0000
0001
0000
0100
0010
0100
0000
0001
0000
,
1000
0001
1000
0001
1000
0000
0000
0000
0100
0010
0100
0010
0100
0000
0000
0000
,
1000
0100
0001
0100
1000
0010
0001
0010
,
0100
0010
0100
0000
0001
0000
1000
0000
0100
0010
0100
0000
1000
0000
0001
0000
,
0010
0000
0100
1000
0100
0000
0010
0001
0010
0100
1000
0001
1000
0000
0010
0000
,
0100
1000
0100
0001
0100
1000
0100
0001
,
0010
1000
0010
0001
0010
1000
0010
0001
,
0010
0100
0010
0000
0001
1000
0001
0000
0100
0000
0010
0000
1000
0001
0100
0000
,
0000
0000
0000
0000
,
1000
1000
0001
0001
,
0100
0100
0010
0010
,
1000
0100
1000
0000
0001
0100
0001
0000
,
1000
0010
1000
0000
0001
0010
0001
0000
,
1000
0010
1000
0010
0100
0001
1000
0000
,
0001
0000
0010
0000
0001
0000
0010
0000
0100
1000
0100
0000
0010
0000
0100
0000
,
0010
0001
0010
0100
1000
0100
0010
0001
,
0100
1000
0100
0010
0001
0010
0100
1000
,
0100
0001
0010
0100
1000
0100
0010
0001
,
1000
0010
0100
0001
0100
0010
1000
0001
,
1000
0100
0001
0100
1000
0010
0001
0010
,
0100
1000
0100
0001
0010
1000
0010
0001
,
1001
0011
0110
0110
,
1100
1100
0110
1001
,
0001
0010
0100
1000
0000
0000
0001
1000
0100
0010
0001
1000
,
0001
0000
0000
1000
0010
0100
0001
0100
0010
1000
0000
1000
,
0001
0000
0001
0010
0100
1000
0100
0000
0100
0010
0000
0010
,
0001
0010
0100
1000
0001
1000
0001
0000
0000
1000
0010
0100
,
0001
0000
1000
0000
0001
0000
1000
0000
0000
0000
0000
0000
0001
0000
0000
0100
0000
0000
0010
0000
0000
1000
0000
0000
,
0001
1000
0200
0310
0020
0031
0002
1003
,
0001
0000
0000
0100
0000
0000
0010
0000
0000
1000
0000
0000
0100
0000
0000
0010
0000
0000
0001
0000
0010
0000
0100
0000
,
1000
0001
0100
0010
0000
0000
2002
0000
0000
0000
0000
0000
,
0000
3003
0000
0000
,
0000
0000
0000
0000
0001
1000
0010
0100
,
0001
0010
0100
1000
0100
0010
0001
0100
,
0010
0000
1000
0000
0001
0000
1000
0000
0001
0010
0001
0010
0001
0000
0100
0000
,
0010
1000
0010
1000
0010
0000
0100
0000
0001
0000
0010
0000
0100
0000
1000
0000
,
0001
0000
0100
0000
0010
0000
1000
0000
0001
0010
0001
0010
0100
0000
0000
0000
,
1000
0100
1000
0100
0010
0000
0000
0000
0001
1000
0001
1000
0010
0000
0000
0000
,
0110
0000
0000
0000
0000
0000
0001
0000
0001
0010
0000
0010
,
0100
0000
0100
2000
0000
0000
3001
0000
0001
0100
0000
0100
,
0010
0000
0010
1000
0000
1000
0001
0010
0100
1000
0000
1000
,
0010
0000
0010
0100
0000
0100
0001
0100
0010
1000
0000
1000
,
0010
0000
0010
0100
0000
0100
0001
1000
0001
1000
0000
1000
,
0100
0000
0100
0010
0100
0010
0110
0000
0000
0110
0000
0000
,
0011
0011
0011
1100
1100
1100
,
1010
0000
0101
0000
1010
0000
0000
0110
0000
0000
0110
0000
,
0101
0101
0101
1010
1010
1010
,
0110
1001
0110
0000
0000
0000
,
1000
0010
0100
0001
0000
0100
0010
0000
1000
0001
0000
0010
,
0100
1000
0100
0010
0000
0001
0010
0000
0010
0100
0000
0100
,
1000
0000
1000
0001
0000
0001
0100
0010
0100
0010
0000
0000
,
1000
0001
1000
0001
0000
0000
0010
0100
1000
0001
0000
0001
,
0010
0000
0010
0100
1000
0100
0010
0001
0010
0100
0000
1000
,
0010
0100
0001
1000
0000
1000
0001
0000
0001
0010
0000
0010
,
0100
0000
0100
1000
0100
0010
0001
0010
0100
1000
0010
0100
,
0001
0100
0010
1000
0001
0100
0001
0010
0100
1000
0001
1000
,
0100
0010
0001
0100
0010
1000
0001
0000
0000
0000
0000
0000
,
0000
0000
0000
0000
,
0000
0000
0000
0000
1000
0001
1000
0010
,
0100
0001
0010
0100
1000
0001
0100
0010
,
1000
0000
0000
0000
0010
0100
0010
0100
0010
0000
0000
0000
1001
0000
0000
0000
,
0000
0000
0000
0000
;
#NOTES:
     dance-single:
     :
     Challenge:
     18:
     :
0000
0000
0000
0000
,
0000
0000
0000
0000
,
0000
0000
0000
0000
,
0000
0000
0000
0000
0000
0000
0000
0000
0100
0000
0001
1000
0001
0000
0100
0000
,
0001
0000
0010
0000
0100
0000
1000
0000
0100
0010
0100
0000
1000
0000
0001
0000
,
1000
0000
0010
0000
0100
0000
0010
1000
0010
0000
0100
0000
0010
0000
0100
0000
,
0001
0000
1000
0000
0100
0010
0100
0000
1000
0000
0100
0000
1000
0000
0010
0000
,
1000
0000
0001
0000
0100
0000
0010
0000
1000
0001
1000
0000
0100
0000
0010
0000
,
0001
0000
1000
0000
0010
0000
0100
0001
1000
0000
0010
0000
0000
0000
0100
0001
,
0100
0000
0010
0000
1000
0000
0001
0000
1000
0000
0100
0010
0100
0010
0100
0010
,
0100
0010
0100
0000
0000
0000
0000
0000
1000
0000
0010
0000
0100
0000
0001
0000
,
0010
0001
0010
0000
0001
0000
1000
0000
0100
0000
0010
0000
0001
0000
1000
0001
,
0100
0000
0010
0000
0000
0000
1000
0010
1000
0000
0010
0000
0100
0000
0001
0000
,
0010
0000
0100
1000
0100
1000
0100
1000
0100
1000
0100
0000
0000
0000
0000
0000
,
0001
0010
0100
1000
0010
0100
0000
0010
,
1000
0000
0001
0010
0001
1000
0000
0100
,
0010
0001
0010
1000
0010
0000
0001
0100
,
0010
1000
0000
0001
0100
1000
0100
0001
,
0010
0000
0100
1000
0001
0100
0000
0010
,
1000
0001
0100
0000
0001
0010
1000
0010
,
0001
0100
1000
0100
0010
0000
1001
0000
,
1000
0010
1000
0010
0100
0001
0100
0000
0010
1000
0100
0000
0010
0001
1000
0000
,
0001
0010
0100
1000
0100
0010
0100
0010
0001
0010
0100
1000
0001
0100
0001
0000
,
1000
0000
0010
0100
0001
0000
1000
0000
0001
0000
0010
0100
1000
0000
0001
0000
,
1000
0100
1000
0100
0010
0001
0010
0001
1000
0010
0100
0001
1000
0100
0010
0000
,
0001
0010
0100
1000
0100
0000
0010
0000
0001
0100
0010
1000
0001
0000
0100
0000
,
0010
1000
0001
0000
0010
0100
1000
0000
0100
0010
0001
0000
1000
0001
1000
0000
,
0010
0100
0001
0100
0010
1000
0010
0000
0100
0010
0100
0001
0100
0010
1000
0000
,
1001
0000
0100
0010
1000
0000
0001
0010
0100
1000
0100
0010
0001
0010
0100
0000
,
0110
0000
1000
0001
0010
0000
0100
0000
0110
0000
0001
1000
0100
0000
0010
0000
,
0001
0100
1000
0100
0001
0010
1000
0010
,
0001
0100
0010
1000
0001
0010
0100
1000
0001
0100
0010
0000
0110
0000
1001
0000
,
0000
0000
0000
0000
,
0001
1000
0010
0100
1000
0010
0001
1000
,
0010
0100
0001
1000
0100
0001
0010
1000
,
0010
0100
1000
0001
1000
0100
0001
1000
,
0001
1000
0100
0001
1000
0001
0100
1000
,
0001
0100
1000
0010
0001
0100
1000
0010
,
0001
0000
1000
0000
0010
0000
0100
0000
0001
1000
0001
1000
0001
1000
0001
1000
,
0001
0000
0010
0000
0100
1000
0100
0000
0010
0000
0001
0000
1000
0100
1000
0000
,
0001
0000
0100
0000
0010
1000
0010
0000
0100
0000
0010
0000
1000
0001
1000
0000
,
0001
0000
1000
0010
0100
0000
0001
1000
0100
0000
0010
0001
1000
0000
0010
0000
,
0100
0000
0001
1000
0100
0000
0010
0001
0100
0000
0010
1000
0001
0000
1000
0000
,
0100
0001
0100
0010
0100
1000
0100
0000
0010
0100
0010
1000
0010
0001
0010
0000
,
0001
0010
0001
0010
0100
1000
0100
1000
0001
0010
0100
1000
0001
0100
0010
1000
,
0110
0101
0011
0110
,
1100
0011
1001
0110
,
0001
1000
0001
1000
0100
0010
0001
0010
0100
1000
0001
1000
,
0010
0100
0001
0010
0100
1000
0100
0010
0100
0001
0100
1000
,
0001
0010
1000
0010
0001
0010
0100
1000
0001
0100
0010
0100
,
1000
0100
0001
1000
0010
0001
0010
0100
0010
1000
0100
0001
,
1000
0000
0010
0000
0001
0000
0010
0000
0100
0000
0010
0000
2001
0000
0000
3100
0000
0000
1200
0000
0000
0310
0000
0000
,
0021
0130
1000
0100
0001
1000
0100
0001
,
1002
0000
0000
0013
0000
0000
0021
0000
0000
0130
0000
0000
1200
0000
0000
0310
0000
0000
0001
0000
0010
0000
1000
0000
,
0001
0010
1000
0001
0000
0000
2002
0000
0000
0000
0000
0000
,
0000
0000
0000
0000
3003
0000
0000
0000
0000
0000
0000
0000
0001
1000
0001
0000
,
0100
0010
0100
0000
0001
1000
0001
0000
1000
0010
0100
0001
1000
0000
0010
0100
,
0001
0000
0100
0000
0010
1000
0001
0000
0010
0100
1000
0100
0010
0000
0001
0010
,
0100
0000
1000
0000
0001
0010
0100
0000
1000
0010
1000
0010
0100
0001
0010
0100
,
1000
0001
1000
0001
0010
0100
1000
0100
0010
0001
0010
0100
1000
0001
0100
0010
,
1000
0001
0100
0010
1000
0001
1000
0000
0001
0010
0100
1000
0100
0000
0000
0000
,
1000
0100
0010
0001
0010
0000
0000
0000
0001
1000
0001
1000
0110
0000
0000
0000
,
1001
0000
0000
1000
0100
0010
0001
0000
0001
0010
0000
0010
,
0100
0000
0100
1000
1000
1000
0001
0000
0001
0100
0000
0100
,
0010
0000
0010
1000
0001
1000
0001
0010
0100
1000
0100
0010
,
0001
0100
0010
1000
0010
0100
0001
1000
0010
0100
0100
0100
,
0001
1000
0100
0010
0001
1000
0010
0100
0001
0010
0100
0010
,
0001
1000
0100
0010
0001
0001
0110
0000
0000
1001
0000
0000
,
1010
1100
0110
1001
0110
1001
,
0101
0000
1010
0000
1001
0000
0000
0110
0000
0000
1100
0000
,
0101
0011
1010
1001
0101
0110
,
1100
1001
0101
0000
0000
0000
,
1000
0001
0100
0000
0010
0000
1000
0000
0010
0000
0100
0000
0001
0010
0001
0000
0100
0000
0001
0000
1000
0000
0100
0000
,
0010
0001
1000
0000
0001
0000
0010
0000
0100
0000
1000
0000
0100
0010
0100
0000
0001
0000
0100
0010
0100
0000
1000
0000
,
0100
0010
0100
0000
0001
0000
0100
0010
0100
0000
1000
0000
0100
0010
0001
0000
0010
0000
0100
0000
1000
0000
0001
0000
,
0010
0100
0010
0000
0001
0000
1000
0000
0001
0000
0100
0000
0010
1000
0001
0000
0100
0000
0010
0000
0100
0000
0001
0000
,
1000
0100
1000
0000
0001
0000
1000
0000
0010
0000
0100
0000
0010
1000
0010
0000
0100
0000
0010
0000
1000
0000
0100
0000
,
0010
0001
1000
0000
0001
0000
0010
0000
0100
0000
1000
0000
0001
1000
0001
0000
0100
0000
0001
1000
0001
0000
0010
0000
,
0001
1000
0001
0000
0100
0000
0001
0000
0010
0000
0001
0000
0100
0000
0010
0000
0100
0000
0001
0000
1000
0000
0001
0000
,
0010
0100
0010
0000
0001
0000
1000
0000
0010
0000
1000
0000
0001
0000
0010
0000
0001
0000
0100
0000
0010
0000
0100
0000
,
0001
1000
0001
0000
0100
0000
0010
0000
1000
0000
0010
0000
1001
0000
0000
0000
0000
0000
0000
0000
0000
0000
0000
0000
,
0000
0000
0000
0000
,
0000
0000
0000
0000
1000
0001
0100
0010
,
0001
1000
0100
0001
1000
0100
0001
1000
,
0010
0000
0000
0000
0001
0100
1000
0010
0001
0000
0000
0000
1001
0000
0000
0000
,
0000
0000
0000
0000
;
#NOTES:
     dance-double:
     :
     Easy:
     9:
     :
00000000
00000000
00000000
00000000
,
00000000
00000000
00000000
00000000
,
00000000
00000000
00000000
00000000
,
00000000
00000000
00000000
00000000
00000001
00000000
00000000
00000001
,
00000000
00000001
00000000
00001000
00000000
00000000
00001000
00000000
,
00001000
00000000
00010000
00000000
00000000
00010000
00000000
00010000
,
00000000
10000000
00000000
00000000
10000000
00000000
10000000
00000000
,
00010000
00000000
10000000
00000000
00100000
00000000
00000000
01000000
,
00000000
00010000
00000000
00100000
00000000
00001000
00000000
00010000
,
00001000
00000000
00000100
00000000
00000010
00002000
00000000
00000000
,
00000000
00003000
00000000
00000000
00000001
00000000
00000100
00000000
,
00000010
00000000
00000000
00001000
00000000
00000100
00000000
00010000
,
00000000
00001000
00000000
00010000
01000000
00000000
10000000
00000000
,
01000000
00200000
00000000
00000000
00000000
00300000
00000000
00000000
,
00010000
00000000
00100000
00000000
01000000
00000000
00000000
10000000
,
01000000
00000000
00100000
00000000
00001000
00000000
00000000
00010000
,
00000000
00000100
00000000
00001000
00000000
00000000
00000100
00000010
,
00000000
00000001
00000000
00000010
00000000
00000100
00000000
00001000
,
00000000
00000000
00000001
00000100
00000000
00001000
00000000
00010000
,
00000000
00001000
00000000
00000000
00010000
00000000
00100000
00000000
,
10000000
01000000
00100000
00000000
,
00020000
01030000
20000000
31000000
,
00100000
00001000
00010000
00001000
,
00000200
00000310
00000002
00000013
,
00002000
00003100
00000020
00000130
,
00000001
00000001
00000001
00000000
00001000
00001000
00001000
00000000
,
00000001
00001000
00010000
10000000
,
00010000
00010000
00010000
00000000
10000000
10000000
10000000
00000000
,
10000000
00010000
00001000
00000001
,
00000010
00000100
00000010
00000100
,
00010000
00001000
00010000
00001000
,
00010000
00000000
00100000
00000000
01000000
00000000
00010000
10000000
,
00000000
00000000
00000000
00000000
,
00000000
00000000
00000000
00000000
,
00000000
00000000
00000000
00000000
,
00000000
00000000
00000000
00000000
,
00000000
00000000
00000000
00000000
,
00000000
00000000
00000000
00000000
,
00000000
00000000
00000000
00000000
,
11000000
00000000
01100000
00000000
,
00110000
00000000
01100000
00000000
,
00101000
00000000
00011000
00000000
,
00010100
00000000
00001100
00000000
,
00000110
00000000
00000011
00000000
,
00001001
00000000
00000110
00000000
,
00001001
00000000
00000000
00000000
,
00000000
00000000
00000000
00000000
,
00000001
00000100
00000010
00000010
,
00001000
00000100
00000100
00010000
,
00001000
00001000
00100000
00010000
,
00010000
10000000
01000000
01000000
,
00100000
00000000
00010000
00000000
00100000
00010000
00100000
00000000
,
01000000
10000000
01000000
00010000
,
00001000
00010000
00001000
00000000
00000100
00000000
00000001
00000000
,
00001000
00000001
00002002
00000000
,
00000000
00003003
00000000
00000000
,
00000000
00000000
00000001
00000100
,
00001000
00010000
00001000
00100000
,
01000000
10000000
00020000
00130000
,
20000000
30100000
00020000
01030000
,
20000000
00000000
31000000
00000000
00100000
00100000
00000000
00000000
,
00001000
00001000
00000000
00000000
00010000
00010000
00000000
00000000
,
00000110
00000000
00000001
00000001
,
00000100
00001000
00010000
00010000
,
00001000
00100000
00010000
00100000
,
01000000
10000000
00010000
01000000
,
00100000
10000000
01000000
00100000
,
00001000
00010000
00001000
00010000
,
00001000
00001000
00001000
00000100
00000010
00000100
,
00000100
00000000
00000010
00000000
00000100
00000000
00000000
00000001
00000000
00000000
00001000
00000000
,
00000010
00000010
00000010
00000100
00000001
00000100
,
00000100
00000010
00001000
00000000
00000000
00000000
,
00000002
00000000
00000203
00000000
,
00002300
00000000
00013000
01000000
,
10000000
00010000
00100000
01000000
,
20000000
00000000
30200000
00000000
,
00320000
00000000
00032000
00000000
,
00003200
00000000
00000301
00000100
,
00000010
00001000
00000001
00000010
,
00001000
00010000
01000000
10000000
,
00100000
00010000
00011000
00000000
,
00000000
00000000
00000000
00000000
,
00000000
00000000
00001000
00010000
,
00100000
00010000
00001000
00000010
,
00001000
00010000
00011000
00000000
,
00000000
00000000
00000000
00000000
;
#NOTES:
     dance-double:
     :
     Medium:
     12:
     :
00000000
00000000
00000000
00000000
,
00000000
00000000
00000000
00000000
,
00000000
00000000
00000000
00000000
,
00000000
00000000
00000000
00000000
00000010
00000001
00000010
00000100
,
00000000
00000100
00000000
00001000
00000010
00001000
00000100
00000000
,
00000100
00000000
00010000
00001000
00010000
00100000
00000000
00100000
,
00000000
10000000
00010000
10000000
01000000
00000000
01000000
00000000
,
10000000
01000000
00100000
00010000
10000000
00000000
01000000
00010000
,
00001000
00000000
00010000
00001000
00000100
00000010
00000000
00001000
,
00000001
00000100
00000010
00001000
00000001
00000020
00000000
00000000
,
00000000
00000030
00000000
00000000
00000001
00000010
00000100
00001000
,
00000100
00000000
00000010
00001000
00010000
00000000
00001000
00010000
,
00100000
01000000
00000000
00010000
10000000
01000000
00100000
01000000
,
10000000
00020000
00000000
00000000
00000000
00030000
00000000
00000000
,
11000000
00000000
01100000
00000000
00110000
00000000
00000000
00001000
,
00010000
00000000
00001000
00000100
00000010
00000100
00000000
00000101
,
00000000
00001010
00000000
00000110
00000000
00000000
00000001
00000010
,
00000001
00000010
00000000
00001010
00000000
00011000
00000000
01010000
,
00000000
00000000
00100000
00010000
00100000
01000000
00000000
11000000
,
00000000
01010000
00000000
00000000
00001000
00010000
00001000
00000100
,
00000010
00000100
00000010
00001000
00000002
00000000
00000003
00000000
,
00000001
00000100
00000010
00000000
00001000
00000001
00000010
00000000
,
00000011
00001010
00011000
01010000
,
10000000
01000000
00100000
00010000
10000000
00100000
01000000
00000000
,
10100000
00110000
00011000
00001100
,
00000001
00000100
00000010
00000000
00001000
00000010
00000100
00000000
,
00000001
00000100
00001000
00000100
00000001
00000010
00001000
00000000
,
00010000
00001000
00100000
00000000
00010000
10000000
01000000
00000000
,
00100000
00010000
00100000
00010000
00001000
00000100
00000010
00000000
,
00000011
00000011
00001100
00001100
,
00000001
00000100
00001000
00000000
00010000
01000000
10000000
00000000
,
11000000
00000000
01100000
00000000
00010000
00100000
00001000
00010000
,
00000000
00000000
00000000
00000000
,
00010000
00001000
00000010
00000001
,
00000100
00000010
00001000
00000100
,
00000010
00000010
00000001
00000001
,
00000010
00001000
00010000
00100000
,
10000000
10000000
01000000
01000000
,
00010000
00000000
00001000
00000000
00000010
00000100
00000010
00000000
,
00000110
00000011
00000101
00001100
,
00011000
00110000
00011000
00001010
,
00011000
01010000
11000000
10010000
,
10100000
00110000
00011000
00001100
,
00001001
00011000
10010000
00011000
,
00000000
00000110
00011000
01100000
,
00011000
00000000
00001000
00000100
00000002
00000000
00002003
00000000
,
00003200
00020300
00032000
00103000
,
01000000
10000000
01000000
00000000
01100000
00000000
00100000
00010000
,
00100000
00000000
00101000
00000000
00001000
00010000
00001000
00000000
,
00001100
00000000
00000100
00000010
00000100
00000000
00000101
00000000
,
00000001
00001000
00000001
00000000
00000110
00000000
00001000
00000001
,
00001000
00000110
00000002
00000203
,
00002300
00013000
00110000
10100000
,
20000000
32000000
03020000
00031000
,
00001010
00000011
00002002
00000000
,
00000000
00003003
00000000
00000000
,
00000000
00000000
00000000
00000000
00000001
00000100
00001000
00000000
,
00010000
00001000
00010000
00000000
00001000
00010000
00100000
00000000
,
10000000
00010000
01000000
00000000
01010000
00000000
01100000
00000000
,
10100000
10010000
11000000
01010000
,
00011000
00000000
00110000
00000000
00010000
00001000
00011000
00000000
,
00000100
00000010
00000110
00000000
00000001
00001000
00001001
00000000
,
00000110
00000000
00000000
00000000
00000000
00000000
00001000
00000000
00000001
00001000
00000000
00000000
,
00000010
00000000
00000000
00000100
00000000
00000000
00000001
00000000
00001000
00000001
00000000
00000000
,
00000010
00000000
00000000
00001000
00000000
00000000
00010000
00000000
00001000
00010000
00000000
00000000
,
01000000
00000000
00100000
01000000
00000000
00000000
10000000
00000000
00010000
10000000
00000000
00000000
,
00100000
00000000
01000000
00100000
00000000
00000000
10000000
00000000
00010000
10000000
00000000
00000000
,
01000000
00010000
00001000
00000100
,
00000010
00000100
00000001
00000010
00001000
00010000
,
00001000
00000000
00010000
00000000
00100000
00000000
00000000
00010000
00000000
00000000
00001000
00000000
,
00010000
01000000
10000000
01000000
00100000
00010000
,
10000000
00010000
10000000
00000000
00000000
00000000
,
10000000
00000000
01000000
00100000
00000000
00000000
01000000
00000000
00010000
00001000
00000000
00000000
,
00010000
00000000
00001000
00000010
00000000
00000000
00000100
00000000
00000100
00001000
00000000
00001000
,
00000001
00000000
00000001
00000010
00000000
00000010
00001000
00000000
00010000
00001000
00000000
00000000
,
00010000
00000000
00001000
00010000
00000000
00000000
00100000
00000000
10000000
00010000
00000000
00000000
,
00100000
00000000
00010000
10000000
00000000
00000000
01000000
00000000
00100000
00010000
00000000
00000000
,
10000000
00000000
00010000
10000000
00000000
00000000
00100000
00000000
00100000
00010000
00000000
00010000
,
00001000
00000000
00001000
00000100
00000000
00000000
00000001
00000000
00000001
00000010
00000000
00000010
,
00000100
00000000
00000100
00001000
00000000
00000000
00000001
00000000
00000001
00000100
00000000
00000100
,
00001000
00000000
00001000
00010000
00000000
00000000
00011000
00000000
00000000
00000000
00000000
00000000
,
00000000
00000000
00000000
00000000
,
00000000
00000000
00000000
00000000
00001000
00010000
00001000
00010000
,
00100000
00000000
10000000
01000000
00010000
00001000
00010000
00001000
,
00000010
00000000
00000001
00000010
00000110
00000000
00001001
00000000
,
00000000
00000000
00000000
00000000
;
#NOTES:
     dance-double:
     :
     Hard:
     15:
     :
00000000
00000000
00000000
00000000
,
00000000
00000000
00000000
00000000
,
00000000
00000000
00000000
00000000
,
00000000
00000000
00000000
00000000
00000010
00000001
00000001
00000011
,
00000000
00000110
00000000
00000001
00000100
00000100
00000101
00000000
,
00000110
00000000
00010000
00001000
00001000
00011000
00000000
00110000
,
00000000
10000000
00010000
00010000
10010000
00000000
01100000
00000000
,
10000000
01000000
00100000
00010000
10000000
00000000
01000000
00010000
,
00001000
00010000
00001000
00000100
00000001
00001000
00000000
00000001
,
00000010
00001000
00010000
01000000
20000000
00020000
00000000
00000000
,
00000000
30030000
00000000
00000000
10000000
00100000
01000000
00010000
,
00100000
00000000
00001000
00010000
00001000
00000100
00000010
00001000
,
00000001
00001000
00000000
00000100
00000010
00000001
00000010
00001000
,
00020000
00002000
00000000
00000000
00000000
00033000
00000000
00000000
,
00001000
00010000
00100000
10000000
00100000
01000000
00000000
00100000
,
00010000
00000000
00001000
00010000
00001000
00000100
00000000
00000001
,
00001000
00000100
00000010
00000001
00001000
00000000
00000001
00000100
,
00001000
00010000
00000000
00001000
00010000
00100000
10000000
00010000
,
01000000
00000000
00100000
10000000
01000000
00010000
00000000
00001000
,
00010000
00001000
00000100
00000000
00000001
00000010
00001000
00010000
,
01000000
10000000
01000000
00100000
00020000
00000000
10030000
00000000
,
10000000
00100000
01000000
00000000
00010000
00000000
01000000
00000000
00100000
00000000
10000000
00000000
01000000
00000000
00010000
00000000
,
00001000
00000000
00010000
00001000
00010000
00000000
00000010
00001000
00000010
00000000
00000100
00000001
00000100
00000000
00000010
00000000
,
00001000
00000100
00000010
00000001
00000010
00001000
00010000
00001000
,
00010000
00000000
00100000
01000000
00100000
00000000
10000000
00000000
00010000
00000000
00100000
00010000
00100000
00000000
00000000
00000000
,
00001000
00010000
00001000
00010000
00001000
00000000
00000000
00000000
00000100
00000010
00000100
00000010
00000100
00000000
00000000
00000000
,
00000001
00000010
00001000
00000010
00000001
00000100
00001000
00010000
,
01000000
00100000
01000000
00000000
10000000
00000000
00010000
00000000
01000000
00100000
01000000
00000000
00010000
00000000
10000000
00000000
,
01000000
00000000
10000000
00100000
10000000
00000000
00010000
00100000
00010000
00000000
00100000
00001000
00100000
00000000
00000000
00000000
,
00001000
00000010
00000001
00000010
00001000
00010000
00001000
00001000
,
00010000
00100000
10000000
00100000
00010000
00010000
00001000
00001000
,
00000100
00000001
00000100
00001000
00010000
01000000
10000000
00100000
,
00000000
00000000
00000000
00000000
,
10000000
10000000
01000000
01000000
,
00010000
00010000
00001000
00001000
,
00000010
00000001
00000010
00000000
00000100
00010000
00001000
00000000
,
00010000
00001000
00010000
00000000
00100000
10000000
00010000
00000000
,
10000000
01000000
00010000
00000000
00001000
00010000
00000100
00000000
,
00000020
00000000
00000032
00000000
00000103
00000010
00001000
00000001
,
00000100
00000010
00000001
00000010
00000100
00001000
00000100
00000001
,
00001000
00000100
00000010
00000001
00000010
00000100
00001000
00000100
,
00010000
00001000
00000100
00000010
00000100
00001000
00010000
00001000
,
00100000
00010000
00001000
00000100
00001000
00010000
00100000
00010000
,
01000000
00100000
00010000
00100000
10000000
01000000
00010000
01000000
,
10000000
00100000
00010000
00100000
10000000
00010000
00100000
01000000
,
10010000
11000000
01100000
00110000
,
00011000
00001100
00000110
00000011
,
00000001
00000010
00000100
00001000
00000000
00000000
00000001
00001000
00000010
00001000
00000010
00000100
,
00000001
00000000
00000000
00000001
00000100
00001000
00010000
00001000
00010000
00100000
00000000
00000000
,
01100000
00000000
00000000
10000000
00100000
01000000
00010000
00000000
00000000
10010000
00000000
00000000
,
10000000
01000000
10000000
01000000
00010000
01000000
00010000
00000000
00000000
00001000
00010000
00001000
,
00000100
00000000
00000010
00000000
00000100
00000000
00000001
00000000
00000000
00000000
00000000
00000000
00000001
00000000
00000000
00000100
00000000
00000000
00001000
00000000
00000000
00010000
00000000
00000000
,
00100000
10000000
00200000
00310000
00020000
00031000
00002000
00003100
,
00000001
00000000
00000000
00000010
00000000
00000000
00001000
00000000
00000000
00010000
00000000
00000000
01000000
00000000
00000000
10000000
00000000
00000000
01000000
00000000
00100000
00000000
01000000
00000000
,
00010000
00001000
00010000
00001000
00000000
00000000
00022000
00000000
00000000
00000000
00000000
00000000
,
00000000
00033000
00000000
00000000
,
00000000
00000000
00000000
00000000
00010000
00001000
00000010
00000001
,
00000100
00001000
00010000
00100000
10000000
01000000
00010000
01000000
,
00100000
00000000
00001000
00000000
00010000
00000000
00001000
00000000
00000100
00000010
00000100
00000010
00000100
00000000
00000001
00000000
,
00001000
00000010
00001000
00000010
00001000
00000000
00000001
00000000
00000010
00000000
00000100
00000000
00000010
00000000
00001000
00000000
,
00010000
00000000
01000000
00000000
10000000
00000000
00010000
00000000
10000000
01000000
10000000
01000000
00100000
00000000
00000000
00000000
,
00010000
00100000
00010000
00100000
00001000
00000000
00000000
00000000
00010000
00001000
00010000
00001000
00000010
00000000
00000000
00000000
,
00000110
00000000
00000000
00000000
00000000
00000000
00000001
00000000
00000001
00000010
00000000
00000010
,
00001000
00000000
00001000
00020000
00000000
00000000
00031000
00000000
00001000
00010000
00000000
00010000
,
00100000
00000000
00100000
01000000
00000000
01000000
00010000
10000000
00010000
10000000
00000000
00000000
,
01000000
00100000
01000000
00100000
00000000
00000000
00001000
00010000
00001000
00010000
00000000
00000000
,
00000100
00000010
00000100
00000010
00000000
00000000
00000001
00001000
00000001
00001000
00000000
00000000
,
00000010
00000000
00000010
00000100
00000000
00000000
00000110
00000000
00000000
00000110
00000000
00000000
,
00001010
00001010
00001010
00011000
00011000
00011000
,
00110000
00000000
00110000
00000000
00110000
00000000
00000000
01100000
00000000
00000000
01100000
00000000
,
11000000
11000000
11000000
10010000
10010000
10010000
,
01100000
10010000
01100000
00000000
00000000
00000000
,
10000000
01000000
00100000
00010000
00000000
00100000
01000000
00000000
00010000
00001000
00000000
00010000
,
00001000
00000100
00000010
00000001
00000000
00000001
00000010
00000000
00000010
00000100
00000000
00000100
,
00000001
00000000
00000001
00001000
00000000
00001000
00000100
00000010
00000100
00000010
00000000
00000000
,
00000100
00010000
00000100
00010000
00000000
00000000
00001000
00010000
00001000
00010000
00000000
00010000
,
00100000
00000000
00100000
10000000
00010000
10000000
01000000
00100000
01000000
00100000
00000000
00100000
,
00001000
00010000
00001000
00010000
00000000
00010000
00001000
00000000
00001000
00000100
00000000
00000100
,
00000001
00000000
00000001
00000010
00000100
00000010
00000001
00000010
00000100
00001000
00000100
00000010
,
00000001
00000010
00000100
00001000
00000000
00000000
00000001
00000100
00000010
00001000
00000010
00000100
,
00000001
00000100
00000010
00001000
00000000
00000000
00001001
00000000
00000000
00000000
00000000
00000000
,
00000000
00000000
00000000
00000000
,
00000000
00000000
00000000
00000000
00000001
00000100
00001000
00010000
,
00001000
00010000
00100000
10000000
01000000
00010000
00001000
00010000
,
00001000
00000000
00000000
00000000
00000010
00000100
00000010
00000100
00000010
00000000
00000000
00000000
00001001
00000000
00000000
00000000
,
00000000
00000000
00000000
00000000
;
#NOTES:
     dance-double:
     :
     Challenge:
     18:
     :
00000000
00000000
00000000
00000000
,
00000000
00000000
00000000
00000000
,
00000000
00000000
00000000
00000000
,
00000000
00000000
00000000
00000000
00000010
00000001
00000001
00000010
,
00000001
00000010
00000100
00001000
00000010
00000010
00001000
00000010
,
00001000
00010000
01000000
00100000
00100000
01000000
00100000
01000000
,
00010000
10000000
01000000
01000000
10000000
01000000
10000000
00100000
,
00010000
00001000
00010000
01000000
10000000
00000000
01000000
00100000
,
00001000
00000000
00010000
00000000
00000010
00000000
00000100
00000001
00001000
00000000
00000010
00000000
00000000
00000000
00000100
00000001
,
00000100
00000000
00001000
00000000
00010000
00000000
00100000
00000000
10000000
00000000
00010000
01000000
00010000
01000000
00010000
01000000
,
00010000
01000000
00010000
00000000
00000000
00000000
00000000
00000000
10000000
00000000
00100000
00000000
01000000
00000000
00010000
00000000
,
00100000
00000000
00000000
00000000
00001000
00000000
00010000
00000000
00001000
00000000
00000100
00000000
00000010
00000000
00001000
00000001
,
00000100
00000000
00000010
00000000
00000000
00000000
00001000
00000100
00001000
00000000
00000100
00000000
00000010
00000000
00000001
00000000
,
00000010
00000000
00001000
00010000
00001000
00010000
00001000
00010000
00001000
00010000
00001000
00000000
00000000
00000000
00000000
00000000
,
00001000
00010000
00100000
10000000
00100000
01000000
00000000
00001000
,
00100000
00000000
00010000
00001000
00000100
00000001
00000000
00000100
,
00010000
00001000
00000010
00001000
00010000
00000000
01000000
00100000
,
00010000
10000000
00000000
00100000
01000000
10000000
01000000
00010000
,
00100000
00000000
01000000
00010000
00001000
00000010
00000000
00000001
,
00000100
00000010
00001000
00000000
00010000
01000000
10000000
01000000
,
00010000
00100000
01000000
10000000
00010000
00000000
01100000
00000000
,
10000000
00100000
10000000
00100000
01000000
00010000
01000000
00000000
00010000
00100000
00001000
00000000
00010000
00000100
00001000
00000000
,
00000100
00000010
00000100
00000000
00000010
00000001
00000010
00000000
00000001
00000010
00000100
00001000
00000100
00000010
00000001
00000000
,
00000100
00000001
00000010
00001000
00010000
00100000
10000000
00010000
,
10000000
01000000
10000000
01000000
00100000
00010000
00100000
00010000
00001000
00000100
00001000
00000100
00000010
00000001
00000010
00000000
,
00000100
00001000
00000100
00000010
00000100
00000000
00001000
00000000
00000001
00001000
00000010
00000100
00000010
00000000
00001000
00000000
,
00000010
00001000
00000010
00000000
00010000
00001000
00010000
00000000
00001000
00100000
00001000
00000000
01000000
00010000
01000000
00000000
,
00100000
10000000
00100000
10000000
00010000
00100000
01000000
00000000
00100000
00010000
00100000
00010000
00001000
00000100
00000010
00000000
,
00000011
00000000
00000100
00001000
00000001
00000000
00000010
00001000
00010000
00001000
00010000
00100000
01000000
00000000
10100000
00000000
,
00100000
00010000
00100000
01000000
00100000
10000000
01000000
00010000
,
00001000
00000100
00000001
00001000
00000010
00000100
00000001
00000100
,
00001000
00010000
00100000
01000000
00010000
10000000
01000000
00100000
00010000
10000000
00010000
00000000
01100000
00000000
10010000
00000000
,
00000000
00000000
00000000
00000000
,
00010000
10000000
01000000
00010000
00001000
00100000
00010000
00001000
,
00000010
00000100
00000001
00001000
00000010
00010000
00000100
00001000
,
01000000
00100000
00001000
00010000
01000000
10000000
00100000
01000000
,
00010000
10000000
01000000
00010000
00001000
00100000
00010000
00001000
,
00000010
00000100
00000001
00001000
00000100
00000010
00010000
00001000
,
00000100
00000000
00000001
00000000
00000100
00000000
00000010
00000000
00000001
00001000
00000001
00001000
00000001
00001000
00000001
00001000
,
00000001
00000000
00000010
00000000
00000100
00001000
00000100
00000000
00010000
00000000
00001000
00000000
00000010
00000000
00000100
00000000
,
00001000
00000000
00010000
00000000
00100000
01000000
00100000
00000000
10000000
00000000
00100000
00000000
00010000
00000000
00100000
00000000
,
01000000
10000000
01000000
00000000
00100000
01000000
00100000
00000000
00010000
00100000
00010000
00000000
00001000
00000000
00010000
00000000
,
00001000
00000100
00001000
00000000
00000100
00000010
00000100
00000000
00000010
00000001
00000010
00000000
00000100
00000000
00001000
00000000
,
00000100
00000010
00000001
00000010
00001000
00000000
00010000
00000000
00100000
01000000
10000000
01000000
00100000
00000000
00010000
00000000
,
00001000
00000000
00000100
00000000
00001000
00000000
00010000
00000000
00001000
00010000
00001000
00010000
00001000
00010000
00001000
00010000
,
00001010
00000011
00000101
00001100
,
00011000
01010000
11000000
10010000
,
10000000
00100000
01000000
00010000
00100000
00001000
00010000
00001000
00000100
00000001
00001000
00000010
,
00000100
00001000
00010000
01000000
10000000
00010000
00100000
00001000
00010000
01000000
10000000
01000000
,
00100000
00010000
00100000
01000000
10000000
01000000
00010000
00001000
00100000
00001000
00010000
00001000
,
00000100
00000001
00000100
00000010
00001000
00000010
00000100
00000001
00000100
00001000
00010000
01000000
,
00100000
00000000
01000000
00000000
10000000
00000000
01000000
00000000
00100000
00000000
00010000
00000000
20010000
00000000
00000000
31000000
00000000
00000000
12000000
00000000
00000000
03100000
00000000
00000000
,
00210000
01300000
10000000
01000000
00010000
00001000
00000100
00000001
,
00001002
00000000
00000000
00000013
00000000
00000000
00000021
00000000
00000000
00000130
00000000
00000000
00001200
00000000
00000000
00000310
00000000
00000000
00000001
00000000
00000010
00000000
00001000
00000000
,
00010000
00100000
10000000
00010000
00000000
00000000
00022000
00000000
00000000
00000000
00000000
00000000
,
00000000
00000000
00033000
00000000
00000000
00000000
00001000
00010000
,
00001000
00000000
00010000
00000000
00001000
00000000
00010000
00000000
00001000
00000010
00000001
00001000
00000100
00000000
00000010
00000001
,
00001000
00000000
00000001
00000000
00000100
00001000
00010000
00000000
00001000
00010000
00100000
10000000
00010000
00000000
00100000
01000000
,
10000000
00000000
01000000
00000000
00100000
00001000
00010000
00000000
00001000
00000010
00001000
00000010
00000001
00000010
00000100
00000000
,
00001000
00000001
00001000
00000001
00000100
00000010
00000100
00000000
00001000
00010000
00001000
00010000
00100000
01000000
00100000
01000000
,
00010000
10000000
00010000
10000000
00100000
01000000
00010000
00000000
10000000
01000000
10000000
01000000
00100000
00000000
00000000
00000000
,
00010000
00100000
00010000
00100000
00001000
00000000
00000000
00000000
00010000
00000100
00010000
00000100
00000010
00000000
00000000
00000000
,
00000011
00000000
00000000
00001000
00000100
00000010
00000001
00000000
00000001
00000010
00000000
00000010
,
00001000
00000000
00001000
00010000
00010000
00010000
00001000
00000000
00001000
00010000
00000000
00010000
,
00100000
00000000
00100000
01000000
00100000
01000000
00010000
10000000
01000000
00010000
01000000
10000000
,
01000000
00100000
00010000
00001000
00000100
00000010
00000001
00001000
00000010
00000100
00000100
00000100
,
00001000
00010000
00100000
10000000
00010000
10000000
01000000
00100000
00010000
00100000
01000000
00100000
,
00001000
00010000
00001000
00000100
00000010
00000010
00000101
00000000
00000000
00000110
00000000
00000000
,
00001010
00001100
00010100
00011000
00101000
01100000
,
11000000
00000000
10100000
00000000
00110000
00000000
00000000
00011000
00000000
00000000
00001100
00000000
,
00000101
00000011
00001010
00011000
00110000
00011000
,
00001100
00011000
01010000
00000000
00000000
00000000
,
10000000
01000000
00100000
00010000
00100000
01000000
10000000
00010000
01000000
00100000
10000000
01000000
,
00100000
00001000
00010000
00001000
00000100
00000010
00001000
00000001
00000100
00001000
00010000
00001000
,
00100000
00010000
00100000
01000000
10000000
01000000
00100000
00010000
10000000
01000000
00010000
00001000
,
00100000
00001000
00010000
00000010
00001000
00000010
00000100
00000001
00001000
00000001
00000100
00001000
,
00010000
00001000
00100000
01000000
10000000
01000000
00100000
00010000
00100000
00001000
00010000
00001000
,
00000100
00000010
00000100
00000001
00001000
00000010
00000100
00000001
00000100
00001000
00010000
00001000
,
00100000
00010000
01000000
00100000
10000000
00100000
01000000
00010000
00100000
00001000
00010000
00001000
,
00000100
00000010
00001000
00000001
00000010
00000100
00001000
00000001
00000010
00001000
00010000
00001000
,
00100000
00010000
10000000
01000000
00100000
01000000
10010000
00000000
00000000
00000000
00000000
00000000
,
00000000
00000000
00000000
00000000
,
00000000
00000000
00000000
00000000
10000000
00010000
01000000
00100000
,
00010000
00001000
00000100
00000001
00000010
00001000
00010000
01000000
,
10000000
00000000
00000000
00000000
01000000
00100000
00010000
00001000
00010000
00000000
00000000
00000000
00011000
00000000
00000000
00000000
,
00000000
00000000
00000000
00000000
;
