
//----- song ID: sayo -----//
#TITLE:さよならトリップ ~夏陽 EDM edition~;
#ARTIST:東雲夏陽(from ここなつ);
#TITLETRANSLIT:Sayonara trip ~Natsuhi EDM edition~;
#ARTISTTRANSLIT:Natsuhi Shinonome (from CocoNatsu);
#BANNER:Sayonara trip ~Natsuhi EDM edition~.png;
#BACKGROUND:Sayonara trip ~Natsuhi EDM edition~-bg.png;
#CDTITLE:./CDTitles/BeatStream.png;
#MUSIC:Sayonara trip ~Natsuhi EDM edition~.ogg;
#SAMPLESTART:58.701;
#SAMPLELENGTH:15;
#BPMS:0=135;
#NOTES:
     dance-single:
     :
     Beginner:
     3:
     :
0000
0000
0000
0000
,
0000
0000
0000
0000
,
0000
0000
0000
0000
,
0000
0000
0000
0000
,
0000
0000
0000
0000
,
1000
1000
1000
0000
,
0020
0000
0030
0000
,
0001
0001
0001
0000
,
0020
0000
0000
0000
0000
0030
0000
0000
,
1000
0000
0001
0000
,
0010
0000
1000
0000
,
0001
0001
0001
0000
,
1000
1000
1000
0000
,
0001
0000
1000
0000
,
0001
0000
1000
0000
,
1000
1000
1000
0000
,
0001
0000
1000
0000
,
0010
0000
1000
0000
,
0100
0000
0001
0000
,
0001
0001
0001
0000
,
0100
0000
0100
0000
,
0010
0000
0001
0000
,
0010
0000
1000
0000
,
1000
1000
1000
0000
,
0001
0000
1000
0000
,
0020
0000
0030
0000
,
0200
0000
0300
0000
,
0002
0000
0003
0000
,
2000
0000
3000
0000
,
0200
0000
0300
0000
,
0020
0000
0030
0000
,
0001
0000
1000
0000
,
0010
0010
0010
0000
,
0100
0100
0000
0000
,
0001
0001
0000
0000
,
1000
1000
0000
0000
,
0001
0000
1000
0000
,
0001
0001
0000
0000
,
1000
1000
0000
0000
,
0100
0000
0010
0000
,
0001
0000
1000
0000
,
0010
0010
0000
0000
,
0100
0100
0000
0000
,
0001
0001
0000
0000
,
1000
0000
0001
0000
,
2000
0000
0000
3000
0000
0000
0000
0000
,
0001
0001
0000
0000
,
1000
1000
0000
0000
,
0001
0000
0100
0000
,
0002
0000
0003
0000
,
2000
0000
3000
0000
,
0200
0000
0300
0000
,
0010
0010
0000
0000
,
0002
0000
0003
0000
,
2000
0000
3000
0000
,
0020
0000
0030
0000
,
0100
0100
0100
0000
,
0002
0000
0003
0000
,
2000
0000
0000
0000
0000
3000
0000
0000
,
0000
0000
0000
0000
;
#NOTES:
     dance-single:
     :
     Easy:
     4:
     :
0000
0000
0000
0000
,
0000
0000
0000
0000
,
0000
0000
0000
0000
,
0000
0000
0000
0000
,
0000
0000
0000
0000
,
1000
1000
0100
0000
,
0020
0000
0000
0030
,
0001
0001
1000
0000
,
0020
0000
0000
0030
,
1000
0000
1001
0000
,
0001
0000
1001
0000
,
0010
1000
0100
0000
,
0010
0001
0100
0000
,
0001
0000
1001
0000
,
1000
0000
1001
0000
,
0010
1000
0100
0010
,
0002
0000
2003
3000
,
0001
0000
1001
0000
,
1000
0000
1001
0000
,
0100
0010
0001
0000
,
2000
3000
0002
0003
,
1000
0000
1001
0000
,
0001
0000
1001
0000
,
0100
0010
0001
0100
,
0002
0003
2000
3000
,
0020
0000
0000
0030
,
0200
0000
0000
0300
,
0002
0000
0000
0003
,
2000
0000
0000
3000
,
0020
0030
0200
0300
,
0010
1000
0100
0000
,
2000
0000
0000
3000
,
0100
0010
0001
0000
,
1000
1000
0001
0001
,
0100
0100
0010
0010
,
1000
1000
0001
0001
,
0200
0000
0000
0300
,
0010
0010
1000
1000
,
0100
0100
0010
0010
,
0001
0001
1000
1000
,
0002
0000
0000
0003
,
1000
0010
0100
0000
,
0001
1000
0100
0000
,
0010
0001
0100
0000
,
0010
1000
0100
0000
,
2000
0000
3001
0000
,
0010
1000
0100
0000
,
0010
0001
0100
0000
,
0010
1000
0100
0000
,
0020
0000
0000
0030
,
0002
0000
0000
0003
,
2000
0000
0000
3000
,
0010
0010
1000
1000
,
0200
0000
0000
0300
,
0020
0000
0000
0030
,
0002
0000
0000
0003
,
1000
0010
0100
0001
,
2000
0000
0000
3000
,
0000
0000
0000
0000
;
#NOTES:
     dance-single:
     :
     Medium:
     9:
     :
0000
0000
0000
0000
,
0000
0000
0000
0000
,
0000
0000
0000
0000
,
0000
0000
0000
0000
,
0000
0000
0000
0000
,
0010
0000
0100
0001
1000
0100
0000
0000
,
0020
0000
0000
0031
0100
0000
0000
0000
,
0010
0000
0100
0001
1000
0100
0000
0020
,
0000
0000
0000
0200
0030
0000
0300
0000
,
0010
0001
0100
0000
0010
1000
0100
0000
,
0010
0000
0010
0000
0001
0100
0010
0000
,
1000
0000
1000
0000
0100
0010
0001
0000
,
1000
0100
0010
0100
0010
0000
0000
0000
,
1000
0001
0100
0000
0010
0100
0001
0000
,
1000
0000
1000
0000
0010
0100
0001
0000
,
0100
0000
0100
0000
0010
1000
0100
0000
,
1000
0100
0010
0100
0010
0000
0000
0000
,
0200
0300
1001
0000
,
0020
0030
1001
0000
,
0110
0011
0202
0303
,
0010
1000
0100
0020
0000
0000
0030
0000
,
1002
0000
0100
0003
,
2001
0000
0100
3000
,
0001
0010
0100
0010
,
0100
1000
0100
0020
0000
0000
0030
0000
,
2000
0000
0000
0000
,
0001
0000
0100
0000
0001
0000
3100
0010
,
0002
0100
1000
0100
,
1000
0000
0100
0000
1000
0000
0103
0010
,
2000
0001
0010
0001
,
0010
0000
0001
0000
0010
0000
3100
0010
,
0002
0100
1000
0103
,
0010
1000
0100
0000
0010
0100
0010
0000
,
0110
0000
0110
0000
1000
0001
0100
0000
,
0110
0000
0110
0000
0001
1000
0100
0000
,
1100
0000
1100
0000
0010
0100
0010
0000
,
1000
0001
1000
0200
0000
0000
0300
0000
,
1100
0000
1100
0000
0010
0001
0100
0000
,
0101
0000
0101
0000
0010
0100
0010
0000
,
1100
0000
1100
0000
0010
0001
0100
0000
,
0020
0000
0100
0030
,
0001
0000
0010
0100
0020
0000
0030
0000
,
0001
0000
0010
0100
0020
0000
0030
0100
,
0002
0000
0103
0010
0100
0000
0000
0000
,
0001
0000
0010
0100
0020
0000
0030
0100
,
0002
0000
1003
0000
0010
0100
0010
0000
,
0002
0000
0103
0010
0100
0000
0010
1000
,
0100
0000
0010
0100
0010
0000
0000
0000
,
0010
0000
0100
0010
0001
1000
0100
0001
,
0200
0000
0001
0000
0010
0000
0301
0010
,
2000
0000
0001
0000
0010
0000
3001
0010
,
0002
0100
1000
0103
,
0110
0000
0011
0000
1100
0000
0010
0100
,
0002
0000
1000
0000
0100
0000
1003
0100
,
0020
0000
0100
0000
1000
0000
0130
0001
,
0200
0000
0010
0000
0001
0000
0310
0001
,
0100
1100
0110
0101
,
0020
0030
0200
0300
,
2000
0000
0000
3000
,
0000
0000
0000
0000
;
#NOTES:
     dance-single:
     :
     Hard:
     12:
     :
0000
0000
0000
0000
,
0000
0000
0000
0000
,
0000
0000
0000
0000
,
0000
0000
0000
0000
,
0000
0000
0000
0000
,
0010
0000
1000
0100
0010
0001
0000
1000
,
0010
1000
0010
0100
0001
1000
0100
0000
,
0010
0000
0001
0100
0010
1000
0000
0001
,
0100
0001
0100
0010
1000
0100
0010
0000
,
0100
0000
1000
0001
0000
0000
0100
0000
0010
0000
0100
0000
0001
0000
0000
0000
,
0100
0000
0001
1000
0000
0000
0010
0000
0100
0000
0010
0000
1000
0000
0000
0000
,
0010
0000
1000
0001
0000
0000
0100
0000
0010
0000
0100
0000
0001
0000
1000
0000
,
0001
0100
0020
0000
0100
0000
0130
0000
,
0010
0100
0000
0000
0010
0000
0000
0000
1000
0000
0001
0000
0100
0000
0000
0000
,
0010
0100
0000
0000
0010
0000
0000
0000
0001
0000
1000
0000
0100
0000
0000
0000
,
0110
0000
1000
0010
0001
0010
0100
0000
,
0110
0000
0101
0000
0010
1000
0001
0000
,
0200
0000
0000
0310
1100
0000
1000
0000
,
0020
0000
0000
0130
0101
0000
0001
0000
,
0010
0000
0000
1000
0100
0000
0010
0000
0100
0000
0010
0000
0001
0000
0000
0000
,
1000
0010
0100
0010
0100
0001
1000
0000
,
1002
0000
0000
0103
1100
0000
0100
0000
,
2001
0000
0000
3100
0101
0000
0100
0000
,
0010
0000
0000
1000
0100
0000
0010
0000
0100
0000
0010
0000
0100
0000
0000
0000
,
1000
0010
0001
0010
1000
0010
0100
0000
,
2100
0001
0010
0001
,
0010
0000
0001
0000
0010
0000
3001
0100
,
0020
0100
1000
0100
,
1000
0000
0100
0000
1000
0000
0130
0001
,
2000
0100
0001
0100
,
0001
0000
0100
0000
0001
0000
3100
0010
,
0200
0010
0001
0010
,
1000
0310
1000
0100
,
0010
0000
0100
0000
0010
0000
0100
0000
0001
1000
0000
0000
0100
0000
0000
0000
,
1000
0000
0100
0000
0010
0000
0100
0000
1000
0001
0000
0000
0100
0000
0000
0000
,
0010
0000
0100
0000
0010
0000
0100
0000
0001
1000
0000
0000
0100
0000
0000
0000
,
1000
0100
0001
0100
1000
0100
0001
0000
,
1001
0000
0000
0000
1001
0000
0000
0000
0001
0100
0000
0000
0010
0000
0000
0000
,
1100
0000
0000
0000
1100
0000
0000
0000
0010
0001
0000
0000
0100
0000
0000
0000
,
1010
0000
0000
0000
1010
0000
0000
0000
0100
0010
0000
0000
1000
0000
0000
0000
,
0100
0010
0100
1000
0010
0100
0001
0000
,
0100
0000
0000
0010
0100
0000
0001
0000
1000
0000
0100
0000
0010
0000
0000
0000
,
0100
0000
0000
0010
0001
0000
1000
0000
0010
0000
0100
0000
0110
0000
0000
0000
,
1001
0000
0000
0100
0010
0000
0100
0000
0010
0000
1000
0000
0100
0000
0000
0000
,
0010
0000
0000
0001
1000
0000
0010
0000
0100
0000
0010
0000
0100
0000
0000
0000
,
1002
0000
1003
0100
0010
0001
0010
0000
,
0001
0000
0000
1000
0100
0000
0010
0000
0100
0000
1000
0000
0100
0000
0000
0000
,
1000
0001
0000
0000
0100
0000
0010
0000
0001
0000
0010
0000
0100
0000
0000
0001
,
1000
0000
0100
0010
0100
0001
1000
0100
,
0020
0000
0000
0000
0001
0000
0000
0000
0100
0000
0000
0000
0001
0030
0100
0000
,
2000
0000
0001
0000
0010
0000
3001
0100
,
0002
0100
1000
0103
,
1000
0100
0000
0000
0001
0100
0000
0000
1000
0000
0100
0000
0010
0000
0100
0000
,
0002
0000
1000
0000
0100
0000
1003
0100
,
0020
0000
0100
0000
0001
0000
0130
0010
,
0002
0100
1000
0103
,
1000
0010
0000
0000
0001
0010
0000
0000
1000
0000
0100
0000
0010
0000
0100
0000
,
2000
3100
0200
0301
,
0020
0100
0100
0130
,
0000
0000
0000
0000
;
#NOTES:
     dance-double:
     :
     Easy:
     4:
     :
00000000
00000000
00000000
00000000
,
00000000
00000000
00000000
00000000
,
00000000
00000000
00000000
00000000
,
00000000
00000000
00000000
00000000
,
00000000
00000000
00000000
00000000
,
00000001
00000010
00001000
00010000
,
00200000
00000000
00000000
00300000
,
10000000
01000000
00010000
00001000
,
00000200
00000000
00000000
00000300
,
00000001
00000001
00001000
00001000
,
00010000
00000000
00011000
00000000
,
00100000
00100000
10000000
10000000
,
01000000
00010000
00001000
00000000
,
00000100
00000100
00000001
00000001
,
00000010
00000000
00001000
00000000
,
00010000
00100000
10000000
10000000
,
02000000
03000000
00200000
00300000
,
00010000
00000000
00001000
00000000
,
00000001
00000000
00001001
00000000
,
00000010
00010000
00001000
00000000
,
02000000
03000000
00200000
00300000
,
01000000
00000000
00010000
00000000
,
00001000
00000000
00001001
00000000
,
00000100
00001000
00010000
01000000
,
20000000
30000000
02000000
03000000
,
00100000
00001000
00010000
00001000
,
00000200
00000000
00000000
00000300
,
00000100
00001000
00010000
00100000
,
02000000
00000000
00000000
03000000
,
00200000
00300000
00020000
00030000
,
00001000
00000100
00000010
00000000
,
00000020
00000030
00001000
00000001
,
00000100
00001000
00010000
00000000
,
00100000
00100000
10000000
10000000
,
01000000
01000000
00010000
00010000
,
00001000
00001000
00010000
00010000
,
00000200
00000000
00000000
00000000
00000000
00000300
00001000
00000000
,
00000001
00000001
00000100
00000100
,
00000010
00000010
00010000
00010000
,
00001000
00001000
00100000
00100000
,
02000000
00000000
00000000
03000000
,
00010000
00000000
00001000
00000000
00000200
00000000
00000000
00000300
,
00000010
00000100
00002000
00003000
,
00010000
00100000
10000000
00000000
,
10000000
01000000
00010000
00000000
,
00002000
00000000
00003100
00000000
,
00000001
00001000
00000100
00000000
,
00010000
00001000
00010000
00000000
,
00001000
00010000
00000010
00000000
,
00001000
00000001
00001000
00000001
,
00000200
00000000
00000000
00000300
,
00000010
00000100
00001000
00010000
,
00200000
00000000
00000000
00300000
,
10000000
01000000
00010000
00000100
,
00000002
00000000
00000000
00000003
,
00000100
00000010
00001000
00010000
,
01000000
01000000
00100000
00001000
,
00020000
00000000
00000000
00030000
,
00000000
00000000
00000000
00000000
;
#NOTES:
     dance-double:
     :
     Medium:
     9:
     :
00000000
00000000
00000000
00000000
,
00000000
00000000
00000000
00000000
,
00000000
00000000
00000000
00000000
,
00000000
00000000
00000000
00000000
,
00000000
00000000
00000000
00000000
,
00000010
00000000
00000100
00001000
00010000
00100000
00000000
00000000
,
20000000
00000000
00000000
30010000
01000000
00000000
00000000
00000000
,
00100000
00000000
10000000
01000000
00010000
00001000
00000000
00000200
,
00000000
00000000
00000302
00000003
,
00000100
00001000
00010000
00000000
00100000
10000000
01000000
00000000
,
00100000
00000000
00100000
00000000
00001000
00010000
00000100
00000000
,
00000010
00000000
00000010
00000000
00001000
00000001
00000010
00000000
,
00000100
00010000
00001000
00010000
00100000
00000000
00000000
00000000
,
10000000
00010000
01000000
00000000
00001000
01000000
00001000
00000000
,
00010000
00001000
00010000
00000000
00000010
00001000
00000100
00000000
,
00011000
00000000
00110000
00000000
00100000
00010000
01000000
00000000
,
00100000
01000000
00100000
00010000
00001000
00000000
00000000
00000000
,
00011000
00000000
00000000
00000000
00001000
00000100
00000010
00000000
,
00000010
00000000
00000010
00000000
00010000
00001000
00010000
00000000
,
00100000
00000000
00100000
00000000
10000000
01000000
00100000
00000000
,
01000000
00010000
00001000
00010000
00001000
00000000
00000100
00000000
,
00000001
00001000
00000100
00000000
00010000
00000100
00010000
00000000
,
00001000
00010000
00001000
00000000
00100000
00010000
01000000
00000000
,
00011000
00000000
00001010
00000000
00000010
00001000
00000100
00000000
,
00000010
00000100
00000010
00001000
00010000
00000000
00000000
00000000
,
00010000
00001000
00011000
01010000
,
20010000
01000000
00010000
31000000
,
01100000
00110000
00011000
00000110
,
00001002
00000100
00001000
00000103
,
00000010
00001010
00011000
00110000
,
21000000
00010000
01000000
30010000
,
00011000
00001010
00000110
00000101
,
00000120
00001000
00000100
00001030
,
00000100
00010000
00001000
00000000
01000000
00100000
10000000
00000000
,
01100000
00000000
01100000
00000000
00010000
00001000
00000100
00000000
,
00000110
00000000
00000110
00000000
00000001
00001000
00000100
00000000
,
00011000
00000000
00011000
00000000
00100000
00001000
01000000
00000000
,
10100000
00000000
10100000
00000000
10000000
01000000
00010000
00000000
,
00001000
00000000
00010000
00000000
00000100
00000010
00000001
00000000
,
00000100
00000010
00010000
00000000
00001000
00010000
00001000
00000000
,
00020000
00000000
00001000
00030000
,
00010000
00000000
01000000
00100000
00020000
00000000
00030000
00000000
,
00100000
01000000
10000000
01000000
00200000
00000000
00300000
00001000
,
00020000
00000000
00031000
00000010
00000001
00000000
00000000
00000000
,
00000100
00000000
00000001
00001000
00000200
00000000
00000300
00010000
,
00002000
00000000
01003000
00000000
00010000
10000000
01000000
00000000
,
10000000
00000000
01000000
00010000
00001000
00000000
00010000
00000000
,
00001000
00000000
00000100
00000010
00000100
00000000
00000000
00000000
,
00000010
00000000
00000100
00000001
00000100
00001000
00010000
00100000
,
02000000
00000000
00100000
00000000
00010000
03000000
00100000
10000000
,
00020000
00000000
01000000
00000000
10000000
00030000
01000000
00100000
,
02000000
00100000
00010000
03100000
,
01010000
00000000
00011000
00000000
00000110
00000000
00000001
00001000
,
00000020
00000000
00000100
00000000
00001000
00000000
00000130
00000001
,
00000200
00000000
00000010
00000000
00000001
00000000
00000310
00001000
,
02000000
00000000
00100000
00000000
10000000
00000000
03100000
10000000
,
00010000
01010000
00011000
00000110
,
00000001
00000010
00001000
00000000
00010000
00000000
00001000
00020000
,
00000000
00000000
00000000
00030000
,
00000000
00000000
00000000
00000000
;
#NOTES:
     dance-double:
     :
     Hard:
     11:
     :
00000000
00000000
00000000
00000000
,
00000000
00000000
00000000
00000000
,
00000000
00000000
00000000
00000000
,
00000000
00000000
00000000
00000000
,
00000000
00000000
00000000
00000000
,
00000001
00000000
00000010
00000100
00000000
00000000
00010000
00000000
00001000
00000000
00010000
00000000
01000000
00000000
00000000
00000000
,
00100000
00000000
00010000
10000000
00000000
00000000
01000000
00000000
00100000
00000000
00001000
00000000
00010000
00000000
00000000
00000000
,
00001100
00000000
00000101
00000000
00000010
00001000
00000100
00000000
,
00010000
00001000
00100000
00010000
01000000
00100000
01000000
00000000
,
00010000
00000000
10000000
01000000
00000000
00000000
00100000
00000000
00001000
00000000
00010000
00000000
00000010
00000000
00000000
00000000
,
00001000
00000000
00000001
00000100
00000000
00000000
00000010
00000000
00000100
00000000
00001000
00000000
00010000
00000000
00000000
00000000
,
01100000
00000000
11000000
00000000
00100000
10000000
00010000
01000000
,
00001000
00010000
00000200
00000000
00000000
00000000
00000300
00000000
,
00001000
00000001
00000000
00000000
00000100
00000000
00000000
00000000
00000010
00000000
00010000
00000000
00000100
00000000
00000000
00000000
,
00001000
00000001
00000000
00000000
00000100
00000000
00000000
00000000
00001000
00000000
00010000
00000000
00100000
00000000
00000000
00000000
,
11000000
00000000
11000000
00000000
00100000
10000000
01000000
00000000
,
10000000
01000000
00010000
00001000
00010000
00001000
00000100
00000000
,
00002002
00003003
00000100
00000010
00010000
00001000
00100000
00000000
,
00010000
00000000
10000000
01000000
00000000
00000000
00100000
00000000
01000000
00000000
00010000
00000000
00001000
00000000
00000000
00000000
,
00000110
00000000
00000101
00000000
00000010
00000001
00001000
00000100
,
00010000
00001000
02000000
00000000
00000000
00000000
03000000
00000000
,
00010000
10000000
00000000
00000000
01000000
00000000
00000000
00000000
00100000
00000000
00001000
00000000
01000000
00000000
00000000
00000000
,
00010000
10000000
00000000
00000000
01000000
00000000
00000000
00000000
00010000
00000000
00001000
00000000
00000010
00000000
00000000
00000000
,
00001010
00000000
00000101
00000000
00000010
00000001
00000100
00000000
,
00000001
00000100
00001000
00010000
00001000
00010000
00001000
00000000
,
00000010
00001000
00010000
01000000
,
20100000
00000000
00010000
00000000
00100000
00000000
30010000
01000000
,
00100000
01100000
01010000
00011000
,
00000120
00000000
00001000
00000000
00000100
00000000
00001030
00000001
,
00000100
00000110
00001100
00011000
,
01200000
00000000
10000000
00000000
01000000
00000000
10300000
00010000
,
01000000
00110000
00011000
00000110
,
00000001
00001000
00000110
00000000
00001100
00000000
00000100
00010000
,
00001000
00010000
01000000
10000000
01000000
00000000
01010000
00000000
,
00001000
00010000
00001000
00000010
00000100
00000000
00000110
00000000
,
00000010
00000100
00001000
00010000
00100000
10000000
01000000
00000000
,
00100000
01000000
00010000
00000000
00110000
00000000
00011000
00000000
,
00010000
00000010
00000100
00000010
00010000
00000010
00000100
00000000
,
00001100
00000000
00001100
00000000
00000010
00001000
00000100
00000000
,
00011000
00000000
00011000
00000000
01000000
00100000
10000000
00010000
,
01000000
00100000
01000000
00010000
00001000
00000000
00000010
00000000
,
00000001
00000000
00000000
00001000
00000010
00000000
00000100
00000000
00001000
00000000
00010000
00000000
00100000
00000000
00000000
00000000
,
01000000
00000000
00000000
00100000
01000000
00000000
00100000
00000000
10000000
00000000
01000000
00000000
10010000
00000000
00000000
00000000
,
00110000
00000000
00000000
00010000
00001000
00000000
00000100
00000000
00000001
00000000
00000100
00000000
00000010
00000000
00000000
00000000
,
00000100
00000000
00000000
00000010
00000100
00000000
00001000
00000000
00010000
00000000
01000000
00000000
00100000
00000000
00000000
00000000
,
10020000
00000000
10030000
01000000
00100000
01000000
00100000
00000000
,
00001000
00000000
00000000
00010000
00001000
00000000
00010000
00000000
00000100
00000000
00000010
00000000
00000001
00000000
00000000
00000000
,
00001000
00000001
00000010
00000100
00010000
00001000
00010000
00001000
,
00010000
00000000
00100000
01000000
00100000
10000000
00000000
00000000
,
10000000
00100000
01000000
00010000
00001000
00000000
00000010
00000000
,
00001000
00000010
00000100
00000001
00000100
00000000
00001000
00000000
,
00010000
00001000
00010000
00100000
00010000
00001000
00010000
00001000
,
00000100
00000001
00000010
00000010
,
00000001
00000010
00000100
00001000
00010000
00000000
00100000
00000000
,
00010000
00100000
01000000
10000000
01000000
00000000
00010000
00000000
,
00001000
00010000
00001000
00000010
00000001
00000100
00000001
00000100
,
00000001
00000100
00001000
00000100
00000001
00000000
00000010
00000000
,
00000002
00000003
00000200
00000300
,
00020000
00000000
00000000
00000000
00000000
00000000
00000000
00000000
00000000
00000000
00000000
00000000
00000000
00030000
00000000
00000000
,
00000000
00000000
00000000
00000000
;
