
//----- song ID: sarf -----//
#TITLE:Sakura Reflection;
#ARTIST:Ryu☆;
#BANNER:Sakura Reflection.png;
#BACKGROUND:Sakura Reflection-bg.png;
#CDTITLE:./CDTitles/REFLEC BEAT.png;
#MUSIC:Sakura Reflection.ogg;
#SAMPLESTART:78.926;
#SAMPLELENGTH:15;
#BPMS:0=181;
#STOPS:168=2.32;
#NOTES:
     dance-single:
     :
     Beginner:
     4:
     :
0000
0000
0000
0000
,
0000
0000
0000
0000
,
0000
0000
0000
0000
,
0000
0000
0000
0000
,
0000
0000
0000
0000
,
0000
0000
0000
0000
,
1000
0000
0000
0000
,
0001
0000
0000
0000
,
1000
0000
0000
0000
,
0001
0000
0000
0000
,
0100
0000
0100
0000
,
0010
0000
0010
0000
,
0100
0000
0100
0000
,
0010
0000
0010
0000
,
1000
0000
0000
0000
,
0001
0000
0000
0000
,
1000
0000
0000
0000
,
0001
0000
0000
0000
,
1001
0000
0000
0000
,
0000
0000
0000
0000
,
0010
0000
0000
0000
,
0000
0000
0000
0000
,
0100
0000
0000
0000
,
0010
0000
0000
0000
,
1000
0000
1000
0000
,
0001
0000
0001
0000
,
0010
0000
0010
0000
,
0100
0000
0100
0000
,
0010
0000
0010
0000
,
0100
0000
0100
0000
,
1000
0000
1000
0000
,
0001
0000
0001
0000
,
1000
0000
1000
0000
,
0001
0000
0001
0000
,
1000
0000
0001
0000
,
0100
0000
0010
0000
,
1000
0000
0001
0000
,
0100
0000
0010
0000
,
1000
0000
0000
0000
,
0001
0000
0000
0000
,
0100
0000
0000
0000
,
0010
0000
0000
0000
,
0100
0000
0000
0000
,
0000
0000
0000
0000
,
0000
0100
0000
0000
,
0000
0000
0000
0000
,
0000
0010
0000
0000
,
0000
0000
0000
0000
,
0000
0010
0000
0000
,
0000
0000
0000
0000
,
0000
1000
0000
0000
,
0000
0001
0000
0000
,
0000
1000
0000
0000
,
0000
0001
0000
0000
,
0000
1000
0000
1000
,
0000
0001
0000
0001
,
0000
1000
0000
1000
,
0000
0010
0010
0010
,
0000
0001
0000
0010
,
0000
0100
0000
1000
,
0000
0001
0000
0010
,
0000
0100
0000
1000
,
0000
1000
0000
0100
,
0000
0010
0000
0001
,
0000
1000
0000
0100
,
0000
0010
0000
0001
,
0000
1000
0000
0001
,
0000
0100
0100
0100
,
0000
0001
0000
1000
,
0000
0100
0100
0100
,
0000
1000
0000
0001
,
0000
0010
0010
0010
,
0000
0001
0000
1000
,
0000
0010
0010
0010
,
0000
1001
0000
0000
,
0000
0000
0000
0000
;
#NOTES:
     dance-single:
     :
     Easy:
     8:
     :
0000
0000
0000
0000
,
0000
0000
0000
0000
,
0000
0000
0000
0000
,
0000
0000
0000
0000
,
0000
0000
0000
0000
,
0000
0000
0000
0000
,
1000
1000
0001
0001
,
0100
0100
0001
0110
,
1000
1000
0001
0001
,
0100
0000
0100
0000
0001
1000
0010
0000
,
1000
1000
0100
0001
,
0010
0010
0100
1001
,
0010
0100
1000
0001
,
0010
0000
0010
0000
1000
0001
0010
0000
,
0001
0100
0001
1000
,
0100
0000
1000
0000
0001
0010
0001
0000
,
1000
0000
0001
0000
,
1000
0000
0010
0000
1000
0100
0010
0001
,
2000
0000
0000
3000
,
0002
0000
0000
0003
,
2000
0000
0000
3000
,
0002
0000
0000
0003
,
1000
0000
1000
0000
,
0001
0000
0001
0000
,
0010
0010
0010
0010
,
0000
0001
1000
0001
1000
0000
0010
0000
,
1000
0001
1000
0100
,
1000
0000
0001
0000
1000
0010
1000
0000
,
0001
0010
0001
1000
,
0001
0000
0100
0000
0001
0100
0001
0000
,
0100
0001
0100
1000
,
0100
0000
0001
0000
0100
1000
0100
0000
,
0001
0100
1000
0100
,
0001
0000
1000
0000
0001
0010
0001
0000
,
0010
1001
0100
1001
,
0010
0000
0010
0000
1000
0100
0100
0000
,
0010
1001
0100
1001
,
1000
0000
1000
0000
0001
0010
0010
0000
,
0001
1000
0000
0001
0000
1000
0000
0100
,
0000
0010
0000
0010
0000
0001
1000
0001
,
1000
0010
0000
1000
0000
0010
0000
0100
,
0000
0001
0000
0001
0000
1000
0100
1000
,
0001
0100
0000
0010
,
0000
1000
1000
1000
,
0000
0010
0000
0100
,
0000
0001
0001
0001
,
0000
1000
0000
0100
,
0000
0010
0010
0010
,
0000
0001
0000
0100
,
0000
0010
0001
0010
,
1000
0100
0010
0000
0010
0000
0010
0000
,
0010
0001
0100
1000
,
0001
0100
0010
0000
0010
0000
0010
0000
,
0010
1000
0001
0110
,
1000
0100
0010
0000
0010
0000
0010
0000
,
0010
0001
0100
1000
,
0001
0010
0100
0000
1000
0000
0001
0000
,
0100
0000
0010
1000
0001
1000
0010
0000
,
0000
1000
0100
0010
,
0001
0000
1000
0000
1000
0001
0100
0000
,
0100
0001
0010
0100
,
1000
0000
0001
0000
0001
1000
0100
0000
,
0100
1000
0100
0010
,
0001
0000
1000
0010
0100
0001
0100
0000
,
0100
0001
0100
0010
,
1000
0000
0001
0000
1000
0010
0100
0000
,
0000
0000
0001
0000
0100
0000
0001
1000
,
0001
0000
1000
0000
0001
0100
0010
0000
,
0000
0000
1000
0000
0001
0000
1000
0100
,
1000
0000
0001
0000
1000
0010
0100
0000
,
0000
0000
0001
0000
0100
0000
0001
1000
,
0001
0000
0010
0100
1000
0001
0100
0000
,
0000
1000
0000
0001
,
0000
1100
0101
1100
,
0110
1001
0000
0000
,
0000
0000
0000
0000
;
#NOTES:
     dance-single:
     :
     Medium:
     10:
     :
0000
0000
0000
0000
,
0000
0000
0000
0000
,
0000
0000
0000
0000
,
0000
0000
0000
0000
,
0000
0000
0000
0000
,
0000
0000
0000
0000
,
1000
0000
0001
0010
0000
0100
0000
1000
,
0000
0001
1000
0001
0100
0000
0110
0000
,
0001
0000
1000
0100
0000
0010
0000
0001
,
0000
1000
0001
1000
0010
0000
0110
0000
,
0001
0010
1000
0010
,
0001
0000
0010
0000
1000
0100
0010
0000
,
1000
0010
0001
0010
,
1000
0000
0010
0000
0001
0100
0010
0000
,
1000
0000
0001
1000
0000
0100
0000
1000
,
0000
0001
0100
0010
1000
0000
0010
0000
,
1000
0000
0001
1000
0000
0100
0000
1000
,
0000
0001
0010
0001
1000
0100
0010
0001
,
0200
0000
0000
0000
,
0320
0000
0000
0000
,
2030
0000
0000
0000
,
3002
0000
0000
0000
,
1003
0000
1000
0000
,
0001
0000
0001
0000
,
1000
0100
0010
0001
,
0000
0010
0010
0001
1000
0000
0110
0000
,
0010
1000
0000
0001
0000
0100
0000
0010
,
0000
0100
0001
0100
0010
0000
0110
0000
,
0001
1000
0000
0100
0000
0010
0000
0001
,
0000
1000
0001
0100
0010
0000
1001
0000
,
0100
0010
0000
0010
0000
0010
0000
0010
,
0000
1000
0001
1000
0000
0010
1000
0000
,
1000
0100
0000
0100
0000
0100
0000
0100
,
0010
0000
0010
0000
0001
1000
0001
0000
,
0001
1000
0000
0011
0000
0011
0000
1100
,
0000
0001
0010
0001
0000
1000
0100
1000
,
0001
0010
0000
1100
0000
1100
0000
0011
,
0000
1000
0100
1000
0000
0001
0010
0001
,
1000
0001
0000
0001
0000
0001
0000
0001
,
0000
1000
0000
0100
0000
0010
0001
0010
,
0100
1000
0000
0010
0000
0010
0000
0010
,
0000
0100
0000
0100
0000
0010
1000
0001
,
0101
1000
0010
1000
,
0000
0000
0000
0000
,
0000
0001
0010
0001
,
0000
0000
0000
0000
,
0000
1000
0100
1000
,
0000
0000
0000
0000
,
0000
0001
0100
0001
,
0000
0000
0000
0000
,
0100
0010
0001
0000
1000
0100
1000
0000
,
0001
0000
1000
0000
0010
1000
0100
0000
,
0010
0001
0010
0000
0100
1000
0100
0000
,
0010
0000
0002
0000
1003
0100
0010
0000
,
0100
1000
0100
0000
0010
0001
0100
0000
,
0010
0000
1000
0010
0100
0001
0010
0000
,
0100
1000
0001
0000
0000
0000
0001
0000
,
0000
1100
0101
0110
,
1000
0100
0010
0000
0100
0010
0001
0000
,
0010
0000
0001
0100
0010
1000
0100
0000
,
1000
0001
0100
0000
0010
1000
0010
0000
,
0100
0000
0002
0000
1003
0100
0010
0000
,
0001
0100
0001
0000
1000
0010
0100
0000
,
0001
0000
1000
0100
0010
0001
0100
0000
,
0010
1000
0100
0000
0010
0001
0100
0000
,
0010
0000
1000
0001
0010
0001
0100
0000
,
0110
0000
1000
0100
0010
0001
0010
0100
,
1000
0000
0001
0010
0100
1000
0010
0000
,
0100
0000
0001
0010
0100
1000
0100
0010
,
0001
0000
0020
0000
0130
1000
0001
0000
,
1000
0000
0010
0100
0001
1000
0010
0100
,
0001
0000
0010
0001
0010
0100
1000
0000
,
0110
1001
0000
0110
,
0000
0000
0001
0100
0010
1000
0020
0000
,
0030
1001
0000
0000
,
0000
0000
0000
0000
;
#NOTES:
     dance-single:
     :
     Hard:
     15:
     :
0000
0000
0000
0000
,
0000
0000
0000
0000
,
0000
0000
0000
0000
,
0000
0000
0000
0000
,
0000
0000
0000
0000
,
0000
0000
0000
0000
,
1000
0001
0100
0010
0000
1000
0010
1000
,
0000
0001
1000
0100
0010
0000
1001
0000
,
0010
0100
0001
1000
0000
0001
0100
0010
,
0000
1000
1000
0010
0100
0001
0010
0100
,
1001
0001
0100
0010
0000
1000
0001
0100
,
0000
0010
1000
0001
0010
0000
0110
0000
,
1010
0001
1000
0100
0000
0010
0001
0100
,
0000
0010
1000
0100
0010
0100
1000
0010
,
0110
0000
0001
1000
0000
0100
0010
0001
,
0000
0100
0010
0100
0001
1000
0110
0000
,
1001
0000
1010
0100
0000
0101
0010
1000
,
0000
0110
0001
1000
0100
0010
0001
0100
,
0010
0020
0000
1000
0030
0101
0000
1100
,
0000
0001
0100
1000
0000
0001
0010
1000
,
0010
0020
0000
1000
0030
0011
0000
1010
,
0000
0001
0010
1000
0000
0001
0100
1000
,
0100
0200
0000
0010
0300
1010
0000
0011
,
0000
0100
0010
0110
0000
1000
0001
0010
,
0100
0010
0000
0010
1000
0010
0100
0010
,
0001
1000
1000
1000
0100
0010
0110
0000
,
1001
0010
0100
1000
0010
0100
0001
0100
,
0000
0000
0010
1000
0010
0000
0100
0000
0001
0000
0001
0000
0100
0000
0010
0000
,
1001
0010
0100
1000
0010
0100
0001
0010
,
0000
0000
0001
0010
0001
0000
0100
0000
0010
0000
1000
0000
0100
0000
0010
0000
,
1001
0100
0010
1000
0100
0010
0001
1000
,
0000
0000
0001
0010
0100
0000
1000
0000
0001
0000
0001
0000
0100
0000
0010
0000
,
1001
0100
0010
0100
1000
0010
0100
0001
,
0000
0000
1000
0010
0100
0000
0001
0000
1000
0000
0100
0000
1000
0000
0010
0000
,
1001
0100
0010
0100
1001
0100
0010
0100
,
1001
0000
0100
0000
0010
0000
0100
0000
1000
0000
0001
0010
0100
0000
1000
0000
,
1001
0100
0010
0100
1001
0100
0010
0100
,
1001
0000
0100
0000
0010
0000
0100
0000
1000
0000
0001
1000
0100
0000
0010
0000
,
0011
0001
0000
0101
0000
1100
0000
0101
,
0000
0000
0110
0000
0000
0000
1010
0000
1000
0000
0001
0010
0100
0000
0010
0000
,
1100
0100
0000
0101
0000
1100
0000
0101
,
0000
0110
1000
0001
1000
0100
0010
0001
,
1001
0010
0100
1100
,
0000
0010
0100
0101
,
0000
1000
0010
1010
,
0000
0001
0010
0011
,
0000
0000
1000
0000
0001
0010
0100
0000
,
1000
0001
0100
0110
,
0000
0000
1000
0000
0001
0100
0010
0000
,
1000
0000
0100
0010
0001
0010
0100
0000
,
1000
0010
0100
0000
0100
0001
0100
0000
,
0100
1000
0100
0001
0100
1000
0100
0000
,
0001
0100
0010
0000
0010
1000
0010
0000
,
0010
0001
0010
0100
0010
1000
0010
0000
,
1000
0100
0001
0000
1000
0010
0001
0010
,
0100
0000
1000
0010
0100
0010
1000
0000
,
1000
0100
0010
0000
0001
0010
1000
0010
,
0001
0000
1001
0001
0110
0100
1001
0000
,
0110
0000
0000
0000
0001
0000
1000
0100
0010
0000
0001
0000
0100
0000
0010
0100
,
0001
0100
0001
0010
0100
1000
0110
0000
,
0010
0000
0001
0000
1000
0000
0010
0100
0001
0000
1000
0000
0001
0000
0100
0010
,
0100
0000
0001
0000
1000
0000
0010
0000
1000
0100
0010
0100
1000
0000
0000
0000
,
0001
0000
1000
0000
0100
0000
0010
0100
1000
0000
0001
0000
1000
0010
0100
0010
,
1000
0001
1000
0010
0100
0001
0110
0000
,
0001
0000
1000
0000
0001
0000
0010
0100
1000
0000
0010
0000
1000
0000
0010
0100
,
0001
1000
0110
0010
0011
0001
1100
0000
,
0100
0000
0010
0000
0001
0000
1000
0100
0010
0000
0001
0000
0100
0000
0010
0100
,
0001
0100
0001
0010
0100
1000
1001
0000
,
0110
0000
0001
0000
0100
0000
0001
0100
0010
0000
0100
0000
0001
0000
0010
0001
,
1000
0000
0001
0000
1000
0000
0010
0000
1000
0010
0100
0001
0100
0000
0000
0000
,
0001
0000
0010
0000
0110
0000
1000
0100
0010
0000
0001
0000
1000
0001
0100
0010
,
1000
0001
1001
0100
0010
0001
1001
0000
,
1000
0000
0001
0000
0101
0000
0010
0100
0001
0000
1000
0000
1001
0000
0010
0100
,
1000
0000
0001
0000
1000
0010
1000
0010
1000
0001
1000
0001
0100
0001
0100
0001
,
0100
1001
0000
0000
,
0000
0000
0000
0000
;
#NOTES:
     dance-double:
     :
     Easy:
     7:
     :
00000000
00000000
00000000
00000000
,
00000000
00000000
00000000
00000000
,
00000000
00000000
00000000
00000000
,
00000000
00000000
00000000
00000000
,
00000000
00000000
00000000
00000000
,
00000000
00000000
00000000
00000000
,
00001000
00000000
00010000
00000000
,
00100000
01000000
00010000
10000000
,
01000000
00000000
00010000
00000000
,
00001000
00010000
00000100
00000010
,
00000001
00000000
00001000
00000000
,
00000100
00000000
00001000
00000000
00000001
00000100
00000010
00000000
,
00001000
00000000
00000100
00000000
,
00010000
00000000
00001000
00000000
01000000
00010000
10000000
00000000
,
00010000
00000000
00100000
00000000
,
00001000
00000000
00010000
00000000
00000100
00001000
00000001
00000000
,
00000010
00000000
00000010
00000000
,
00000001
00000001
00001000
00001000
,
00000100
00000000
00000000
00000000
,
00010000
00000000
00000000
00000000
,
00001000
00000000
00000000
00000000
,
00100000
00000000
00000000
00000000
,
00010000
00000000
00000000
00000000
,
01000000
00000000
00000000
00000000
,
00100000
00000000
00100000
10000000
,
00100000
00100000
00100000
10010000
,
10000000
01000000
00100000
00001000
,
00010000
00000000
00000100
00000000
00001000
00000001
00000001
00000000
,
00000100
00000010
00010000
00001000
,
01000000
00000000
00010000
00000000
10000000
01000000
01000000
00000000
,
10000000
00010000
01000000
00001000
,
00010000
00000000
00000100
00000000
00001000
00000010
00000010
00000000
,
00001000
00000001
00000100
00000010
,
00010000
00000000
00001000
00000000
01000000
00010000
00010000
00000000
,
10000000
00010000
01000000
00100000
,
10000000
00000000
00010000
00000000
00100000
00001000
00001000
00000000
,
00010000
00000010
00001000
00000001
,
00000100
00000000
00000010
00000000
00001000
00000010
00000010
00000000
,
00001000
00000000
00000100
00000000
,
00010000
00000000
00001000
00000000
,
00100000
00010000
10000000
01000000
,
00100000
00000000
00001000
00000000
00010000
00001000
00010000
00001000
,
00010000
00001000
00000000
00000000
,
00000000
00010000
00000000
00000000
,
00000000
00001000
00000000
00000000
,
00000000
00100000
00000000
00000000
,
00000000
00010000
00000000
00000000
,
00000000
10000000
00000000
00000000
,
00000000
00100000
00000000
00000000
,
00000000
00010000
00000000
00000000
,
00000000
10000000
00000000
10000000
,
00000000
00010000
00100000
00010000
,
00000000
01000000
00000000
01000000
,
00000000
00001000
00010000
00001000
,
00000000
00010000
00000000
00010000
,
00000000
00000100
00001000
00000100
,
00000000
00000010
00000000
00000010
,
00000000
00000001
00001000
00000001
,
00000000
00000100
00000001
00001000
,
00000010
00000000
00001000
00000000
00000001
00001000
00000001
00000000
,
00000000
00000100
00000010
00010000
,
00001000
00000000
00100000
00000000
01000000
10000000
01000000
00000000
,
00000000
00100000
00010000
10000000
,
01000000
00000000
00100000
00000000
00001000
00010000
00001000
00000000
,
00000000
00010000
00000010
00000100
,
00000001
00000000
00001000
00000100
00001000
00000001
00001000
00000000
,
00000000
00000001
00000100
00001000
,
00010000
00000000
01000000
00000000
10000000
01000000
10000000
00000000
,
00000000
10000000
01000000
00010000
,
00001000
00000000
00000100
00000000
00000001
00000010
00000001
00000000
,
00000000
00000001
00000010
00001000
,
00010000
00000000
00100000
00000000
10000000
00100000
10000000
00000000
,
00000000
00010000
00100000
00001000
,
00010000
00000000
00000100
00010000
00000010
00001000
00000001
00000000
,
00000100
00000010
00000000
00000000
,
00000000
00000000
00000000
00000000
;
#NOTES:
     dance-double:
     :
     Medium:
     10:
     :
00000000
00000000
00000000
00000000
,
00000000
00000000
00000000
00000000
,
00000000
00000000
00000000
00000000
,
00000000
00000000
00000000
00000000
,
00000000
00000000
00000000
00000000
,
00000000
00000000
00000000
00000000
,
10000000
01000000
00100000
00001000
,
00010000
00000100
00000010
00000101
,
00000001
00000100
00000010
00010000
,
00001000
01000000
00100000
11000000
,
10000000
00000000
01000000
00100000
00001000
00000000
00010000
00000000
,
00000100
00000000
00001000
00000100
00001000
00000000
00001001
00000000
,
00000001
00000000
00000100
00000010
00010000
00000000
00001000
00000000
,
01000000
00000000
00010000
01000000
00010000
00000000
10010000
00000000
,
10000000
00000000
00100000
00000000
,
00010000
00000000
00000010
00000000
,
00001000
00000100
00010000
00001000
,
00100000
00010000
10000000
00010000
01000000
00000000
10010000
00000000
,
20000000
00000000
00000000
00000000
,
30200000
00000000
00000000
00000000
,
00320000
00000000
00000000
00000000
,
00032000
00000000
00000000
00000000
,
00003010
00000000
00000001
00000000
,
00000010
00000000
00001000
00000000
,
00010000
00100000
10000000
00100000
,
00000000
01000000
01000000
00001000
00010000
00000000
00011000
00000000
,
00010000
00000100
00000000
00001000
00000000
00000001
00000000
00001000
,
00000000
00000100
00000000
00010000
00001000
00000000
00011000
00000000
,
01000000
00010000
00000000
10000000
00000000
01000000
00000000
00100000
,
00000000
00010000
00000000
01000000
00000000
00001000
00010000
00000100
,
00001000
00000001
00000000
00001000
00000000
00000100
00000000
00000010
,
00000000
00000001
00000000
00000001
00000000
00001000
00000010
00001000
,
00000100
00010000
00000000
00001000
00000000
00100000
00000000
00010000
,
00000000
10000000
00010000
01000000
00000000
00010000
10000000
00000000
,
10000000
00000000
01000000
00100000
00001000
00000000
00010000
00000000
,
00001000
00000000
00000100
00000001
00000100
00000000
00001001
00000000
,
00000001
00000000
00000100
00000010
00010000
00000000
00001000
00000000
,
00100000
00000000
00010000
01000000
00010000
00000000
01100000
00000000
,
10000000
00000000
00100000
00000000
,
01000000
00000000
00001000
00000000
,
00010000
00001000
00000100
00000001
,
00001000
00000100
00000010
00000100
00001000
00000100
00000010
00000001
,
00000100
00000001
00000100
00001000
,
00000000
00000000
00000000
00000000
,
00000000
00010000
01000000
10000000
,
00000000
00000000
00000000
00000000
,
00000000
10000000
01000000
00010000
,
00000000
00000000
00000000
00000000
,
00000000
00001000
00000100
00000001
,
00000000
00000000
00000000
00000000
,
00000000
00000001
00000010
00000100
,
00010000
00000000
00001000
00000000
00010000
01000000
10000000
00000000
,
11000000
10000000
00100000
01000000
,
00001000
00000000
00010000
00000000
00001000
00000100
00000001
00000000
,
00000101
00000001
00000100
00001000
,
00010000
00000000
01000000
10000000
01000000
10000000
00010000
00000000
,
01100000
10000000
01000000
00100000
,
00001000
00000000
00010000
00000100
00010000
00001000
00010000
00000000
,
00011000
00000000
00000100
00000000
00000010
00000001
00000010
00000000
,
00000100
00000000
00001000
00000100
00010000
00001000
00010000
00000000
,
00100000
00000000
10000000
00000000
00010000
10000000
01000000
00000000
,
00100000
00000000
00001000
00010000
00000010
00001000
00000001
00000000
,
00000100
00000000
00000010
00000000
00001000
00000100
00010000
00000000
,
00001000
00000000
00010000
01000000
10000000
00100000
01000000
00000000
,
00010000
00000000
00100000
00000000
00001000
00010000
00000100
00000000
,
00001000
00000000
00000001
00000100
00000010
00001000
00000100
00000000
,
00000010
00000000
00000001
00000000
00000001
00000100
00001000
00000000
,
00010000
00000000
00001000
00000000
00010000
00100000
10000000
00000000
,
00010000
00000000
10000000
00000000
10000000
01000000
00010000
00000000
,
00001000
00000000
00010000
00000000
00001000
00000010
00000001
00000000
,
00000100
00000000
00000001
00000000
00001000
00000100
00010000
00000000
,
01000000
00000000
10000000
01000000
00010000
00001000
00010000
00000000
,
00001000
01001000
00000000
01100000
,
00000000
01010000
00011000
00010100
,
00001100
00001001
00000000
00000000
,
00000000
00000000
00000000
00000000
;
#NOTES:
     dance-double:
     :
     Hard:
     14:
     :
00000000
00000000
00000000
00000000
,
00000000
00000000
00000000
00000000
,
00000000
00000000
00000000
00000000
,
00000000
00000000
00000000
00000000
,
00000000
00000000
00000000
00000000
,
00000000
00000000
00000000
00000000
,
00001000
00010000
00001000
00100000
00010000
01000000
00010000
10000000
,
00000000
10000000
00010000
00100000
00001000
00010000
00001000
00000000
,
00010000
00001000
00010000
00000100
00001000
00000100
00000010
00000001
,
00000000
00000001
00000001
00000010
00000100
00010000
00001000
00000000
,
00110000
00000000
11000000
00000000
10000000
01000000
00100000
00001000
,
00000000
00001000
00000100
00000001
00000010
00000001
00001000
00000000
,
00001010
00000000
00000101
00000000
00000001
00000100
00000010
00010000
,
00000000
00010000
01000000
10000000
00010000
01000000
00100000
01000000
,
00010000
00000000
10000000
01000000
00000000
00010000
00001000
00000100
,
00000000
00000001
00000010
00000001
00001000
00000000
00001100
00000000
,
00000001
00000000
00000100
00000010
00000000
00001000
00000000
00000100
,
00000000
00010000
01000000
00100000
00010000
00100000
00001000
00010000
,
00000010
00000020
00000000
00001000
00000000
00000100
00000000
00000031
,
00000000
00001000
00000100
00010100
00000000
00100000
00010000
10010000
,
00100000
00200000
00000000
10000000
00000000
01000000
00000000
00310000
,
00000000
10000000
01000000
01010000
00000000
00000100
00010000
00010100
,
00001000
00002000
00000000
00000001
00000000
00000100
00000000
00013000
,
00000000
00100000
00010000
00110000
00000000
01000000
10000000
10010000
,
00100000
00000000
00100000
00000000
,
00000000
00101000
00001000
00010000
00000100
00001000
00001001
00000000
,
00000001
00000010
00000100
00001000
00000010
00000100
00001000
00010000
,
00000100
00001000
00010000
00100000
00001000
00010000
00100000
00000000
,
10000000
01000000
00100000
00010000
01000000
00100000
00010000
00001000
,
00100000
00010000
00001000
00000100
00010000
00001000
00000100
00000000
,
00000001
00000010
00000100
00000010
00000001
00000100
00001000
00010000
,
00001000
00000100
00001000
00010000
01000000
00100000
01000000
00000000
,
10000000
01000000
00100000
01000000
10000000
00100000
00010000
00001000
,
00010000
00100000
00010000
00001000
00000010
00000100
00000010
00000000
,
00001000
00010000
00100000
00010000
00001000
00000100
00000010
00000001
,
00000010
00000100
00001000
00010000
00100000
00010000
00001000
00000000
,
00010000
00001000
00000100
00001000
00010000
00100000
01000000
10000000
,
01000000
00100000
00010000
00001000
00000100
00001000
00010000
00000000
,
00001000
00000100
00000010
00000100
00001000
00010000
00001000
00000100
,
00001000
00010000
00100000
01000000
00100000
00010000
00001000
00000000
,
00010000
01000000
00100000
01000000
00010000
00001000
00010000
00100000
,
00010000
00001000
00000100
00000010
00000100
00001000
00010000
00001000
,
00011000
00010000
00000100
00000001
,
00000100
00000000
00001000
00000100
00000010
00000001
00000100
00000000
,
00000010
00001000
00010000
00100000
,
00010000
00000000
10000000
00000000
00010000
01000000
00100000
00000000
,
10000000
00100000
00010000
00001000
,
00010000
00000000
00000010
00001000
00000100
00000010
00000001
00000000
,
00000100
00000010
00001000
00010000
,
01000000
00000000
00010000
00100000
01000000
10000000
00010000
00000000
,
00000000
00000000
11000000
00000000
10000000
00000000
01000000
00100000
,
01000000
00000000
00010000
00000000
00001000
00000100
00000001
00000000
,
00000110
00000000
00000101
00000000
00000001
00000000
00000100
00000010
,
00000100
00000000
00002000
00000000
00013000
01000000
10000000
00000000
,
00010000
01000000
11000000
00000000
00010000
00000000
10000000
01000000
,
00010000
00000000
00001000
00000100
00000001
00000010
00001000
00000000
,
00000010
00000001
00000011
00000000
00001000
00000000
00000001
00000100
,
00001000
00000000
00010000
01000000
10000000
00010000
01010000
00000000
,
01100000
00000000
10000000
01000000
00010000
00000100
00000010
00000001
,
00001000
00000001
00000100
00001000
00010000
00100000
01000000
00000000
,
00010000
10000000
01000000
00010000
00001000
00000100
00000010
00010000
,
00001000
00000000
00000010
00000000
00000100
00000000
00001000
00000000
00000001
00000010
00000001
00000010
00000001
00000000
00000000
00000000
,
00001000
00000100
00000010
00001000
00010000
00100000
01000000
00100000
,
00010000
00001000
00000010
00000100
00010000
01000000
10000000
00000000
,
00010000
00000000
01000000
00000000
00001000
00000000
00100000
00000000
00010000
00000000
00001000
00000000
00000100
00000000
00001000
00000010
,
00000100
00000001
00001000
00000100
00000010
00000001
00000100
00000000
,
00000001
00000000
00000010
00000000
00000001
00000000
00000100
00000000
00001000
00000000
00010000
00000000
00001000
00000000
00100000
00010000
,
00100000
01000000
00010000
00001000
00010000
01000000
00100000
00000000
,
00010000
00000000
01000000
00000000
00100000
00000000
00010000
00000000
00001000
00000000
00000010
00000000
00000100
00000000
00001000
00000100
,
00001000
00000000
00000001
00000000
00001000
00000000
00000100
00000000
00010000
00000010
00010000
00000010
00001000
00000000
00000000
00000000
,
00000100
00000000
00000001
00000000
00000100
00000000
00000010
00000000
00001000
00000000
00010000
00000000
00000010
00001000
00000010
00001000
,
00000010
00001000
00000100
00010000
00001000
00000100
00000001
00000000
,
00001000
00000000
00100000
00000000
00010000
00000000
00100000
00000000
10000000
00000000
01000000
00000000
00010000
00000000
00001000
00010000
,
00000100
00000000
00001000
00000000
00000010
00000000
00000100
00000000
00001000
00000000
00010000
00000000
00000100
00010000
00000100
00010000
,
00001000
00011000
00000000
00000000
,
00000000
00000000
00000000
00000000
;
