
//----- song ID: slmo -----//
#TITLE:すろぉもぉしょん;
#ARTIST:ピノキオピー;
#TITLETRANSLIT:SLoWMoTIoN;
#ARTISTTRANSLIT:PinocchioP;
#BANNER:SLoWMoTIoN.png;
#BACKGROUND:SLoWMoTIoN-bg.png;
#CDTITLE:./CDTitles/DDR A.png;
#MUSIC:SLoWMoTIoN.ogg;
#SAMPLESTART:72.911;
#SAMPLELENGTH:15;
#BPMS:0=160;
#NOTES:
     dance-single:
     :
     Beginner:
     3:
     :
0000
0000
0000
0000
,
0000
0000
0000
0000
,
0000
0000
0000
0000
,
0000
0000
0000
0000
,
0000
0000
0000
0000
,
0000
0000
0000
0000
,
0000
0000
0000
0000
,
1000
1000
1000
0000
,
0010
0000
0010
0000
,
1001
0000
0000
0000
,
0001
0000
0010
0010
,
0002
0000
0003
0000
,
1000
0000
0010
0010
,
1000
0000
1000
0000
,
0001
0000
0001
0000
,
0010
0000
0010
0000
,
0020
0000
0030
0000
,
1000
1000
0000
0000
,
0010
0010
0000
0000
,
1000
1000
0000
0000
,
0100
0100
0000
0000
,
0001
0001
0000
0000
,
0010
0010
0000
0000
,
0001
0001
0000
0000
,
0100
0100
0000
0000
,
1000
0000
1000
0000
,
0010
0000
0010
0000
,
1000
0000
1000
0000
,
0100
0000
0000
0000
,
0001
0000
0001
0000
,
0010
0000
0010
0000
,
0001
0000
0001
0000
,
0002
0000
0003
0000
,
0001
0000
0010
0000
,
0100
0000
0000
0000
,
1000
0000
0010
0000
,
0100
0000
0000
0000
,
0001
0000
1000
0000
,
0001
0000
0000
0000
,
1001
0000
0000
0000
,
1000
1000
1000
0000
,
0001
0000
0001
0000
,
0010
0000
0010
0000
,
0001
0000
0100
0000
,
0001
0001
0001
0000
,
1000
0000
1000
0000
,
0010
0000
0010
0000
,
1000
0000
1000
0000
,
1001
0000
0000
0000
,
2000
0000
3000
0000
,
1000
0000
0010
0000
,
0002
0000
0003
0000
,
0001
0000
0010
0000
,
0010
0000
0010
0000
,
0100
0000
0100
0000
,
1000
1000
1000
0000
,
1001
0000
0000
0000
,
0002
0000
0003
0000
,
0001
0000
0010
0000
,
2000
0000
3000
0000
,
1000
0000
0010
0000
,
0010
0000
0010
0000
,
0100
0000
0100
0000
,
0001
0001
0001
0000
,
0010
0010
0010
0000
,
1000
1000
1000
0000
,
1001
0000
0000
0000
,
0000
0000
0000
0000
,
1000
0000
1000
0000
,
0010
0000
1000
0000
,
0200
0000
0300
0000
,
1000
0000
1000
0000
,
0001
0000
0001
0000
,
0010
0000
0001
0000
,
0001
0001
0001
0000
,
0010
0000
0010
0000
,
1001
0000
0000
0000
,
0000
0000
0000
0000
;
#NOTES:
     dance-single:
     :
     Easy:
     5:
     :
0000
0000
0000
0000
,
0000
0000
0000
0000
,
0000
0000
0000
0000
,
0000
0000
0000
0000
,
0000
0000
0000
0000
,
2000
0000
0000
0000
,
0000
0000
3000
0000
,
0100
0100
0110
0000
,
0001
0001
1000
1000
,
2002
0000
3003
0000
,
1000
0001
0010
0100
,
2000
0000
3001
0000
,
1000
0100
0001
0100
,
1000
0010
0010
0000
,
0001
0100
0100
0000
,
0001
0100
1000
0100
,
0002
0000
1003
0000
,
1000
0000
1000
1000
,
0010
0000
0010
0010
,
0100
0000
0100
0100
,
0001
0000
0001
0001
,
0010
0000
0010
0010
,
0100
0000
0100
0100
,
1000
0000
1000
1000
,
0001
0000
1001
0000
,
1000
0001
0010
0000
,
0100
1000
0100
0000
,
0010
0001
1000
0000
,
0001
1000
0001
0000
,
1000
0001
0100
0000
,
0010
1000
0001
0000
,
0010
0100
1000
0001
,
2000
0000
3001
0000
,
1000
1000
0001
0001
,
0010
0100
1000
0000
,
0001
0001
1000
1000
,
0010
0100
0001
0000
,
1000
1000
0001
0001
,
1000
0100
0010
0000
,
0001
0001
1000
1000
,
0001
1000
1001
0000
,
1000
0100
0001
0100
,
1000
0001
1000
1000
,
0001
0100
1000
0100
,
0001
1000
0001
0000
,
1000
0001
0010
0010
,
0100
1000
0001
0000
,
1000
0001
1000
0001
,
1001
0110
0000
0000
,
2000
0000
3010
0000
,
0001
0001
0100
0100
,
0002
0000
1003
0000
,
1000
1000
0001
0001
,
0000
1000
0100
0010
,
0001
0010
0100
0000
,
1000
1000
0001
0001
,
0000
1000
0010
0100
,
0002
0000
0013
0000
,
1000
1000
0100
0100
,
2000
0000
3001
0000
,
0001
0001
1000
1000
,
0000
0001
0100
0010
,
1000
0010
0100
0000
,
0001
0001
1000
1000
,
0010
0010
0100
0100
,
0001
0100
1000
0100
,
2002
0000
0000
0000
,
3003
0000
0000
0000
,
1000
1000
0100
0100
,
0010
0001
0010
0000
,
0001
0001
0100
0100
,
0010
1000
0010
0000
,
1000
0100
0001
0000
,
0001
0100
1000
0000
,
1000
0010
0001
0000
,
0010
0010
0100
0100
,
2002
0000
0000
0000
,
0000
0000
0000
0000
,
3003
0000
0000
0000
,
0000
0000
0000
0000
;
#NOTES:
     dance-single:
     :
     Medium:
     9:
     :
0000
0000
0000
0000
,
0000
0000
0000
0000
,
0000
0000
0000
0000
,
0000
0000
0000
0000
,
0000
0000
0000
0000
,
2002
0000
0000
0000
,
3003
0000
0000
0000
0000
1000
0100
0000
,
0020
0000
0000
0000
0130
0000
0000
1000
,
0000
1000
0001
0000
0100
0010
0100
0000
,
2002
0000
3003
0000
,
0001
0000
0100
0000
0010
1000
0010
0000
,
2000
0000
3100
0000
,
1000
0000
0100
0000
0010
0001
1000
0000
,
0001
0010
0100
0000
0110
0000
0000
0000
,
1000
0100
1000
0000
1001
0000
0000
0000
,
0001
0100
1000
0010
,
0002
0000
0000
1003
0000
1000
0100
0010
,
0000
0010
0000
0001
0000
0001
1000
0100
,
0000
0100
0000
0010
0000
0010
0001
1000
,
0000
1000
0000
0010
0000
0010
1000
0001
,
1000
0001
0000
0100
0000
0100
0010
1000
,
0000
1000
0000
0001
0000
0001
0010
0100
,
0000
0100
0000
1000
0000
1000
0001
1000
,
0001
1000
0000
0100
0000
0100
0000
0110
,
0000
0110
0000
0001
1000
0001
1000
0001
,
0000
0000
1001
0000
1000
0010
0100
0000
,
0001
0000
0010
0000
0100
1000
0100
0000
,
0010
0000
0001
0000
0010
0100
1000
0000
,
0001
0000
1000
0000
0001
0010
0100
0000
,
1000
0000
0001
0000
0100
0010
1000
0000
,
0001
0000
1000
0000
0100
0010
0100
0000
,
0110
0000
0000
0011
0000
0000
1001
0000
,
0001
1000
0001
1000
0001
0000
2000
0000
,
3010
0100
0001
0010
,
0001
1000
0001
0000
1001
0000
0002
0000
,
0013
0100
1000
0010
,
0100
0010
0100
0000
0110
0000
2000
0000
,
3001
0010
0100
1000
,
0001
1000
0001
0000
1001
0000
0001
0000
,
0100
0000
0010
0000
1000
0000
0001
0010
,
0100
0010
0110
1000
,
0100
0000
0001
0000
0100
0000
1000
0100
,
0020
0001
0031
1000
,
0010
0100
0010
0000
0100
0001
0100
0000
,
0010
1000
0010
0000
1001
0000
1000
0000
,
0100
0001
0100
1000
,
0001
0100
1000
0100
,
0001
1000
0001
0000
1000
0001
1000
0000
,
0110
0000
1001
0000
0000
0010
0100
0000
,
2000
0010
3002
0010
,
1003
0001
0100
0000
0010
1000
0001
0000
,
2000
0100
3002
0100
,
1003
0001
0100
0000
0010
1000
0001
0000
,
0000
0001
1000
0000
0100
0000
0010
0000
,
0001
0010
0100
0000
1000
0000
1001
0000
,
0010
0000
0010
0000
1000
0001
1000
0000
,
0000
0010
0000
0010
0100
0010
0100
0000
,
0002
0010
2003
0010
,
3001
1000
0100
0000
0010
0001
1000
0000
,
0002
0100
2003
0100
,
3001
1000
0100
0000
0010
0001
1000
0000
,
0000
1000
0001
0000
0100
0000
0010
0000
,
1000
0010
0100
0000
0001
0000
1000
0000
,
1000
0000
0100
0000
0010
0001
0010
0000
,
0100
0000
1000
0000
0001
1000
0001
0000
,
0100
0010
1000
0001
,
2002
0000
0000
0000
,
3003
0000
0000
0001
0000
0001
0010
0000
,
0220
0000
0000
0000
,
0000
0000
0330
0000
,
1000
0100
0001
0100
,
1000
0000
1000
0000
0001
1000
0001
0000
,
0100
0000
0220
0000
,
0000
0000
0330
0000
,
0002
0000
0000
0000
0000
0000
0000
1003
,
0000
1000
0001
0000
0010
0100
0010
0000
,
2002
0000
0000
0000
,
0000
0000
0000
0000
,
3003
0000
0000
0000
,
0000
0000
0000
0000
;
#NOTES:
     dance-single:
     :
     Hard:
     12:
     :
0000
0000
0000
0000
,
0000
0000
0000
0000
,
0000
0000
0000
0000
,
0000
0000
0000
0000
,
0000
0000
0000
0000
,
2002
0000
0000
0000
,
0000
0000
3003
0000
,
0101
0000
1010
0000
0110
1001
0000
0022
,
0000
0000
0033
0000
0110
0000
0100
1000
,
0001
0001
0010
0010
,
0100
0000
0100
0000
0001
0100
1000
0010
,
0001
0001
0010
0010
,
0100
0000
0100
0000
1000
0100
0001
0010
,
1000
0000
0110
0000
0001
0010
0100
0000
,
1000
0000
1001
0000
1000
0010
0100
0000
,
0101
0000
0110
0000
1000
0001
1000
0000
,
0011
1100
1001
0000
,
1000
0100
0000
0000
0000
0000
0000
0010
,
0001
1000
0000
0000
0000
0000
0000
0010
,
0100
0001
0000
0000
0000
0000
0000
1000
,
0010
0100
0000
0000
0000
0000
0000
0001
,
1000
0001
0000
0000
0000
0000
0000
1000
,
0001
0010
0000
0000
0000
0000
0000
0100
,
1000
0001
0000
0000
0000
0000
0000
0110
,
0000
0110
0000
0001
1000
0100
0010
0001
,
0000
0011
0000
0100
1000
0001
0100
0010
,
0000
0110
0000
1000
0010
0100
0010
1000
,
0001
0010
0000
0100
0010
0001
1000
0100
,
0001
0100
0000
1000
0001
1000
0010
0100
,
0001
0100
0000
0010
1000
0100
0010
0001
,
0000
0110
0000
1000
0001
1000
0010
0100
,
0001
0000
0010
0100
1000
0001
0100
0010
,
1000
0001
1000
0000
0110
0000
0002
0000
,
0013
0000
0100
1000
0100
0010
0001
1000
,
1001
1010
0110
0200
,
0301
0000
0100
0010
0100
0001
1000
0010
,
1010
0110
0101
0002
,
0013
0000
0001
0010
0100
1000
0100
0010
,
0110
0000
0011
0000
1001
0000
0001
0100
,
0010
1000
0001
1000
0001
0000
0010
0100
,
0000
1001
0000
0100
0010
0000
1000
0001
,
1000
0000
0100
0010
0001
0000
1000
0100
,
0010
0000
0001
1000
0001
0100
0010
0100
,
0000
0001
0100
1000
0100
0001
1000
0001
,
1000
0100
0001
0100
1000
0000
0001
1000
,
0001
0010
0100
1000
0001
1000
0010
0100
,
0001
1000
0001
1000
0100
0000
0010
0001
,
0010
0100
1000
0001
0100
0010
1000
0010
,
0110
0000
1001
0000
0000
0001
0100
0000
,
0101
1100
0101
1100
,
0010
1000
0100
0000
1000
0001
0010
0000
,
0110
1100
0110
1100
,
0010
0001
1000
0000
0010
1000
0001
0000
,
0000
1000
0100
0010
0001
1000
0001
0100
,
0010
0100
1000
0100
0010
1000
0001
0000
,
1100
0101
0011
1010
,
0000
1000
0001
0010
0100
1000
0010
0000
,
1010
0011
1010
0011
,
0100
0001
0010
0000
0001
1000
0100
0000
,
0110
0011
0110
0011
,
0100
1000
0001
0000
0100
0001
1000
0000
,
0000
0001
0010
0100
1000
0001
1000
1010
,
0000
0000
0110
0000
0001
0100
0001
0000
,
0001
0100
1000
0100
0010
1000
0010
1000
,
0100
0001
0100
1000
0100
0010
0100
0010
,
0001
0010
1000
0010
0100
0001
0100
1000
,
0002
2000
0000
0000
0000
0000
0000
0000
,
3003
0000
0000
0000
,
1000
1000
0100
0100
,
0010
0000
0010
0000
0001
1000
0001
0000
,
0010
0010
0100
0100
,
1000
0000
1000
0000
0001
1000
0010
1000
,
0002
0010
2003
0010
,
3002
0100
2003
3100
,
1100
0000
0011
0000
0110
1001
0000
2020
,
0000
0000
3030
0000
0110
0000
0100
0001
,
1000
0000
0000
0000
0000
0000
0000
2002
,
0000
0000
0000
0000
,
3003
0000
0000
0000
,
0000
0000
0000
0000
;
#NOTES:
     dance-double:
     :
     Easy:
     5:
     :
00000000
00000000
00000000
00000000
,
00000000
00000000
00000000
00000000
,
00000000
00000000
00000000
00000000
,
00000000
00000000
00000000
00000000
,
00000000
00000000
00000000
00000000
,
20000000
00000000
00000000
00000000
,
00000000
00000000
30000000
00000000
,
01000000
01000000
00010000
00000000
,
00001000
00001000
00010000
00010000
,
00002000
00000000
00003000
00000000
,
00000010
00000001
00000010
00000100
,
00002000
00000000
00003000
00000000
,
00001000
00000100
00010000
00001000
,
00010000
00100000
00100000
00000000
,
10000000
00010000
00010000
00000000
,
00100000
01000000
10000000
01000000
,
00020000
00000000
00031000
00000000
,
00001000
00000000
00001000
00000000
,
00000010
00000000
00000010
00000000
,
00000001
00000000
00000001
00000000
,
00001000
00000000
00001000
00000000
,
00000010
00000000
00000010
00000000
,
00000100
00000000
00000100
00000000
,
00001000
00000000
00001000
00000000
,
00010000
00000000
00010000
00000000
,
00001000
00010000
00100000
00000000
,
10000000
00010000
10000000
00000000
,
01000000
00010000
00001000
00000000
,
00010000
00001000
00010000
00000000
,
00001000
00000010
00000001
00000000
,
00001000
00000001
00001000
00000000
,
00000001
00000100
00001000
00010000
,
00002000
00000000
00013000
00000000
,
00001000
00001000
00010000
00010000
,
00100000
10000000
01000000
00000000
,
00010000
00010000
00001000
00001000
,
00000010
00000001
00000100
00000000
,
00001000
00001000
00010000
00010000
,
01000000
10000000
00100000
00000000
,
00010000
00010000
00001000
00001000
,
00010000
00001000
00011000
00000000
,
00001000
00000010
00000001
00000010
,
00000100
00001000
00000001
00001000
,
00000000
00000001
00000100
00001000
,
00010000
00001000
00010000
00000000
,
00001000
00010000
00100000
10000000
,
00010000
00100000
01000000
10000000
,
01000000
00100000
00010000
00100000
,
00101000
00011000
00000000
00000000
,
00002000
00000000
00003010
00000000
,
00000001
00000100
00001000
00010000
,
00002000
00000000
00013000
00000000
,
00100000
10000000
00010000
01000000
,
00000000
00100000
10000000
10000000
,
00010000
00100000
00100000
00000000
,
00001000
00010000
00001000
00000100
,
00000000
00000001
00000100
00001000
,
00020000
00000000
00130000
00000000
,
10000000
01000000
00010000
00001000
,
00020000
00000000
00031000
00000000
,
00000010
00000001
00001000
00000100
,
00000000
00000010
00000001
00000001
,
00001000
00000010
00000010
00000000
,
00000100
00000100
00001000
00001000
,
00010000
00010000
00001000
00001000
,
00010000
00100000
10000000
00100000
,
20020000
00000000
00000000
00000000
,
30030000
00000000
00000000
00000000
,
10000000
10000000
01000000
01000000
,
00010000
00001000
00010000
00000000
,
00001000
00001000
00000010
00000010
,
00000001
00000010
00000100
00000000
,
00001000
00000100
00010000
00000000
,
00001000
00100000
00010000
00000000
,
10000000
01000000
00010000
00000000
,
00001000
00001000
00010000
00010000
,
00022000
00000000
00000000
00000000
,
00000000
00000000
00000000
00000000
,
00033000
00000000
00000000
00000000
,
00000000
00000000
00000000
00000000
;
#NOTES:
     dance-double:
     :
     Medium:
     9:
     :
00000000
00000000
00000000
00000000
,
00000000
00000000
00000000
00000000
,
00000000
00000000
00000000
00000000
,
00000000
00000000
00000000
00000000
,
00000000
00000000
00000000
00000000
,
20020000
00000000
00000000
00000000
,
30030000
00000000
00000000
00000000
00000000
10000000
01000000
00000000
,
00020000
00000000
00000000
00000000
00031000
00000000
00000000
00000010
,
00000000
00000010
00000001
00000000
00000010
00000000
00000100
00000000
,
00002000
00000000
00003001
00000000
,
00000001
00000000
00000100
00000000
00001000
00010000
00001000
00000000
,
00020000
00000000
00130000
00000000
,
10000000
00000000
01000000
00000000
00010000
00001000
00010000
00000000
,
00001000
00000010
00000001
00000000
00000011
00000000
00000000
00000000
,
00001000
00000100
00001000
00000000
00001001
00000000
00000000
00000000
,
00000001
00000100
00001000
00010000
,
00002000
00000000
00000000
00013000
00000000
00010000
00000000
00100000
,
00000000
01000000
00000000
00010000
00000000
00010000
00000000
10000000
,
00000000
01000000
00000000
00010000
00000000
00010000
00000000
00001000
,
00000000
00000010
00000000
00000001
00000000
00000001
00000000
00001000
,
00000000
00000001
00000000
00000100
00000000
00000100
00000000
00001000
,
00000000
00010000
00000000
00001000
00000000
00001000
00000000
00010000
,
00000000
00100000
00000000
10000000
00000000
10000000
00000000
00010000
,
00000000
00100000
00000000
01000000
00000000
01000000
00000000
00010000
,
00000000
00001000
00000000
00010000
00001000
00010000
00001000
00010000
,
00000000
00011000
00001000
00000010
,
00000001
00000010
00000100
00000000
00001000
00000000
00000001
00000000
,
00000100
00000010
00000100
00000000
00000001
00000000
00000100
00000000
,
00001000
00010000
00001000
00000000
00010000
00000000
00100000
00000000
,
10000000
00010000
00100000
00000000
01000000
00000000
10000000
00000000
,
00010000
00100000
00010000
00000000
01000000
00000000
00100000
00000000
,
00020000
00000000
00000000
00032000
00000000
00000000
00013000
00000000
,
00010000
00001000
00010000
00001000
00010000
00000000
00002000
00000000
,
00003010
00000001
00000010
00000010
,
00001000
00010000
00001000
00000000
00011000
00000000
00020000
00000000
,
00130000
10000000
00100000
00100000
,
00010000
00001000
00010000
00000000
00011000
00000000
00002000
00000000
,
00003100
00000001
00000100
00000100
,
00001000
00010000
00001000
00000000
00011000
00000000
00010000
00000000
,
01000000
00000000
10000000
00000000
01000000
00000000
00010000
00001000
,
00000000
00001000
00010000
00000000
00011000
00000000
00001000
00000000
,
00000010
00000000
00000001
00000010
00000100
00000000
00001000
00000100
,
00020000
00001000
00031000
00010000
,
00100000
10000000
00100000
00000000
01000000
00010000
01000000
00000000
,
00001000
00100000
00001000
00000000
00011000
00000000
00001000
00000000
,
00000100
00000001
00000100
00001000
,
00010000
01000000
10000000
01000000
,
00010000
00001000
00000010
00001000
,
00010000
00000000
00100000
00000000
00000000
00010000
00001000
00000000
,
00000200
00000000
00000000
00000000
00000301
00000000
00000000
00000001
,
00000000
00000001
00000100
00000000
00001000
00000000
00010000
00000000
,
00200000
00000000
00000000
00000000
10300000
00000000
00000000
10000000
,
00000000
10000000
01000000
00000000
00010000
00000000
00001000
00000000
,
00010000
00001000
00000100
00000010
,
00001000
00000001
00000010
00001000
,
00010000
01000000
10000000
00010000
,
00000000
00100000
00000000
00001000
00010000
00001000
00010000
00000000
,
02000000
00000000
00000000
00000000
13000000
00000000
00000000
10000000
,
00000000
10000000
01000000
00000000
00010000
00000000
00001000
00000000
,
00000020
00000000
00000000
00000000
00000031
00000000
00000000
00000001
,
00000000
00000001
00000100
00000000
00001000
00000000
00010000
00000000
,
00001000
00010000
01000000
00100000
,
00010000
10000000
00100000
00010000
,
00001000
00000000
00000100
00000000
00000001
00000100
00000001
00000000
,
00000100
00000000
00001000
00000000
00010000
00001000
00010000
00000000
,
01000000
10000000
00010000
10000000
,
00200000
02000000
00000000
00000000
00000000
00000000
00000000
00000000
,
03300000
00000000
00000000
00010000
00000000
00010000
00100000
00000000
,
00002000
00020000
00000000
00000000
00000000
00000000
00000000
00000000
,
00000000
00000000
00033000
00000000
,
00001000
00000100
00000001
00000100
,
00001000
00000000
00001000
00000000
00010000
00001000
00010000
00000000
,
01000000
00000000
00000000
20000000
00020000
00000000
00000000
00000000
,
00000000
00000000
30030000
00000000
,
00200000
00000000
00000000
00000000
00000000
00000000
00000000
00301000
,
00000000
00001000
00010000
00000000
00001000
00000000
00000100
00000000
,
00000020
00000000
00000000
00000000
,
00000000
00000000
00000000
00000000
,
00000030
00000000
00000000
00000000
,
00000000
00000000
00000000
00000000
;
#NOTES:
     dance-double:
     :
     Hard:
     12:
     :
00000000
00000000
00000000
00000000
,
00000000
00000000
00000000
00000000
,
00000000
00000000
00000000
00000000
,
00000000
00000000
00000000
00000000
,
00000000
00000000
00000000
00000000
,
20020000
00000000
00000000
00000000
,
00000000
00000000
30030000
00000000
,
01010000
00000000
00101000
00000000
00011000
00011000
00000000
00020200
,
00000000
00030300
00001100
00000110
,
00000001
00000001
00000100
00000100
,
00001000
00000000
00001000
00000000
00010000
00100000
10000000
00010000
,
10000000
10000000
01000000
01000000
,
00010000
00000000
00010000
00000000
00001000
00000010
00000001
00000010
,
00000100
00000000
00000110
00000000
00001000
00000100
00000010
00000000
,
00000001
00000000
00001001
00000000
00000001
00000100
00001000
00000000
,
00001100
00000000
00011000
00000000
00100000
01000000
00100000
00000000
,
10100000
01010000
10010000
00000000
,
10000000
00010000
00000000
00000000
00000000
00000000
00000000
00000000
,
00100000
01000000
00000000
00000000
00000000
00000000
00000000
00000000
,
00010000
00001000
00000000
00000000
00000000
00000000
00000000
00000000
,
00000100
00000010
00000000
00000000
00000000
00000000
00000000
00000000
,
00001000
00000001
00000000
00000000
00000000
00000000
00000000
00000000
,
00000010
00000100
00000000
00000000
00000000
00000000
00000000
00000000
,
00010000
00001000
00000000
00000000
00000000
00000000
00000000
01100000
,
00000000
01100000
00000000
00010000
10000000
01000000
00100000
00010000
,
00000000
00110000
00000000
01000000
10000000
01000000
00010000
00001000
,
00000000
00011000
00000000
00001000
00000100
00000010
00000100
00000001
,
00001000
00000010
00000000
00000100
00000001
00000100
00000010
00001000
,
00000100
00010000
00000000
00001000
00010000
00001000
00100000
00010000
,
01000000
00010000
00000000
10000000
01000000
00100000
00010000
10000000
,
00000000
01100000
00000000
00010000
00100000
00001000
00010000
00001000
,
00000100
00000000
00000010
00000100
00000001
00001000
00000010
00000100
,
00000001
00001000
00000001
00000000
00001010
00000000
00000002
00000000
,
00000103
00000000
00000001
00000010
00001000
00000000
00010000
00001000
,
00011000
00110000
01100000
20000000
,
30100000
00000000
01000000
00010000
01000000
00000000
00010000
10000000
,
11000000
01010000
00011000
00002000
,
00003010
00000000
00000001
00000010
00000100
00000000
00001000
00000100
,
00001100
00000000
00000110
00000000
00000011
00000000
00000001
00000100
,
00001000
00000000
00010000
00001000
00010000
00000000
00100000
01000000
,
00000000
10010000
00000000
00100000
01000000
00000000
10000000
00010000
,
10000000
00000000
01000000
00100000
00010000
00000000
00001000
00000100
,
00000010
00000000
00000001
00001000
00000001
00000100
00000010
00000100
,
00000000
00000001
00000100
00000000
00001000
00000100
00000001
00000000
,
00001000
00000100
00000001
00000100
00001000
00000000
00000001
00001000
,
00000001
00000010
00001000
00010000
00001000
00010000
00100000
01000000
,
00010000
10000000
00010000
10000000
01000000
00000000
10000000
01000000
,
00010000
00001000
00010000
00100000
00010000
00001000
00000100
00000010
,
00000100
00000001
00001000
00000000
00000000
00000001
00000100
00000000
,
00000101
00001100
00011000
00001100
,
00000010
00001000
00000100
00000000
00010000
00001000
00100000
00000000
,
01100000
11000000
01100000
00110000
,
00100000
00001000
00010000
00000000
00001000
00000010
00000100
00000000
,
00000000
00000010
00000001
00000000
00000010
00000100
00000000
00010000
,
00001000
00000000
00010000
00000000
00100000
10000000
00100000
00000000
,
10100000
01010000
00101000
00011000
,
00000000
00001000
00000100
00000001
00000010
00001000
00000010
00000000
,
00000011
00001010
00011000
00001010
,
00000100
00001000
00000010
00000000
00010000
00001000
01000000
00000000
,
01100000
10100000
01100000
01010000
,
01000000
00001000
00010000
00000000
00001000
00000100
00000010
00000000
,
00000000
00000100
00000001
00000000
00000100
00000010
00010000
00001000
,
00000000
00000000
00010000
00000000
01000000
10000000
01000000
00000000
,
10000000
01000000
00010000
01000000
00100000
00001000
00010000
00001000
,
00000100
00000001
00000100
00001000
00000100
00000001
00001000
00000010
,
00000100
00001000
00010000
00001000
00100000
01000000
00100000
00010000
,
20000000
00020000
00000000
00000000
00000000
00000000
00000000
00000000
,
30030000
00000000
00000000
00000000
,
10000000
10000000
01000000
01000000
,
00010000
00000000
00010000
00000000
00001000
00010000
00001000
00000000
,
00000010
00000010
00000001
00000001
,
00000100
00000000
00000100
00000000
00000010
00001000
00010000
00001000
,
00020000
01000000
10000000
00100000
,
00032000
00000100
00000001
00003010
,
00001010
00000000
00010100
00000000
00011000
00011000
00000000
00202000
,
00000000
00303000
00110000
01100000
,
11000000
00000000
00000000
00000000
00000000
00000000
00000000
20020000
,
00000000
00000000
00000000
00000000
,
30030000
00000000
00000000
00000000
,
00000000
00000000
00000000
00000000
;
